osu file format v14

[General]
AudioFilename: audio.mp3
AudioLeadIn: 0
PreviewTime: 214600
Countdown: 0
SampleSet: Soft
StackLeniency: 0.2
Mode: 0
LetterboxInBreaks: 0
EpilepsyWarning: 1
WidescreenStoryboard: 1

[Editor]
Bookmarks: 25215,46667,65438,92254,102980,124432,143203,170019,191472,215606,237058,263874,279963
DistanceSpacing: 0.7
BeatDivisor: 6
GridSize: 4
TimelineZoom: 3.300004

[Metadata]
Title:Rinne
TitleUnicode:輪廻
Artist:Yamamoto Mineko
ArtistUnicode:山本美禰子
Creator:ScubDomino
Version:Loli's Expert
Source:さくら、もゆ。-as the Night's, Reincarnation-
Tags:山本 美禰子 Sakura Moyu 2nd opening op2 Takayuki Ishikura 石倉 誉之 maro Masato Yokoe 横江将人 Kotaro Odaka 小高 光太郎 FVS-SAKREC Japanese Vocal FAVORITE 15th ANNIVERSARY SPECIAL LIVE Denkigai Matsuri 2019 SUMMER FVS-SAKOST OST Original Soundtrack CD Cherry Blossom Dark Fantasy Mahou Shoujo Catgirl eroge ero video hentai game galgame nakige cute pop novelty xLolicore- HiImNoob 4525153 Shizuku- vahn10 1125647 Left jaehyeok 5062061 anime girl anime_girl jungkyuyoung 8972308
BeatmapID:2197383
BeatmapSetID:1018061

[Difficulty]
HPDrainRate:7
CircleSize:4.5
OverallDifficulty:9
ApproachRate:9.3
SliderMultiplier:1.7
SliderTickRate:1

[Events]
//Background and Video events
0,0,"kuro.png",0,0
//Break Periods
//Storyboard Layer 0 (Background)
//Storyboard Layer 1 (Fail)
//Storyboard Layer 2 (Pass)
//Storyboard Layer 3 (Foreground)
//Storyboard Layer 4 (Overlay)
//Storyboard Sound Samples

[TimingPoints]
1039,335.195530726257,4,2,1,50,1,0
1374,-100,4,2,2,50,0,0
1541,-125,4,2,3,50,0,0
1792,-125,4,2,3,5,0,0
1876,-125,4,2,3,50,0,0
2043,-125,4,2,4,50,0,0
2379,-125,4,2,5,50,0,0
2546,-125,4,2,5,50,0,0
2714,-125,4,2,6,50,0,0
2882,-125,4,2,3,50,0,0
3217,-125,4,2,3,50,0,0
3385,-125,4,2,4,50,0,0
3720,-125,4,2,7,50,0,0
4055,-125,4,2,8,50,0,0
4223,-125,4,2,9,50,0,0
4558,-125,4,2,1,50,0,0
4893,-125,4,2,4,50,0,0
5060,-125,4,2,10,50,0,0
5228,-125,4,2,11,50,0,0
5396,-125,4,2,12,50,0,0
5564,-125,4,2,1,50,0,0
5731,-125,4,2,13,50,0,0
5898,-125,4,2,11,50,0,0
6066,-125,4,2,14,50,0,0
6402,-100,4,2,1,50,0,0
6737,-100,4,2,2,50,0,0
6904,-125,4,2,3,50,0,0
7239,-125,4,2,3,50,0,0
7407,-125,4,2,4,50,0,0
7742,-111.111111111111,4,2,5,50,0,0
8077,-111.111111111111,4,2,15,50,0,0
8245,-142.857142857143,4,2,3,50,0,0
8496,-142.857142857143,4,2,3,5,0,0
8580,-142.857142857143,4,2,3,50,0,0
8748,-250.000000000001,4,2,4,50,0,0
8999,-250.000000000001,4,2,4,5,0,0
9083,-250.000000000001,4,2,7,50,0,0
9418,-250.000000000001,4,2,8,50,0,0
9586,-250.000000000001,4,2,9,50,0,0
9921,-250.000000000001,4,2,1,50,0,0
10256,-250.000000000001,4,2,4,50,0,0
10423,-250.000000000001,4,2,10,50,0,0
10592,-125,4,2,11,50,0,0
10759,-125,4,2,2,50,0,0
10927,-125,4,2,1,50,0,0
11094,-125,4,2,16,50,0,0
11261,-125,4,2,17,50,0,0
11430,-166.666666666667,4,2,14,50,0,0
11681,-166.666666666667,4,2,14,5,0,0
11765,-100,4,2,18,50,0,0
11932,-100,4,2,19,50,0,0
12099,-100,4,2,20,50,0,0
12268,-111.111111111111,4,2,6,50,0,0
12435,-111.111111111111,4,2,1,50,0,0
12603,-111.111111111111,4,2,4,50,0,0
12770,-111.111111111111,4,2,1,50,0,0
12938,-111.111111111111,4,2,4,50,0,0
13105,-111.111111111111,4,2,21,50,0,0
13273,-111.111111111111,4,2,22,50,0,0
13357,-111.111111111111,4,2,22,50,0,0
13441,-111.111111111111,4,2,23,50,0,0
13525,-111.111111111111,4,2,23,50,0,0
13608,-111.111111111111,4,2,24,50,0,0
13692,-111.111111111111,4,2,1,50,0,0
14028,-111.111111111111,4,2,1,50,0,0
14111,-111.111111111111,4,2,4,50,0,0
14195,-111.111111111111,4,2,4,50,0,0
14446,-111.111111111111,4,2,25,50,0,0
14613,-111.111111111111,4,2,26,50,0,0
14697,-111.111111111111,4,2,26,5,0,0
14782,-111.111111111111,4,2,11,50,0,0
14949,-111.111111111111,4,2,27,50,0,0
15033,-111.111111111111,4,2,1,50,0,0
15284,-111.111111111111,4,2,4,50,0,0
15452,-111.111111111111,4,2,1,50,0,0
15620,-111.111111111111,4,2,4,50,0,0
15787,-111.111111111111,4,2,28,60,0,0
15954,-111.111111111111,4,2,29,60,0,0
16122,-111.111111111111,4,2,30,60,0,0
16206,-111.111111111111,4,2,4,60,0,0
16290,-111.111111111111,4,2,1,60,0,0
16457,-125,4,2,31,60,0,0
16625,-125,4,2,25,60,0,0
16792,-125,4,2,32,60,0,0
16960,-125,4,2,33,60,0,0
17044,-125,4,2,1,60,0,0
17128,-125,4,2,34,70,0,0
17295,-125,4,2,35,70,0,0
17463,-125,4,2,36,70,0,0
17631,-100,4,2,37,70,0,0
17798,-100,4,2,1,70,0,0
17965,-100,4,2,35,70,0,0
18133,-83.3333333333333,4,2,38,70,0,0
18301,-83.3333333333333,4,2,35,70,0,0
18384,-83.3333333333333,4,2,1,70,0,0
18469,-100,4,2,39,70,0,0
18636,-100,4,2,40,70,0,0
18803,-100,4,2,41,70,0,0
18971,-100,4,2,42,70,0,0
19055,-100,4,2,4,70,0,0
19306,-100,4,2,40,70,0,0
19474,-83.3333333333333,4,2,43,70,0,0
19641,-83.3333333333333,4,2,40,70,0,0
19726,-83.3333333333333,4,2,40,70,0,0
19809,-83.3333333333333,4,2,44,70,0,0
19977,-83.3333333333333,4,2,45,70,0,0
20312,-83.3333333333333,4,2,46,70,0,0
20479,-83.3333333333333,4,2,47,70,0,0
20647,-83.3333333333333,4,2,45,70,0,0
20815,-83.3333333333333,4,2,48,70,0,0
20982,-83.3333333333333,4,2,45,70,0,0
21066,-83.3333333333333,4,2,1,70,0,0
21150,-83.3333333333333,4,2,49,70,0,0
21317,-83.3333333333333,4,2,50,70,0,0
21485,-83.3333333333333,4,2,45,70,0,0
21653,-83.3333333333333,4,2,51,70,0,0
21821,-100,4,2,52,70,0,0
21988,-100,4,2,45,70,0,0
22156,-83.3333333333333,4,2,46,70,0,0
22323,-83.3333333333333,4,2,1,70,0,0
22407,-83.3333333333333,4,2,1,5,0,0
22491,-250,4,2,53,70,0,0
22575,-250,4,2,53,70,0,0
23496,-250,4,2,53,5,0,0
23664,-166.666666666667,4,2,11,50,0,0
23748,-166.666666666667,4,2,27,50,0,0
23831,-166.666666666667,4,2,54,50,0,0
23916,-166.666666666667,4,2,54,50,0,0
24167,-166.666666666667,4,2,33,50,0,0
24250,-166.666666666667,4,2,22,50,0,0
24334,-166.666666666667,4,2,55,50,0,0
24418,-166.666666666667,4,2,11,50,0,0
24502,-166.666666666667,4,2,55,60,0,0
24586,-166.666666666667,4,2,11,60,0,0
24670,-166.666666666667,4,2,15,70,0,0
24754,-166.666666666667,4,2,56,70,0,0
24837,-166.666666666667,4,2,57,70,0,0
24921,-166.666666666667,4,2,58,70,0,0
25005,-166.666666666667,4,2,56,80,0,0
25088,-166.666666666667,4,2,59,80,0,0
25173,-125,4,2,60,50,0,0
25340,-125,4,2,7,50,0,0
25507,-125,4,2,58,50,0,0
25675,-125,4,2,61,50,0,0
25842,-125,4,2,1,50,0,0
26010,-125,4,2,8,50,0,0
26178,-125,4,2,62,50,0,0
26345,-125,4,2,63,50,0,0
26513,-125,4,2,64,50,0,0
26680,-125,4,2,65,50,0,0
26848,-125,4,2,66,50,0,0
27016,-100,4,2,6,50,0,0
27184,-100,4,2,1,50,0,0
27351,-100,4,2,65,50,0,0
27519,-100,4,2,67,50,0,0
27686,-100,4,2,68,50,0,0
27854,-125,4,2,69,50,0,0
28021,-125,4,2,5,50,0,0
28189,-125,4,2,58,50,0,0
28357,-125,4,2,70,50,0,0
28524,-125,4,2,1,50,0,0
28692,-125,4,2,5,50,0,0
28859,-125,4,2,66,50,0,0
29027,-125,4,2,5,50,0,0
29194,-125,4,2,71,50,0,0
29363,-125,4,2,70,50,0,0
29530,-125,4,2,56,50,0,0
29697,-125,4,2,72,50,0,0
29865,-125,4,2,56,50,0,0
30032,-125,4,2,5,50,0,0
30116,-125,4,2,5,5,0,0
30201,-125,4,2,66,50,0,0
30368,-125,4,2,73,50,0,0
30535,-125,4,2,68,50,0,0
30703,-125,4,2,7,50,0,0
30870,-125,4,2,58,50,0,0
31038,-125,4,2,61,50,0,0
31206,-125,4,2,1,50,0,0
31373,-125,4,2,8,50,0,0
31541,-125,4,2,62,50,0,0
31708,-125,4,2,15,50,0,0
31876,-125,4,2,64,50,0,0
32044,-125,4,2,65,50,0,0
32127,-125,4,2,65,5,0,0
32212,-125,4,2,66,50,0,0
32379,-100,4,2,6,50,0,0
32547,-100,4,2,1,50,0,0
32630,-100,4,2,1,5,0,0
32714,-100,4,2,65,50,0,0
32882,-100,4,2,67,50,0,0
33050,-100,4,2,68,50,0,0
33217,-100,4,2,69,50,0,0
33384,-100,4,2,26,50,0,0
33552,-100,4,2,23,50,0,0
33720,-100,4,2,70,50,0,0
33887,-100,4,2,1,50,0,0
34055,-100,4,2,5,50,0,0
34222,-100,4,2,66,50,0,0
34390,-100,4,2,5,50,0,0
34558,-125,4,2,71,50,0,0
34725,-125,4,2,74,50,0,0
34893,-125,4,2,62,50,0,0
35060,-125,4,2,75,50,0,0
35228,-125,4,2,76,50,0,0
35396,-125,4,2,74,50,0,0
35563,-125,4,2,77,50,0,0
35731,-125,4,2,66,50,0,0
35898,-125,4,2,68,50,0,0
36066,-125,4,2,7,50,0,0
36234,-125,4,2,58,50,0,0
36402,-125,4,2,61,50,0,0
36569,-125,4,2,1,50,0,0
36736,-125,4,2,8,50,0,0
36904,-125,4,2,62,50,0,0
37072,-125,4,2,63,50,0,0
37240,-100,4,2,78,50,0,0
37407,-100,4,2,65,50,0,0
37491,-100,4,2,65,5,0,0
37575,-100,4,2,66,50,0,0
37742,-100,4,2,6,50,0,0
37910,-100,4,2,1,50,0,0
38077,-100,4,2,65,50,0,0
38245,-100,4,2,67,50,0,0
38412,-100,4,2,68,50,0,0
38580,-125,4,2,69,50,0,0
38748,-125,4,2,5,50,0,0
38915,-125,4,2,58,50,0,0
39083,-125,4,2,70,50,0,0
39250,-125,4,2,1,50,0,0
39418,-125,4,2,5,50,0,0
39586,-125,4,2,66,50,0,0
39753,-125,4,2,79,50,0,0
39921,-125,4,2,80,50,0,0
40088,-125,4,2,7,50,0,0
40256,-125,4,2,66,50,0,0
40424,-125,4,2,72,50,0,0
40591,-125,4,2,56,50,0,0
40759,-125,4,2,70,50,0,0
40843,-125,4,2,70,5,0,0
40927,-125,4,2,81,50,0,0
41094,-125,4,2,82,50,0,0
41262,-111.111111111111,4,2,83,50,0,0
41429,-111.111111111111,4,2,84,50,0,0
41597,-111.111111111111,4,2,64,50,0,0
41765,-111.111111111111,4,2,85,50,0,0
41932,-111.111111111111,4,2,22,50,0,0
42100,-111.111111111111,4,2,65,50,0,0
42268,-100,4,2,67,50,0,0
42435,-100,4,2,15,50,0,0
42519,-100,4,2,15,5,0,0
42603,-100,4,2,86,50,0,0
42770,-100,4,2,21,50,0,0
42854,-100,4,2,21,5,0,0
42938,-100,4,2,87,50,0,0
43105,-100,4,2,88,50,0,0
43273,-100,4,2,55,50,0,0
43441,-100,4,2,65,50,0,0
43608,-100,4,2,23,50,0,0
43776,-100,4,2,75,50,0,0
43944,-83.3333333333333,4,2,89,50,0,0
44111,-83.3333333333333,4,2,25,50,0,0
44195,-83.3333333333333,4,2,25,5,0,0
44279,-100,4,2,90,50,0,0
44446,-100,4,2,26,50,0,0
44614,-100,4,2,91,50,0,0
44781,-100,4,2,10,50,0,0
44949,-100,4,2,57,50,0,0
45116,-100,4,2,92,50,0,0
45284,-100,4,2,15,50,0,0
45451,-100,4,2,93,50,0,0
45619,-100,4,2,12,50,0,0
45787,-100,4,2,94,50,0,0
45871,-100,4,2,94,50,0,0
45955,-100,4,2,11,50,0,0
46122,-100,4,2,95,50,0,0
46290,-125,4,2,32,50,0,0
46457,-125,4,2,22,50,0,0
46541,-125,4,2,22,5,0,0
46625,-100,4,2,49,60,0,0
46792,-100,4,2,10,60,0,0
46960,-100,4,2,79,60,0,0
47127,-100,4,2,11,60,0,0
47295,-125,4,2,96,60,0,0
47463,-125,4,2,10,60,0,0
47631,-100,4,2,81,60,0,0
47798,-100,4,2,22,60,0,0
47882,-100,4,2,1,60,0,0
47965,-100,4,2,97,60,0,0
48133,-100,4,2,10,60,0,0
48301,-100,4,2,79,60,0,0
48468,-100,4,2,98,60,0,0
48636,-100,4,2,99,60,0,0
48803,-100,4,2,10,60,0,0
48971,-142.857142857143,4,2,100,60,0,0
49139,-142.857142857143,4,2,10,60,0,0
49307,-100,4,2,101,60,0,0
49474,-100,4,2,10,60,0,0
49558,-100,4,2,10,5,0,0
49642,-100,4,2,79,60,0,0
49809,-90.909090909091,4,2,11,60,0,0
49977,-90.909090909091,4,2,96,60,0,0
50060,-90.909090909091,4,2,96,5,0,0
50145,-125,4,2,10,60,0,0
50312,-125,4,2,102,60,0,0
50479,-125,4,2,22,60,0,0
50564,-125,4,2,1,60,0,0
50647,-125,4,2,103,60,0,0
50815,-125,4,2,10,60,0,0
50982,-125,4,2,79,60,0,0
51150,-125,4,2,104,60,0,0
51317,-125,4,2,99,60,0,0
51485,-100,4,2,10,60,0,0
51653,-142.857142857143,4,2,105,60,0,0
51820,-142.857142857143,4,2,10,60,0,0
51988,-100,4,2,106,60,0,0
52155,-100,4,2,107,60,0,0
52239,-100,4,2,107,5,0,0
52323,-100,4,2,108,60,0,0
52491,-100,4,2,109,60,0,0
52658,-100,4,2,110,60,0,0
52826,-100,4,2,19,60,0,0
52993,-100,4,2,111,60,0,0
53161,-100,4,2,112,60,0,0
53245,-100,4,2,1,60,0,0
53329,-100,4,2,83,60,0,0
53496,-100,4,2,113,60,0,0
53664,-100,4,2,108,60,0,0
53831,-100,4,2,13,60,0,0
53999,-100,4,2,114,60,0,0
54167,-100,4,2,107,60,0,0
54334,-100,4,2,115,60,0,0
54502,-100,4,2,107,60,0,0
54669,-100,4,2,116,60,0,0
54837,-100,4,2,19,60,0,0
54921,-100,4,2,19,5,0,0
55005,-100,4,2,117,60,0,0
55172,-100,4,2,27,60,0,0
55340,-100,4,2,1,60,0,0
55507,-100,4,2,19,60,0,0
55675,-100,4,2,118,60,0,0
55843,-100,4,2,20,60,0,0
55927,-100,4,2,1,60,0,0
56010,-100,4,2,119,60,0,0
56178,-100,4,2,19,60,0,0
56345,-100,4,2,117,60,0,0
56513,-100,4,2,6,60,0,0
56681,-100,4,2,1,60,0,0
56848,-100,4,2,19,60,0,0
57016,-100,4,2,120,60,0,0
57183,-100,4,2,15,60,0,0
57351,-90.9090909090909,4,2,121,60,0,0
57519,-90.9090909090909,4,2,18,60,0,0
57602,-90.9090909090909,4,2,18,5,0,0
57687,-90.9090909090909,4,2,122,60,0,0
57854,-111.111111111111,4,2,123,60,0,0
58189,-111.111111111111,4,2,60,60,0,0
58357,-111.111111111111,4,2,124,60,0,0
58524,-111.111111111111,4,2,35,60,0,0
58692,-111.111111111111,4,2,125,60,0,0
58859,-111.111111111111,4,2,107,60,0,0
58944,-111.111111111111,4,2,1,60,0,0
59027,-111.111111111111,4,2,99,60,0,0
59195,-111.111111111111,4,2,126,60,0,0
59530,-111.111111111111,4,2,108,60,0,0
59697,-111.111111111111,4,2,127,60,0,0
59865,-111.111111111111,4,2,99,60,0,0
60033,-83.3333333333333,4,2,49,60,0,0
60200,-83.3333333333333,4,2,10,60,0,0
60284,-83.3333333333333,4,2,10,5,0,0
60368,-83.3333333333333,4,2,128,60,0,0
60536,-100,4,2,129,60,0,0
60870,-100,4,2,79,60,0,0
60955,-100,4,2,1,60,0,0
61038,-100,4,2,15,60,0,0
61206,-100,4,2,60,60,0,0
61374,-71.4285714285714,4,2,130,60,0,0
61457,-71.4285714285714,4,2,1,60,0,0
61541,-71.4285714285714,4,2,10,60,0,0
61625,-71.4285714285714,4,2,1,60,0,0
61708,-71.4285714285714,4,2,131,60,0,0
61876,-90.9090909090909,4,2,132,60,0,0
62127,-90.9090909090909,4,2,132,5,0,0
62212,-90.9090909090909,4,2,60,60,0,0
62379,-90.9090909090909,4,2,133,60,0,0
62546,-90.9090909090909,4,2,134,60,0,0
62631,-90.9090909090909,4,2,1,60,0,0
62714,-90.9090909090909,4,2,135,60,0,0
62882,-90.9090909090909,4,2,1,60,0,0
63049,-90.9090909090909,4,2,136,60,0,0
63384,-90.9090909090909,4,2,137,60,0,0
63552,-90.9090909090909,4,2,136,60,0,0
63887,-90.9090909090909,4,2,138,60,0,0
64139,-90.9090909090909,4,2,138,5,0,0
64223,-66.6666666666667,4,2,139,60,0,0
64306,-66.6666666666667,4,2,139,5,0,0
64390,-142.857142857143,4,2,140,60,0,0
64641,-142.857142857143,4,2,140,5,0,0
64726,-66.6666666666667,4,2,140,60,0,0
64809,-66.6666666666667,4,2,1,60,0,0
64893,-66.6666666666667,4,2,1,60,0,0
64977,-66.6666666666667,4,2,1,60,0,0
65061,-66.6666666666667,4,2,2,60,0,0
65145,-66.6666666666667,4,2,1,60,0,0
65396,-83.3333333333333,4,2,141,70,0,1
65563,-83.3333333333333,4,2,10,70,0,1
65647,-83.3333333333333,4,2,10,5,0,1
65731,-83.3333333333333,4,2,128,70,0,1
65898,-83.3333333333333,4,2,142,70,0,1
66066,-83.3333333333333,4,2,142,70,0,1
66234,-83.3333333333333,4,2,79,70,0,1
66318,-83.3333333333333,4,2,79,70,0,1
66402,-83.3333333333333,4,2,143,70,0,1
66485,-83.3333333333333,4,2,143,70,0,1
66569,-83.3333333333333,4,2,5,70,0,1
66737,-83.3333333333333,4,2,51,70,0,1
66821,-83.3333333333333,4,2,51,70,0,1
66904,-83.3333333333333,4,2,60,70,0,1
67072,-83.3333333333333,4,2,128,70,0,1
67239,-83.3333333333333,4,2,142,70,0,1
67323,-83.3333333333333,4,2,142,70,0,1
67575,-83.3333333333333,4,2,79,70,0,1
67742,-100,4,2,143,70,0,1
67909,-100,4,2,5,70,0,1
68078,-83.3333333333333,4,2,51,70,0,1
68245,-83.3333333333333,4,2,26,70,0,1
68329,-83.3333333333333,4,2,26,5,0,1
68413,-83.3333333333333,4,2,122,70,0,1
68580,-83.3333333333333,4,2,117,70,0,1
68747,-83.3333333333333,4,2,117,70,0,1
68916,-83.3333333333333,4,2,79,70,0,1
68999,-83.3333333333333,4,2,79,70,0,1
69083,-83.3333333333333,4,2,15,70,0,1
69167,-83.3333333333333,4,2,15,70,0,1
69250,-83.3333333333333,4,2,5,70,0,1
69418,-100,4,2,144,70,0,1
69502,-100,4,2,144,70,0,1
69586,-100,4,2,51,70,0,1
69753,-100,4,2,26,70,0,1
69921,-100,4,2,145,70,0,1
70088,-100,4,2,21,70,0,1
70256,-100,4,2,60,70,0,1
70424,-100,4,2,128,70,0,1
70508,-100,4,2,128,70,0,1
70591,-100,4,2,21,70,0,1
70759,-83.3333333333333,4,2,146,70,0,1
70926,-83.3333333333333,4,2,107,70,0,1
71010,-83.3333333333333,4,2,107,5,0,1
71094,-83.3333333333333,4,2,147,70,0,1
71262,-83.3333333333333,4,2,148,70,0,1
71346,-83.3333333333333,4,2,148,70,0,1
71597,-83.3333333333333,4,2,36,70,0,1
71681,-83.3333333333333,4,2,36,70,0,1
71765,-83.3333333333333,4,2,149,70,0,1
71849,-83.3333333333333,4,2,149,70,0,1
71932,-83.3333333333333,4,2,7,70,0,1
72100,-83.3333333333333,4,2,146,70,0,1
72267,-83.3333333333333,4,2,40,70,0,1
72435,-83.3333333333333,4,2,19,70,0,1
72602,-83.3333333333333,4,2,150,70,0,1
72687,-83.3333333333333,4,2,150,70,0,1
72938,-83.3333333333333,4,2,40,70,0,1
73105,-83.3333333333333,4,2,151,70,0,1
73273,-83.3333333333333,4,2,19,70,0,1
73441,-83.3333333333333,4,2,35,70,0,1
73608,-83.3333333333333,4,2,19,70,0,1
73692,-83.3333333333333,4,2,19,5,0,1
73776,-83.3333333333333,4,2,15,70,0,1
73943,-83.3333333333333,4,2,145,70,0,1
74111,-83.3333333333333,4,2,145,70,0,1
74279,-83.3333333333333,4,2,108,70,0,1
74446,-83.3333333333333,4,2,152,70,0,1
74613,-83.3333333333333,4,2,19,70,0,1
74782,-83.3333333333333,4,2,153,70,0,1
74865,-83.3333333333333,4,2,153,70,0,1
74949,-83.3333333333333,4,2,154,70,0,1
75033,-83.3333333333333,4,2,154,70,0,1
75117,-83.3333333333333,4,2,19,70,0,1
75201,-83.3333333333333,4,2,19,70,0,1
75284,-83.3333333333333,4,2,154,70,0,1
75367,-83.3333333333333,4,2,154,5,0,1
75452,-83.3333333333333,4,2,19,70,0,1
75620,-83.3333333333333,4,2,60,70,0,1
75703,-83.3333333333333,4,2,1,70,0,1
75787,-83.3333333333333,4,2,108,70,0,1
75954,-83.3333333333333,4,2,18,70,0,1
76122,-83.3333333333333,4,2,51,70,0,1
76290,-83.3333333333333,4,2,10,70,0,1
76373,-83.3333333333333,4,2,10,5,0,1
76457,-83.3333333333333,4,2,128,70,0,1
76625,-83.3333333333333,4,2,142,70,0,1
76792,-83.3333333333333,4,2,142,70,0,1
76960,-83.3333333333333,4,2,79,70,0,1
77044,-83.3333333333333,4,2,79,70,0,1
77128,-83.3333333333333,4,2,143,70,0,1
77212,-83.3333333333333,4,2,143,70,0,1
77295,-83.3333333333333,4,2,5,70,0,1
77463,-83.3333333333333,4,2,51,70,0,1
77547,-83.3333333333333,4,2,51,70,0,1
77631,-83.3333333333333,4,2,60,70,0,1
77798,-83.3333333333333,4,2,128,70,0,1
77965,-83.3333333333333,4,2,142,70,0,1
78050,-83.3333333333333,4,2,142,70,0,1
78301,-83.3333333333333,4,2,79,70,0,1
78469,-100,4,2,143,70,0,1
78636,-100,4,2,5,70,0,1
78804,-83.3333333333333,4,2,51,70,0,1
78971,-83.3333333333333,4,2,26,70,0,1
79055,-83.3333333333333,4,2,26,5,0,1
79139,-83.3333333333333,4,2,122,70,0,1
79306,-83.3333333333333,4,2,117,70,0,1
79474,-83.3333333333333,4,2,117,70,0,1
79642,-83.3333333333333,4,2,79,70,0,1
79726,-83.3333333333333,4,2,79,70,0,1
79809,-83.3333333333333,4,2,15,70,0,1
79893,-83.3333333333333,4,2,15,70,0,1
79977,-83.3333333333333,4,2,5,70,0,1
80145,-100,4,2,144,70,0,1
80229,-100,4,2,144,70,0,1
80312,-100,4,2,51,70,0,1
80479,-100,4,2,26,70,0,1
80647,-100,4,2,155,70,0,1
80814,-100,4,2,21,70,0,1
80983,-100,4,2,60,70,0,1
81067,-100,4,2,60,70,0,1
81150,-71.4285714285714,4,2,156,70,0,1
81317,-71.4285714285714,4,2,21,70,0,1
81401,-71.4285714285714,4,2,21,5,0,1
81485,-71.4285714285714,4,2,157,70,0,1
81653,-71.4285714285714,4,2,107,70,0,1
81821,-71.4285714285714,4,2,147,70,0,1
81988,-83.3333333333333,4,2,148,70,0,1
82155,-83.3333333333333,4,2,148,70,0,1
82323,-83.3333333333333,4,2,36,70,0,1
82491,-83.3333333333333,4,2,149,70,0,1
82659,-83.3333333333333,4,2,7,70,0,1
82826,-83.3333333333333,4,2,158,70,0,1
82993,-83.3333333333333,4,2,40,70,0,1
83161,-83.3333333333333,4,2,19,70,0,1
83329,-83.3333333333333,4,2,150,70,0,1
83497,-83.3333333333333,4,2,150,70,0,1
83664,-83.3333333333333,4,2,40,70,0,1
83748,-83.3333333333333,4,2,40,70,0,1
83832,-83.3333333333333,4,2,151,70,0,1
83999,-83.3333333333333,4,2,19,70,0,1
84084,-83.3333333333333,4,2,19,70,0,1
84167,-100,4,2,35,70,0,1
84334,-100,4,2,19,70,0,1
84502,-100,4,2,15,70,0,1
84669,-100,4,2,145,70,0,1
84837,-100,4,2,145,70,0,1
85005,-100,4,2,108,70,0,1
85089,-100,4,2,108,70,0,1
85173,-100,4,2,152,70,0,1
85257,-100,4,2,152,70,0,1
85340,-100,4,2,19,70,0,1
85508,-100,4,2,144,70,0,1
85592,-100,4,2,144,70,0,1
85675,-100,4,2,154,70,0,1
85759,-100,4,2,154,70,0,1
85843,-83.3333333333333,4,2,128,70,0,1
85927,-83.3333333333333,4,2,128,70,0,1
86011,-100,4,2,154,70,0,1
86178,-100,4,2,1,70,0,1
86346,-100,4,2,108,70,0,1
86430,-100,4,2,1,70,0,1
86513,-100,4,2,35,70,0,1
86597,-100,4,2,35,70,0,1
86681,-100,4,2,25,70,0,1
86849,-83.3333333333333,4,2,159,70,0,1
87016,-83.3333333333333,4,2,18,70,0,1
87101,-83.3333333333333,4,2,18,70,0,1
87184,-83.3333333333333,4,2,26,70,0,1
87351,-83.3333333333333,4,2,79,70,0,1
87519,-83.3333333333333,4,2,128,70,0,1
87686,-83.3333333333333,4,2,144,70,0,1
87770,-83.3333333333333,4,2,144,70,0,1
87854,-83.3333333333333,4,2,156,70,0,1
88021,-83.3333333333333,4,2,117,70,0,1
88106,-83.3333333333333,4,2,117,70,0,1
88189,-83.3333333333333,4,2,113,70,0,1
88357,-83.3333333333333,4,2,40,70,0,1
88524,-83.3333333333333,4,2,19,70,0,1
88692,-83.3333333333333,4,2,99,70,0,1
88776,-83.3333333333333,4,2,99,70,0,1
88860,-83.3333333333333,4,2,160,70,0,1
89027,-83.3333333333333,4,2,155,70,0,1
89195,-83.3333333333333,4,2,161,70,0,1
89362,-83.3333333333333,4,2,145,70,0,1
89447,-83.3333333333333,4,2,145,70,0,1
89530,-83.3333333333333,4,2,48,70,0,1
89697,-83.3333333333333,4,2,60,70,0,1
89865,-83.3333333333333,4,2,79,70,0,1
90033,-83.3333333333333,4,2,128,70,0,1
90200,-83.3333333333333,4,2,154,70,0,1
90368,-83.3333333333333,4,2,162,70,0,1
90535,-83.3333333333333,4,2,163,70,0,1
90703,-83.3333333333333,4,2,164,70,0,1
90787,-83.3333333333333,4,2,1,70,0,1
90871,-500,4,2,165,70,0,0
91457,-500,4,2,165,5,0,0
91541,-142.857142857143,4,2,165,70,0,0
92044,-142.857142857143,4,2,166,70,0,0
92128,-142.857142857143,4,2,1,70,0,0
92212,-142.857142857143,4,2,167,70,0,0
92379,-142.857142857143,4,2,108,70,0,0
92547,-142.857142857143,4,2,154,70,0,0
92714,-100,4,2,168,70,0,0
92882,-100,4,2,35,70,0,0
92965,-100,4,2,35,5,0,0
93050,-100,4,2,108,70,0,0
93217,-100,4,2,4,70,0,0
93384,-100,4,2,35,70,0,0
93469,-100,4,2,1,70,0,0
93552,-100,4,2,44,70,0,0
93720,-100,4,2,60,70,0,0
93804,-100,4,2,1,70,0,0
93887,-100,4,2,100,70,0,0
94055,-100,4,2,48,70,0,0
94139,-100,4,2,48,70,0,0
94223,-100,4,2,68,70,0,0
94390,-100,4,2,108,70,0,0
94558,-83.3333333333333,4,2,169,70,0,0
94725,-83.3333333333333,4,2,60,70,0,0
94809,-83.3333333333333,4,2,60,5,0,0
94893,-83.3333333333333,4,2,170,70,0,0
95060,-83.3333333333333,4,2,36,70,0,0
95228,-83.3333333333333,4,2,145,70,0,0
95396,-83.3333333333333,4,2,171,70,0,0
95563,-83.3333333333333,4,2,166,70,0,0
95731,-83.3333333333333,4,2,36,70,0,0
95899,-100,4,2,29,70,0,0
96066,-100,4,2,99,70,0,0
96150,-100,4,2,99,70,0,0
96234,-100,4,2,172,70,0,0
96401,-100,4,2,99,70,0,0
96485,-100,4,2,99,5,0,0
96569,-100,4,2,4,70,0,0
96736,-100,4,2,88,70,0,0
96821,-100,4,2,88,70,0,0
96904,-100,4,2,173,70,0,0
97072,-100,4,2,154,70,0,0
97240,-125,4,2,88,70,0,0
97407,-125,4,2,99,70,0,0
97491,-125,4,2,1,70,0,0
97575,-111.111111111111,4,2,159,70,0,0
97742,-111.111111111111,4,2,18,70,0,0
97910,-111.111111111111,4,2,36,70,0,0
98077,-111.111111111111,4,2,5,70,0,0
98245,-111.111111111111,4,2,117,70,0,0
98412,-111.111111111111,4,2,8,70,0,0
98580,-111.111111111111,4,2,162,70,0,0
98748,-111.111111111111,4,2,1,70,0,0
98874,-111.111111111111,4,2,1,70,0,0
98916,-111.111111111111,4,2,146,70,0,0
99083,-111.111111111111,4,2,16,70,0,0
99250,-111.111111111111,4,2,91,70,0,0
99418,-111.111111111111,4,2,11,70,0,0
99586,-111.111111111111,4,2,145,70,0,0
99753,-111.111111111111,4,2,12,70,0,0
99921,-111.111111111111,4,2,174,70,0,0
100088,-111.111111111111,4,2,27,70,0,0
100256,-90.9090909090908,4,2,51,70,0,0
100424,-90.9090909090908,4,2,10,70,0,0
100507,-90.9090909090908,4,2,10,5,0,0
100592,-90.9090909090908,4,2,23,70,0,0
100759,-90.9090909090908,4,2,20,70,0,0
100926,-90.9090909090908,4,2,58,70,0,0
101094,-90.9090909090908,4,2,76,70,0,0
101262,-90.9090909090908,4,2,175,70,0,0
101429,-90.9090909090908,4,2,176,70,0,0
101513,-90.9090909090908,4,2,1,70,0,0
101597,-90.9090909090908,4,2,29,70,0,0
101681,-90.9090909090908,4,2,29,70,0,0
101765,-90.9090909090908,4,2,55,70,0,0
101849,-90.9090909090908,4,2,55,70,0,0
101932,-90.9090909090908,4,2,56,70,0,0
102016,-90.9090909090908,4,2,59,70,0,0
102100,-90.9090909090908,4,2,175,70,0,0
102183,-90.9090909090908,4,2,177,70,0,0
102267,-90.9090909090908,4,2,59,70,0,0
102351,-90.9090909090908,4,2,177,70,0,0
102435,-90.9090909090908,4,2,176,70,0,0
102519,-90.9090909090908,4,2,178,70,0,0
102602,-90.9090909090908,4,2,179,70,0,0
102686,-90.9090909090908,4,2,180,70,0,0
102770,-90.9090909090908,4,2,181,70,0,0
102854,-90.9090909090908,4,2,182,70,0,0
102938,-125,4,2,183,60,0,0
103105,-125,4,2,11,60,0,0
103273,-125,4,2,154,60,0,0
103440,-125,4,2,62,60,0,0
103608,-125,4,2,1,60,0,0
103776,-125,4,2,56,60,0,0
103943,-125,4,2,184,60,0,0
104111,-125,4,2,185,60,0,0
104278,-125,4,2,186,60,0,0
104446,-125,4,2,71,60,0,0
104530,-125,4,2,1,60,0,0
104614,-125,4,2,187,60,0,0
104781,-125,4,2,58,60,0,0
104949,-125,4,2,1,60,0,0
105116,-125,4,2,71,60,0,0
105201,-125,4,2,1,60,0,0
105284,-100,4,2,150,60,0,0
105368,-100,4,2,150,60,0,0
105452,-100,4,2,88,60,0,0
105536,-100,4,2,88,60,0,0
105620,-100,4,2,188,60,0,0
105787,-100,4,2,23,60,0,0
105871,-100,4,2,23,5,0,0
105955,-100,4,2,154,60,0,0
106122,-125,4,2,66,60,0,0
106290,-125,4,2,1,60,0,0
106457,-125,4,2,23,60,0,0
106625,-125,4,2,187,60,0,0
106792,-125,4,2,95,60,0,0
106960,-125,4,2,189,60,0,0
107128,-125,4,2,74,60,0,0
107212,-125,4,2,1,60,0,0
107295,-125,4,2,144,60,0,0
107463,-125,4,2,62,60,0,0
107630,-125,4,2,144,60,0,0
107798,-125,4,2,23,60,0,0
107883,-125,4,2,1,60,0,0
107966,-125,4,2,187,60,0,0
108133,-125,4,2,73,60,0,0
108301,-125,4,2,60,60,0,0
108468,-125,4,2,11,60,0,0
108636,-125,4,2,154,60,0,0
108804,-125,4,2,62,60,0,0
108888,-125,4,2,62,60,0,0
108971,-125,4,2,1,60,0,0
109139,-125,4,2,56,60,0,0
109306,-125,4,2,184,60,0,0
109474,-125,4,2,58,60,0,0
109642,-100,4,2,186,60,0,0
109809,-100,4,2,71,60,0,0
109893,-100,4,2,1,60,0,0
109977,-100,4,2,187,60,0,0
110145,-166.666666666667,4,2,58,60,0,0
110312,-166.666666666667,4,2,1,60,0,0
110479,-166.666666666667,4,2,71,60,0,0
110564,-166.666666666667,4,2,1,60,0,0
110647,-166.666666666667,4,2,150,60,0,0
110815,-166.666666666667,4,2,88,60,0,0
110983,-125,4,2,188,60,0,0
111150,-125,4,2,55,60,0,0
111317,-125,4,2,79,60,0,0
111485,-125,4,2,66,60,0,0
111569,-125,4,2,66,60,0,0
111653,-125,4,2,1,60,0,0
111820,-125,4,2,23,60,0,0
111988,-100,4,2,187,60,0,0
112155,-100,4,2,95,60,0,0
112239,-100,4,2,95,5,0,0
112323,-111.111111111111,4,2,189,60,0,0
112491,-111.111111111111,4,2,74,60,0,0
112575,-111.111111111111,4,2,1,60,0,0
112658,-111.111111111111,4,2,72,60,0,0
112826,-111.111111111111,4,2,66,60,0,0
112910,-111.111111111111,4,2,66,60,0,0
112994,-111.111111111111,4,2,190,60,0,0
113161,-111.111111111111,4,2,191,60,0,0
113246,-111.111111111111,4,2,1,60,0,0
113329,-111.111111111111,4,2,63,60,0,0
113496,-111.111111111111,4,2,70,60,0,0
113664,-100,4,2,183,60,0,0
113831,-100,4,2,7,60,0,0
113915,-100,4,2,7,5,0,0
113999,-100,4,2,15,60,0,0
114166,-100,4,2,61,60,0,0
114335,-100,4,2,1,60,0,0
114502,-111.111111111111,4,2,144,60,0,0
114669,-111.111111111111,4,2,61,60,0,0
114837,-83.3333333333333,4,2,63,60,0,0
115005,-83.3333333333333,4,2,192,60,0,0
115088,-83.3333333333333,4,2,192,5,0,0
115173,-83.3333333333333,4,2,189,60,0,0
115340,-111.111111111111,4,2,70,60,0,0
115507,-111.111111111111,4,2,15,60,0,0
115675,-111.111111111111,4,2,1,60,0,0
115843,-111.111111111111,4,2,189,60,0,0
116011,-83.3333333333333,4,2,193,60,0,0
116178,-83.3333333333333,4,2,10,60,0,0
116262,-83.3333333333333,4,2,10,5,0,0
116346,-100,4,2,194,60,0,0
116513,-100,4,2,5,60,0,0
116597,-100,4,2,5,5,0,0
116681,-100,4,2,15,60,0,0
116849,-100,4,2,70,60,0,0
117016,-100,4,2,1,60,0,0
117183,-100,4,2,79,60,0,0
117351,-100,4,2,70,60,0,0
117519,-83.3333333333333,4,2,122,60,0,0
117686,-83.3333333333333,4,2,195,60,0,0
117770,-83.3333333333333,4,2,195,5,0,0
117854,-83.3333333333333,4,2,99,60,0,0
118021,-83.3333333333333,4,2,70,60,0,0
118189,-83.3333333333333,4,2,61,60,0,0
118357,-83.3333333333333,4,2,144,60,0,0
118524,-83.3333333333333,4,2,187,60,0,0
118692,-83.3333333333333,4,2,95,60,0,0
118859,-83.3333333333333,4,2,85,60,0,0
118943,-83.3333333333333,4,2,85,5,0,0
119027,-100,4,2,196,60,0,0
119195,-100,4,2,84,60,0,0
119278,-100,4,2,84,5,0,0
119363,-100,4,2,197,60,0,0
119530,-100,4,2,85,60,0,0
119698,-100,4,2,68,60,0,0
119865,-100,4,2,189,60,0,0
120033,-100,4,2,193,60,0,0
120200,-100,4,2,58,60,0,0
120368,-100,4,2,198,60,0,0
120535,-100,4,2,51,60,0,0
120703,-100,4,2,85,60,0,0
120871,-100,4,2,22,60,0,0
121038,-100,4,2,36,60,0,0
121122,-100,4,2,36,5,0,0
121206,-100,4,2,189,60,0,0
121373,-100,4,2,95,60,0,0
121541,-100,4,2,66,60,0,0
121709,-100,4,2,199,60,0,0
121876,-100,4,2,25,60,0,0
122044,-100,4,2,92,60,0,0
122211,-100,4,2,36,60,0,0
122295,-100,4,2,36,60,0,0
122379,-100,4,2,19,60,0,0
122547,-100,4,2,60,60,0,0
122631,-100,4,2,1,60,0,0
122714,-100,4,2,147,60,0,0
122882,-111.111111111111,4,2,60,60,0,0
123049,-111.111111111111,4,2,15,60,0,0
123133,-111.111111111111,4,2,15,5,0,0
123217,-111.111111111111,4,2,162,60,0,0
123385,-111.111111111111,4,2,2,60,0,0
123552,-111.111111111111,4,2,15,60,0,0
123720,-111.111111111111,4,2,147,60,0,0
123887,-111.111111111111,4,2,200,60,0,0
124055,-111.111111111111,4,2,19,60,0,0
124139,-111.111111111111,4,2,19,60,0,0
124223,-111.111111111111,4,2,60,60,0,0
124307,-111.111111111111,4,2,60,60,0,0
124390,-100,4,2,49,60,0,0
124558,-100,4,2,10,60,0,0
124725,-100,4,2,79,60,0,0
124893,-100,4,2,11,60,0,0
125061,-100,4,2,96,60,0,0
125228,-100,4,2,10,60,0,0
125396,-100,4,2,81,60,0,0
125563,-100,4,2,22,60,0,0
125647,-100,4,2,1,60,0,0
125731,-100,4,2,97,60,0,0
125899,-100,4,2,10,60,0,0
126066,-100,4,2,79,60,0,0
126234,-100,4,2,98,60,0,0
126401,-100,4,2,99,60,0,0
126569,-100,4,2,10,60,0,0
126737,-125,4,2,100,60,0,0
126904,-125,4,2,10,60,0,0
127072,-100,4,2,101,60,0,0
127239,-100,4,2,10,60,0,0
127323,-100,4,2,10,5,0,0
127407,-100,4,2,79,60,0,0
127575,-90.9090909090909,4,2,11,60,0,0
127742,-90.9090909090909,4,2,96,60,0,0
127826,-90.9090909090909,4,2,96,5,0,0
127910,-111.111111111111,4,2,10,60,0,0
128077,-111.111111111111,4,2,102,60,0,0
128245,-111.111111111111,4,2,22,60,0,0
128329,-111.111111111111,4,2,1,60,0,0
128412,-111.111111111111,4,2,103,60,0,0
128580,-111.111111111111,4,2,10,60,0,0
128748,-111.111111111111,4,2,79,60,0,0
128915,-111.111111111111,4,2,104,60,0,0
129083,-111.111111111111,4,2,99,60,0,0
129250,-111.111111111111,4,2,10,60,0,0
129418,-125,4,2,105,60,0,0
129586,-125,4,2,10,60,0,0
129754,-99.9999999999999,4,2,106,60,0,0
129921,-99.9999999999999,4,2,107,60,0,0
130005,-99.9999999999999,4,2,107,5,0,0
130089,-99.9999999999999,4,2,108,60,0,0
130256,-99.9999999999999,4,2,109,60,0,0
130424,-99.9999999999999,4,2,110,60,0,0
130591,-99.9999999999999,4,2,19,60,0,0
130759,-99.9999999999999,4,2,111,60,0,0
130926,-99.9999999999999,4,2,112,60,0,0
131010,-99.9999999999999,4,2,1,60,0,0
131094,-99.9999999999999,4,2,83,60,0,0
131262,-99.9999999999999,4,2,113,60,0,0
131429,-99.9999999999999,4,2,108,60,0,0
131597,-99.9999999999999,4,2,13,60,0,0
131764,-99.9999999999999,4,2,114,60,0,0
131932,-99.9999999999999,4,2,107,60,0,0
132100,-99.9999999999999,4,2,115,60,0,0
132267,-99.9999999999999,4,2,107,60,0,0
132435,-99.9999999999999,4,2,116,60,0,0
132602,-99.9999999999999,4,2,19,60,0,0
132686,-99.9999999999999,4,2,19,5,0,0
132770,-99.9999999999999,4,2,117,60,0,0
132938,-99.9999999999999,4,2,27,60,0,0
133105,-99.9999999999999,4,2,1,60,0,0
133273,-99.9999999999999,4,2,19,60,0,0
133440,-99.9999999999999,4,2,118,60,0,0
133608,-99.9999999999999,4,2,20,60,0,0
133692,-99.9999999999999,4,2,1,60,0,0
133776,-99.9999999999999,4,2,119,60,0,0
133943,-99.9999999999999,4,2,19,60,0,0
134111,-99.9999999999999,4,2,117,60,0,0
134278,-99.9999999999999,4,2,6,60,0,0
134446,-99.9999999999999,4,2,1,60,0,0
134614,-99.9999999999999,4,2,19,60,0,0
134781,-99.9999999999999,4,2,120,60,0,0
134949,-99.9999999999999,4,2,15,60,0,0
135117,-90.9090909090909,4,2,121,60,0,0
135284,-90.9090909090909,4,2,18,60,0,0
135368,-90.9090909090909,4,2,18,5,0,0
135452,-90.9090909090909,4,2,122,60,0,0
135620,-111.111111111111,4,2,123,60,0,0
135954,-111.111111111111,4,2,60,60,0,0
136122,-111.111111111111,4,2,124,60,0,0
136290,-111.111111111111,4,2,35,60,0,0
136457,-111.111111111111,4,2,138,60,0,0
136625,-111.111111111111,4,2,107,60,0,0
136709,-111.111111111111,4,2,1,60,0,0
136793,-111.111111111111,4,2,99,60,0,0
136960,-111.111111111111,4,2,126,60,0,0
137295,-111.111111111111,4,2,108,60,0,0
137463,-111.111111111111,4,2,127,60,0,0
137630,-111.111111111111,4,2,99,60,0,0
137798,-83.3333333333333,4,2,49,60,0,0
137966,-83.3333333333333,4,2,10,60,0,0
138049,-83.3333333333333,4,2,10,5,0,0
138133,-83.3333333333333,4,2,128,60,0,0
138301,-100,4,2,129,60,0,0
138636,-100,4,2,79,60,0,0
138720,-100,4,2,1,60,0,0
138804,-100,4,2,15,60,0,0
138971,-100,4,2,60,60,0,0
139139,-71.4285714285714,4,2,130,60,0,0
139222,-71.4285714285714,4,2,1,60,0,0
139307,-71.4285714285714,4,2,10,60,0,0
139389,-71.4285714285714,4,2,1,60,0,0
139391,-71.4285714285714,4,2,1,60,0,0
139474,-71.4285714285714,4,2,131,60,0,0
139642,-90.9090909090909,4,2,132,60,0,0
139893,-90.9090909090909,4,2,132,5,0,0
139977,-90.9090909090909,4,2,60,60,0,0
140144,-90.9090909090909,4,2,133,60,0,0
140312,-90.9090909090909,4,2,134,60,0,0
140396,-90.9090909090909,4,2,1,60,0,0
140480,-90.9090909090909,4,2,135,60,0,0
140647,-90.9090909090909,4,2,1,60,0,0
140815,-90.9090909090909,4,2,136,60,0,0
141150,-90.9090909090909,4,2,137,60,0,0
141318,-90.9090909090909,4,2,136,60,0,0
141653,-90.9090909090909,4,2,138,60,0,0
141904,-90.9090909090909,4,2,138,5,0,0
141988,-66.6666666666667,4,2,139,60,0,0
142071,-66.6666666666667,4,2,139,5,0,0
142156,-142.857142857143,4,2,201,60,0,0
142323,-142.857142857143,4,2,107,60,0,0
142491,-66.6666666666667,4,2,2,60,0,0
142533,-66.6666666666667,4,2,2,60,0,0
142575,-66.6666666666667,4,2,202,60,0,0
142617,-66.6666666666667,4,2,202,60,0,0
142659,-66.6666666666667,4,2,203,70,0,0
142701,-66.6666666666667,4,2,203,70,0,0
142742,-66.6666666666667,4,2,108,70,0,0
142784,-66.6666666666667,4,2,108,70,0,0
142826,-66.6666666666667,4,2,204,70,0,0
142868,-66.6666666666667,4,2,204,70,0,0
142910,-66.6666666666667,4,2,205,70,0,0
142952,-66.6666666666667,4,2,205,70,0,0
142994,-66.6666666666667,4,2,113,70,0,0
143036,-66.6666666666667,4,2,113,70,0,0
143078,-66.6666666666667,4,2,107,70,0,0
143120,-66.6666666666667,4,2,107,70,0,0
143161,-83.3333333333333,4,2,141,70,0,1
143329,-83.3333333333333,4,2,10,70,0,1
143412,-83.3333333333333,4,2,10,5,0,1
143497,-83.3333333333333,4,2,128,70,0,1
143664,-83.3333333333333,4,2,142,70,0,1
143831,-83.3333333333333,4,2,142,70,0,1
143999,-83.3333333333333,4,2,79,70,0,1
144083,-83.3333333333333,4,2,79,70,0,1
144167,-83.3333333333333,4,2,143,70,0,1
144251,-83.3333333333333,4,2,143,70,0,1
144334,-83.3333333333333,4,2,5,70,0,1
144502,-83.3333333333333,4,2,51,70,0,1
144586,-83.3333333333333,4,2,51,70,0,1
144670,-83.3333333333333,4,2,60,70,0,1
144837,-83.3333333333333,4,2,128,70,0,1
145005,-83.3333333333333,4,2,142,70,0,1
145089,-83.3333333333333,4,2,142,70,0,1
145340,-83.3333333333333,4,2,79,70,0,1
145508,-100,4,2,143,70,0,1
145675,-100,4,2,5,70,0,1
145843,-83.3333333333333,4,2,206,70,0,1
146010,-83.3333333333333,4,2,26,70,0,1
146094,-83.3333333333333,4,2,26,5,0,1
146178,-83.3333333333333,4,2,122,70,0,1
146345,-83.3333333333333,4,2,117,70,0,1
146513,-83.3333333333333,4,2,117,70,0,1
146681,-83.3333333333333,4,2,79,70,0,1
146765,-83.3333333333333,4,2,79,70,0,1
146849,-83.3333333333333,4,2,15,70,0,1
146932,-83.3333333333333,4,2,15,70,0,1
147016,-83.3333333333333,4,2,5,70,0,1
147184,-100,4,2,144,70,0,1
147268,-100,4,2,144,70,0,1
147351,-100,4,2,51,70,0,1
147519,-100,4,2,26,70,0,1
147686,-100,4,2,145,70,0,1
147854,-100,4,2,21,70,0,1
148022,-100,4,2,60,70,0,1
148189,-100,4,2,128,70,0,1
148273,-100,4,2,128,70,0,1
148357,-100,4,2,21,70,0,1
148525,-83.3333333333333,4,2,138,70,0,1
148692,-83.3333333333333,4,2,107,70,0,1
148776,-83.3333333333333,4,2,107,5,0,1
148860,-83.3333333333333,4,2,147,70,0,1
149027,-83.3333333333333,4,2,148,70,0,1
149111,-83.3333333333333,4,2,148,70,0,1
149363,-83.3333333333333,4,2,36,70,0,1
149447,-83.3333333333333,4,2,36,70,0,1
149530,-83.3333333333333,4,2,149,70,0,1
149614,-83.3333333333333,4,2,149,70,0,1
149697,-83.3333333333333,4,2,7,70,0,1
149865,-83.3333333333333,4,2,138,70,0,1
150033,-83.3333333333333,4,2,40,70,0,1
150200,-83.3333333333333,4,2,19,70,0,1
150368,-83.3333333333333,4,2,150,70,0,1
150452,-83.3333333333333,4,2,150,70,0,1
150703,-83.3333333333333,4,2,40,70,0,1
150871,-83.3333333333333,4,2,151,70,0,1
151038,-83.3333333333333,4,2,19,70,0,1
151206,-83.3333333333333,4,2,116,70,0,1
151373,-83.3333333333333,4,2,19,70,0,1
151457,-83.3333333333333,4,2,19,5,0,1
151541,-83.3333333333333,4,2,15,70,0,1
151709,-83.3333333333333,4,2,145,70,0,1
151876,-83.3333333333333,4,2,145,70,0,1
152044,-83.3333333333333,4,2,108,70,0,1
152211,-83.3333333333333,4,2,152,70,0,1
152379,-83.3333333333333,4,2,19,70,0,1
152547,-83.3333333333333,4,2,153,70,0,1
152631,-83.3333333333333,4,2,153,70,0,1
152714,-83.3333333333333,4,2,154,70,0,1
152798,-83.3333333333333,4,2,154,70,0,1
152882,-83.3333333333333,4,2,19,70,0,1
152966,-83.3333333333333,4,2,19,70,0,1
153050,-83.3333333333333,4,2,154,70,0,1
153133,-83.3333333333333,4,2,154,5,0,1
153217,-83.3333333333333,4,2,19,70,0,1
153385,-83.3333333333333,4,2,60,70,0,1
153468,-83.3333333333333,4,2,1,70,0,1
153552,-83.3333333333333,4,2,108,70,0,1
153719,-83.3333333333333,4,2,18,70,0,1
153888,-83.3333333333333,4,2,49,70,0,1
154055,-83.3333333333333,4,2,10,70,0,1
154139,-83.3333333333333,4,2,10,5,0,1
154223,-83.3333333333333,4,2,128,70,0,1
154390,-83.3333333333333,4,2,142,70,0,1
154557,-83.3333333333333,4,2,142,70,0,1
154726,-83.3333333333333,4,2,79,70,0,1
154809,-83.3333333333333,4,2,79,70,0,1
154893,-83.3333333333333,4,2,143,70,0,1
154977,-83.3333333333333,4,2,143,70,0,1
155061,-83.3333333333333,4,2,5,70,0,1
155228,-83.3333333333333,4,2,51,70,0,1
155312,-83.3333333333333,4,2,51,70,0,1
155396,-83.3333333333333,4,2,60,70,0,1
155563,-83.3333333333333,4,2,128,70,0,1
155731,-83.3333333333333,4,2,142,70,0,1
155815,-83.3333333333333,4,2,142,70,0,1
156066,-83.3333333333333,4,2,79,70,0,1
156234,-100,4,2,143,70,0,1
156401,-100,4,2,5,70,0,1
156569,-83.3333333333333,4,2,206,70,0,1
156737,-83.3333333333333,4,2,26,70,0,1
156820,-83.3333333333333,4,2,26,5,0,1
156904,-83.3333333333333,4,2,122,70,0,1
157072,-83.3333333333333,4,2,117,70,0,1
157239,-83.3333333333333,4,2,117,70,0,1
157407,-83.3333333333333,4,2,79,70,0,1
157491,-83.3333333333333,4,2,79,70,0,1
157575,-83.3333333333333,4,2,15,70,0,1
157659,-83.3333333333333,4,2,15,70,0,1
157742,-83.3333333333333,4,2,5,70,0,1
157910,-100,4,2,144,70,0,1
157994,-100,4,2,144,70,0,1
158078,-100,4,2,51,70,0,1
158245,-100,4,2,26,70,0,1
158413,-100,4,2,155,70,0,1
158580,-100,4,2,21,70,0,1
158748,-100,4,2,60,70,0,1
158832,-100,4,2,60,70,0,1
158916,-71.4285714285714,4,2,156,70,0,1
159083,-71.4285714285714,4,2,21,70,0,1
159167,-71.4285714285714,4,2,21,5,0,1
159251,-71.4285714285714,4,2,207,70,0,1
159418,-71.4285714285714,4,2,107,70,0,1
159586,-71.4285714285714,4,2,147,70,0,1
159754,-83.3333333333333,4,2,148,70,0,1
159921,-83.3333333333333,4,2,148,70,0,1
160089,-83.3333333333333,4,2,36,70,0,1
160256,-83.3333333333333,4,2,149,70,0,1
160424,-83.3333333333333,4,2,7,70,0,1
160592,-83.3333333333333,4,2,106,70,0,1
160759,-83.3333333333333,4,2,40,70,0,1
160926,-83.3333333333333,4,2,19,70,0,1
161094,-83.3333333333333,4,2,150,70,0,1
161262,-83.3333333333333,4,2,150,70,0,1
161430,-83.3333333333333,4,2,40,70,0,1
161513,-83.3333333333333,4,2,40,70,0,1
161597,-83.3333333333333,4,2,151,70,0,1
161764,-83.3333333333333,4,2,19,70,0,1
161848,-83.3333333333333,4,2,19,5,0,1
161932,-100,4,2,116,70,0,1
162100,-100,4,2,19,70,0,1
162267,-100,4,2,15,70,0,1
162435,-100,4,2,145,70,0,1
162602,-100,4,2,145,70,0,1
162770,-100,4,2,108,70,0,1
162854,-100,4,2,108,70,0,1
162938,-100,4,2,152,70,0,1
163022,-100,4,2,152,70,0,1
163105,-100,4,2,19,70,0,1
163273,-100,4,2,144,70,0,1
163357,-100,4,2,144,70,0,1
163441,-100,4,2,154,70,0,1
163525,-100,4,2,154,70,0,1
163608,-83.3333333333333,4,2,128,70,0,1
163692,-83.3333333333333,4,2,128,70,0,1
163776,-100,4,2,154,70,0,1
163943,-100,4,2,1,70,0,1
164111,-100,4,2,108,70,0,1
164195,-100,4,2,1,70,0,1
164278,-100,4,2,35,70,0,1
164363,-100,4,2,35,70,0,1
164446,-100,4,2,25,70,0,1
164614,-83.3333333333333,4,2,121,70,0,1
164781,-83.3333333333333,4,2,18,70,0,1
164865,-83.3333333333333,4,2,18,5,0,1
164949,-83.3333333333333,4,2,26,70,0,1
165116,-83.3333333333333,4,2,79,70,0,1
165284,-83.3333333333333,4,2,128,70,0,1
165452,-83.3333333333333,4,2,144,70,0,1
165536,-83.3333333333333,4,2,144,70,0,1
165620,-83.3333333333333,4,2,156,70,0,1
165787,-83.3333333333333,4,2,117,70,0,1
165871,-83.3333333333333,4,2,117,70,0,1
165955,-83.3333333333333,4,2,208,70,0,1
166122,-83.3333333333333,4,2,40,70,0,1
166290,-83.3333333333333,4,2,19,70,0,1
166457,-83.3333333333333,4,2,99,70,0,1
166541,-83.3333333333333,4,2,99,70,0,1
166625,-83.3333333333333,4,2,160,70,0,1
166792,-83.3333333333333,4,2,155,70,0,1
166960,-83.3333333333333,4,2,161,70,0,1
167128,-83.3333333333333,4,2,145,70,0,1
167212,-83.3333333333333,4,2,145,70,0,1
167295,-83.3333333333333,4,2,44,70,0,1
167463,-83.3333333333333,4,2,60,70,0,1
167630,-83.3333333333333,4,2,79,70,0,1
167798,-83.3333333333333,4,2,128,70,0,1
167966,-83.3333333333333,4,2,154,70,0,1
168133,-83.3333333333333,4,2,162,70,0,1
168301,-66.6666666666667,4,2,163,70,0,1
168385,-66.6666666666667,4,2,163,70,0,1
168469,-66.6666666666667,4,2,164,70,0,1
168552,-66.6666666666667,4,2,1,70,0,1
168636,-66.6666666666667,4,2,209,70,0,1
168804,-66.6666666666667,4,2,210,70,0,1
168971,-83.3333333333333,4,2,153,70,0,1
169139,-83.3333333333333,4,2,144,70,0,1
169223,-83.3333333333333,4,2,144,70,0,1
169307,-83.3333333333333,4,2,160,70,0,1
169390,-83.3333333333333,4,2,1,70,0,1
169474,-83.3333333333333,4,2,7,70,0,1
169558,-83.3333333333333,4,2,1,70,0,1
169642,-83.3333333333333,4,2,26,70,0,1
169809,-83.3333333333333,4,2,25,70,0,1
169893,-83.3333333333333,4,2,25,5,0,1
169977,-83.3333333333333,4,2,211,70,0,0
170061,-83.3333333333333,4,2,1,70,0,0
170312,-83.3333333333333,4,2,35,70,0,0
170396,-83.3333333333333,4,2,10,70,0,0
170480,-83.3333333333333,4,2,30,70,0,0
170563,-83.3333333333333,4,2,20,70,0,0
170647,-83.3333333333333,4,2,108,70,0,0
170731,-83.3333333333333,4,2,1,70,0,0
170815,-83.3333333333333,4,2,12,70,0,0
170899,-83.3333333333333,4,2,175,70,0,0
170983,-90.9090909090909,4,2,117,70,0,0
171066,-90.9090909090909,4,2,2,70,0,0
171150,-90.9090909090909,4,2,175,70,0,0
171234,-90.9090909090909,4,2,212,70,0,0
171318,-90.9090909090909,4,2,164,70,0,0
171401,-90.9090909090909,4,2,210,70,0,0
171485,-90.9090909090909,4,2,175,70,0,0
171569,-90.9090909090909,4,2,12,70,0,0
171653,-90.9090909090909,4,2,154,70,0,0
171737,-90.9090909090909,4,2,160,70,0,0
171820,-90.9090909090909,4,2,20,70,0,0
171904,-90.9090909090909,4,2,30,70,0,0
171988,-90.9090909090909,4,2,60,70,0,0
172072,-90.9090909090909,4,2,107,70,0,0
172156,-90.9090909090909,4,2,213,70,0,0
172239,-90.9090909090909,4,2,112,70,0,0
172323,-90.9090909090909,4,2,214,70,0,0
172407,-90.9090909090909,4,2,1,70,0,0
172658,-90.9090909090909,4,2,215,70,0,0
172742,-90.9090909090909,4,2,1,70,0,0
172994,-90.9090909090909,4,2,186,70,0,0
173077,-90.9090909090909,4,2,19,70,0,0
173161,-90.9090909090909,4,2,67,70,0,0
173245,-90.9090909090909,4,2,27,70,0,0
173329,-90.9090909090909,4,2,150,70,0,0
173413,-90.9090909090909,4,2,160,70,0,0
173496,-90.9090909090909,4,2,12,70,0,0
173580,-90.9090909090909,4,2,216,70,0,0
173664,-90.9090909090909,4,2,145,70,0,0
173748,-90.9090909090909,4,2,2,70,0,0
173832,-90.9090909090909,4,2,217,70,0,0
173915,-90.9090909090909,4,2,218,70,0,0
173999,-90.9090909090909,4,2,219,70,0,0
174083,-90.9090909090909,4,2,163,70,0,0
174167,-90.9090909090909,4,2,217,70,0,0
174250,-90.9090909090909,4,2,12,70,0,0
174335,-90.9090909090909,4,2,145,70,0,0
174418,-90.9090909090909,4,2,203,70,0,0
174502,-90.9090909090909,4,2,109,70,0,0
174586,-90.9090909090909,4,2,30,70,0,0
174670,-90.9090909090909,4,2,40,70,0,0
174753,-90.9090909090909,4,2,205,70,0,0
174837,-90.9090909090909,4,2,220,70,0,0
174921,-90.9090909090909,4,2,112,70,0,0
175005,-90.9090909090909,4,2,221,70,0,0
175089,-90.9090909090909,4,2,1,70,0,0
175340,-90.9090909090909,4,2,222,70,0,0
175424,-90.9090909090909,4,2,1,70,0,0
175675,-90.9090909090909,4,2,166,70,0,0
175759,-90.9090909090909,4,2,10,70,0,0
175843,-90.9090909090909,4,2,55,70,0,0
175927,-90.9090909090909,4,2,30,70,0,0
176010,-90.9090909090909,4,2,99,70,0,0
176094,-90.9090909090909,4,2,15,70,0,0
176178,-90.9090909090909,4,2,56,70,0,0
176262,-90.9090909090909,4,2,12,70,0,0
176346,-90.9090909090909,4,2,99,70,0,0
176429,-90.9090909090909,4,2,15,70,0,0
176513,-90.9090909090909,4,2,12,70,0,0
176597,-90.9090909090909,4,2,174,70,0,0
176681,-90.9090909090909,4,2,164,70,0,0
176765,-90.9090909090909,4,2,161,70,0,0
176848,-90.9090909090909,4,2,12,70,0,0
176932,-90.9090909090909,4,2,58,70,0,0
177016,-90.9090909090909,4,2,99,70,0,0
177100,-90.9090909090909,4,2,19,70,0,0
177183,-90.9090909090909,4,2,55,70,0,0
177267,-90.9090909090909,4,2,30,70,0,0
177351,-90.9090909090909,4,2,60,70,0,0
177435,-90.9090909090909,4,2,19,70,0,0
177519,-90.9090909090909,4,2,55,70,0,0
177602,-90.9090909090909,4,2,22,70,0,0
177686,-90.9090909090909,4,2,166,70,0,0
177770,-90.9090909090909,4,2,1,70,0,0
178021,-90.9090909090909,4,2,223,70,0,0
178106,-90.9090909090909,4,2,1,70,0,0
178357,-90.9090909090909,4,2,224,70,0,0
178440,-90.9090909090909,4,2,18,70,0,0
178524,-90.9090909090909,4,2,55,70,0,0
178608,-90.9090909090909,4,2,30,70,0,0
178692,-90.9090909090909,4,2,114,70,0,0
178776,-90.9090909090909,4,2,1,70,0,0
178859,-90.9090909090909,4,2,56,70,0,0
178943,-90.9090909090909,4,2,20,70,0,0
179027,-90.9090909090909,4,2,144,70,0,0
179111,-90.9090909090909,4,2,2,70,0,0
179195,-90.9090909090909,4,2,216,70,0,0
179278,-90.9090909090909,4,2,174,70,0,0
179363,-111.111111111111,4,2,225,70,0,0
179446,-111.111111111111,4,2,226,70,0,0
179530,-111.111111111111,4,2,56,70,0,0
179614,-111.111111111111,4,2,20,70,0,0
179697,-111.111111111111,4,2,114,70,0,0
179781,-111.111111111111,4,2,19,70,0,0
179865,-111.111111111111,4,2,55,70,0,0
179949,-111.111111111111,4,2,213,70,0,0
180033,-111.111111111111,4,2,166,70,0,0
180116,-111.111111111111,4,2,227,70,0,0
180200,-111.111111111111,4,2,228,70,0,0
180284,-111.111111111111,4,2,229,70,0,0
180368,-111.111111111111,4,2,230,70,0,0
180452,-111.111111111111,4,2,1,70,0,0
180703,-90.9090909090908,4,2,231,70,0,0
180787,-90.9090909090908,4,2,1,70,0,0
180954,-90.9090909090908,4,2,1,70,0,0
181039,-90.9090909090908,4,2,159,70,0,0
181122,-90.9090909090908,4,2,18,70,0,0
181206,-90.9090909090908,4,2,55,70,0,0
181290,-90.9090909090908,4,2,23,70,0,0
181373,-90.9090909090908,4,2,36,70,0,0
181457,-90.9090909090908,4,2,5,70,0,0
181541,-90.9090909090908,4,2,20,70,0,0
181625,-90.9090909090908,4,2,58,70,0,0
181709,-90.9090909090908,4,2,117,70,0,0
181792,-90.9090909090908,4,2,15,70,0,0
181876,-90.9090909090908,4,2,76,70,0,0
181960,-90.9090909090908,4,2,218,70,0,0
182044,-90.9090909090908,4,2,164,70,0,0
182128,-90.9090909090908,4,2,163,70,0,0
182211,-90.9090909090908,4,2,76,70,0,0
182295,-90.9090909090908,4,2,56,70,0,0
182379,-90.9090909090908,4,2,117,70,0,0
182463,-90.9090909090908,4,2,8,70,0,0
182547,-90.9090909090908,4,2,20,70,0,0
182630,-90.9090909090908,4,2,23,70,0,0
182714,-90.9090909090908,4,2,36,70,0,0
182798,-90.9090909090908,4,2,10,70,0,0
182882,-90.9090909090908,4,2,213,70,0,0
182966,-90.9090909090908,4,2,232,70,0,0
183049,-90.9090909090908,4,2,159,70,0,0
183133,-90.9090909090908,4,2,1,70,0,0
183385,-90.9090909090908,4,2,233,70,0,0
183469,-90.9090909090908,4,2,1,70,0,0
183720,-90.9090909090908,4,2,146,70,0,0
183804,-90.9090909090908,4,2,25,70,0,0
183887,-90.9090909090908,4,2,16,70,0,0
183971,-90.9090909090908,4,2,30,70,0,0
184055,-90.9090909090908,4,2,99,70,0,0
184139,-90.9090909090908,4,2,160,70,0,0
184223,-90.9090909090908,4,2,56,70,0,0
184306,-90.9090909090908,4,2,12,70,0,0
184390,-90.9090909090908,4,2,145,70,0,0
184474,-90.9090909090908,4,2,2,70,0,0
184558,-90.9090909090908,4,2,59,70,0,0
184642,-90.9090909090908,4,2,212,70,0,0
184725,-90.9090909090908,4,2,155,70,0,0
184809,-90.9090909090908,4,2,161,70,0,0
184893,-90.9090909090908,4,2,12,70,0,0
184977,-90.9090909090908,4,2,27,70,0,0
185061,-90.9090909090908,4,2,117,70,0,0
185144,-90.9090909090908,4,2,7,70,0,0
185228,-90.9090909090908,4,2,30,70,0,0
185312,-90.9090909090908,4,2,16,70,0,0
185396,-90.9090909090908,4,2,35,70,0,0
185480,-90.9090909090908,4,2,25,70,0,0
185563,-90.9090909090908,4,2,112,70,0,0
185647,-90.9090909090908,4,2,234,70,0,0
185731,-90.9090909090908,4,2,221,70,0,0
185815,-90.9090909090908,4,2,1,70,0,0
186066,-90.9090909090908,4,2,235,70,0,0
186150,-90.9090909090908,4,2,1,70,0,0
186401,-90.9090909090908,4,2,51,70,0,0
186485,-90.9090909090908,4,2,18,70,0,0
186569,-90.9090909090908,4,2,22,70,0,0
186653,-90.9090909090908,4,2,23,70,0,0
186737,-90.9090909090908,4,2,60,70,0,0
186820,-90.9090909090908,4,2,5,70,0,0
186904,-90.9090909090908,4,2,11,70,0,0
186988,-90.9090909090908,4,2,20,70,0,0
187072,-90.9090909090908,4,2,79,70,0,0
187156,-90.9090909090908,4,2,1,70,0,0
187239,-90.9090909090908,4,2,58,70,0,0
187323,-90.9090909090908,4,2,236,70,0,0
187407,-90.9090909090908,4,2,154,70,0,0
187491,-90.9090909090908,4,2,1,70,0,0
187575,-90.9090909090908,4,2,23,70,0,0
187658,-90.9090909090908,4,2,20,70,0,0
187742,-90.9090909090908,4,2,79,70,0,0
187826,-90.9090909090908,4,2,10,70,0,0
187910,-111.111111111111,4,2,213,70,0,0
187994,-111.111111111111,4,2,33,70,0,0
188077,-111.111111111111,4,2,51,70,0,0
188161,-111.111111111111,4,2,18,70,0,0
188245,-111.111111111111,4,2,232,70,0,0
188329,-111.111111111111,4,2,237,70,0,0
188413,-111.111111111111,4,2,238,70,0,0
188497,-111.111111111111,4,2,1,70,0,0
188664,-111.111111111111,4,2,1,70,0,0
188748,-90.9090909090908,4,2,239,70,0,0
188832,-90.9090909090908,4,2,1,70,0,0
189083,-90.9090909090908,4,2,166,70,0,0
189167,-90.9090909090908,4,2,107,70,0,0
189251,-90.9090909090908,4,2,10,70,0,0
189334,-90.9090909090908,4,2,26,70,0,0
189418,-90.9090909090908,4,2,40,70,0,0
189502,-90.9090909090908,4,2,26,70,0,0
189586,-90.9090909090908,4,2,7,70,0,0
189670,-90.9090909090908,4,2,160,70,0,0
189753,-90.9090909090908,4,2,99,70,0,0
189837,-90.9090909090908,4,2,160,70,0,0
189921,-90.9090909090908,4,2,15,70,0,0
190005,-90.9090909090908,4,2,8,70,0,0
190089,-90.9090909090908,4,2,240,70,0,0
190172,-90.9090909090908,4,2,8,70,0,0
190256,-90.9090909090908,4,2,27,70,0,0
190340,-90.9090909090908,4,2,7,70,0,0
190424,-90.9090909090908,4,2,241,70,0,0
190508,-90.9090909090908,4,2,160,70,0,0
190591,-90.9090909090908,4,2,11,70,0,0
190675,-90.9090909090908,4,2,26,70,0,0
190759,-90.9090909090908,4,2,111,70,0,0
190843,-90.9090909090908,4,2,26,70,0,0
190927,-90.9090909090908,4,2,16,70,0,0
191010,-90.9090909090908,4,2,25,70,0,0
191052,-90.9090909090908,4,2,1,70,0,0
191094,-90.9090909090908,4,2,242,70,0,0
191178,-90.9090909090908,4,2,25,70,0,0
191262,-90.9090909090908,4,2,36,70,0,0
191346,-90.9090909090908,4,2,7,70,0,0
191430,-90.9090909090908,4,2,243,70,0,0
191597,-90.9090909090908,4,2,65,70,0,0
191681,-90.9090909090908,4,2,65,5,0,0
191765,-90.9090909090908,4,2,15,70,0,0
191932,-90.9090909090908,4,2,244,70,0,0
192099,-90.9090909090908,4,2,244,70,0,0
192268,-90.9090909090908,4,2,189,70,0,0
192351,-90.9090909090908,4,2,189,70,0,0
192435,-90.9090909090908,4,2,15,70,0,0
192519,-90.9090909090908,4,2,15,70,0,0
192603,-90.9090909090908,4,2,203,70,0,0
192770,-90.9090909090908,4,2,243,70,0,0
192938,-90.9090909090908,4,2,150,70,0,0
193105,-90.9090909090908,4,2,61,70,0,0
193273,-90.9090909090908,4,2,245,70,0,0
193440,-90.9090909090908,4,2,245,70,0,0
193608,-90.9090909090908,4,2,150,70,0,0
193776,-90.9090909090908,4,2,246,70,0,0
193943,-90.9090909090908,4,2,65,70,0,0
194111,-90.9090909090908,4,2,243,70,0,0
194278,-90.9090909090908,4,2,5,70,0,0
194446,-90.9090909090908,4,2,15,70,0,0
194614,-90.9090909090908,4,2,162,70,0,0
194781,-90.9090909090908,4,2,162,70,0,0
194949,-90.9090909090908,4,2,186,70,0,0
195033,-90.9090909090908,4,2,186,70,0,0
195117,-90.9090909090908,4,2,247,70,0,0
195201,-90.9090909090908,4,2,247,70,0,0
195284,-90.9090909090908,4,2,205,70,0,0
195452,-90.9090909090908,4,2,248,70,0,0
195620,-90.9090909090908,4,2,1,70,0,0
195787,-90.9090909090908,4,2,92,70,0,0
195954,-90.9090909090908,4,2,249,70,0,0
196122,-90.9090909090908,4,2,205,70,0,0
196290,-90.9090909090908,4,2,150,70,0,0
196457,-90.9090909090908,4,2,250,70,0,0
196624,-90.9090909090908,4,2,10,70,0,0
196793,-90.9090909090908,4,2,136,70,0,0
196960,-90.9090909090908,4,2,26,70,0,0
197044,-90.9090909090908,4,2,26,5,0,0
197128,-90.9090909090908,4,2,70,70,0,0
197212,-90.9090909090908,4,2,70,70,0,0
197295,-90.9090909090908,4,2,251,70,0,0
197379,-90.9090909090908,4,2,251,70,0,0
197631,-90.9090909090908,4,2,166,70,0,0
197715,-90.9090909090908,4,2,166,70,0,0
197798,-90.9090909090908,4,2,70,70,0,0
197965,-90.9090909090908,4,2,7,70,0,0
198133,-90.9090909090908,4,2,252,70,0,0
198301,-90.9090909090908,4,2,36,70,0,0
198385,-90.9090909090908,4,2,4,70,0,0
198468,-90.9090909090908,4,2,147,70,0,0
198636,-90.9090909090908,4,2,253,70,0,0
198804,-90.9090909090908,4,2,253,70,0,0
198971,-90.9090909090908,4,2,36,70,0,0
199055,-90.9090909090908,4,2,36,70,0,0
199139,-90.9090909090908,4,2,254,70,0,0
199223,-90.9090909090908,4,2,254,70,0,0
199307,-90.9090909090908,4,2,25,70,0,0
199474,-90.9090909090908,4,2,183,70,0,0
199558,-90.9090909090908,4,2,183,70,0,0
199642,-90.9090909090908,4,2,7,70,0,0
199809,-90.9090909090908,4,2,61,70,0,0
199977,-90.9090909090908,4,2,255,70,0,0
200144,-90.9090909090908,4,2,255,70,0,0
200312,-90.9090909090908,4,2,99,70,0,0
200480,-90.9090909090908,4,2,133,70,0,0
200647,-90.9090909090908,4,2,7,70,0,0
200815,-90.9090909090908,4,2,256,70,0,0
200899,-90.9090909090908,4,2,256,70,0,0
200983,-90.9090909090908,4,2,154,70,0,0
201066,-90.9090909090908,4,2,1,70,0,0
201150,-90.9090909090908,4,2,147,70,0,0
201234,-90.9090909090908,4,2,1,70,0,0
201318,-76.9230769230769,4,2,184,70,0,0
201485,-76.9230769230769,4,2,15,70,0,0
201653,-76.9230769230769,4,2,99,70,0,0
201737,-76.9230769230769,4,2,1,70,0,0
201820,-76.9230769230769,4,2,154,70,0,0
201905,-76.9230769230769,4,2,154,70,0,0
201988,-76.9230769230769,4,2,10,70,0,0
202156,-76.9230769230769,4,2,49,70,0,0
202323,-76.9230769230769,4,2,10,70,0,0
202491,-76.9230769230769,4,2,65,70,0,0
202658,-76.9230769230769,4,2,257,70,0,0
202742,-76.9230769230769,4,2,257,70,0,0
202994,-76.9230769230769,4,2,51,70,0,0
203078,-76.9230769230769,4,2,51,70,0,0
203161,-76.9230769230769,4,2,258,70,0,0
203245,-76.9230769230769,4,2,258,70,0,0
203329,-90.9090909090909,4,2,205,70,0,0
203497,-90.9090909090909,4,2,51,70,0,0
203664,-90.9090909090909,4,2,60,70,0,0
203832,-90.9090909090909,4,2,203,70,0,0
203999,-90.9090909090909,4,2,259,70,0,0
204334,-90.9090909090909,4,2,60,70,0,0
204390,-90.9090909090909,4,2,60,70,0,0
204502,-90.9090909090909,4,2,260,70,0,0
204586,-90.9090909090909,4,2,260,70,0,0
204670,-90.9090909090909,4,2,65,70,0,0
204837,-90.9090909090909,4,2,136,70,0,0
205005,-90.9090909090909,4,2,26,70,0,0
205173,-90.9090909090909,4,2,70,70,0,0
205340,-90.9090909090909,4,2,261,70,0,0
205424,-90.9090909090909,4,2,261,70,0,0
205675,-90.9090909090909,4,2,36,70,0,0
205759,-90.9090909090909,4,2,36,70,0,0
205843,-90.9090909090909,4,2,70,70,0,0
205927,-90.9090909090909,4,2,70,70,0,0
206010,-90.9090909090909,4,2,85,70,0,0
206178,-90.9090909090909,4,2,166,70,0,0
206346,-90.9090909090909,4,2,36,70,0,0
206513,-90.9090909090909,4,2,70,70,0,0
206681,-90.9090909090909,4,2,134,70,0,0
206848,-90.9090909090909,4,2,134,70,0,0
207016,-90.9090909090909,4,2,188,70,0,0
207100,-90.9090909090909,4,2,188,70,0,0
207184,-90.9090909090909,4,2,262,70,0,0
207351,-90.9090909090909,4,2,25,70,0,0
207519,-90.9090909090909,4,2,263,70,0,0
207687,-90.9090909090909,4,2,65,70,0,0
207854,-90.9090909090909,4,2,203,70,0,0
208022,-90.9090909090909,4,2,187,70,0,0
208189,-90.9090909090909,4,2,15,70,0,0
208357,-90.9090909090909,4,2,184,70,0,0
208441,-90.9090909090909,4,2,184,70,0,0
208525,-90.9090909090909,4,2,264,70,0,0
208692,-90.9090909090909,4,2,164,70,0,0
208776,-90.9090909090909,4,2,164,70,0,0
208860,-90.9090909090909,4,2,167,70,0,0
209027,-90.9090909090909,4,2,79,70,0,0
209111,-90.9090909090909,4,2,79,70,0,0
209195,-90.9090909090909,4,2,128,70,0,0
209362,-90.9090909090909,4,2,187,70,0,0
209530,-90.9090909090909,4,2,15,70,0,0
209698,-90.9090909090909,4,2,162,70,0,0
209782,-90.9090909090909,4,2,162,70,0,0
209865,-90.9090909090909,4,2,163,70,0,0
210033,-90.9090909090909,4,2,265,70,0,0
210117,-90.9090909090909,4,2,265,70,0,0
210201,-90.9090909090909,4,2,266,70,0,0
210368,-90.9090909090909,4,2,267,70,0,0
210703,-90.9090909090909,4,2,85,70,0,0
210871,-90.9090909090909,4,2,267,70,0,0
210955,-90.9090909090909,4,2,267,70,0,0
211039,-90.9090909090909,4,2,267,70,0,0
211123,-90.9090909090909,4,2,267,70,0,0
211206,-90.9090909090909,4,2,268,70,0,0
211318,-90.9090909090909,4,2,268,70,0,0
211373,-90.9090909090909,4,2,267,70,0,0
211457,-90.9090909090909,4,2,1,70,0,0
211541,-90.9090909090909,4,2,194,70,0,0
211653,-90.9090909090909,4,2,194,70,0,0
211709,-90.9090909090909,4,2,269,70,0,0
211876,-90.9090909090909,4,2,188,70,0,0
211988,-90.9090909090909,4,2,188,70,0,0
212044,-90.9090909090909,4,2,270,70,0,0
212212,-90.9090909090909,4,2,70,70,0,0
212379,-90.9090909090909,4,2,271,70,0,0
212463,-90.9090909090909,4,2,271,70,0,0
212547,-90.9090909090909,4,2,272,70,0,0
212714,-90.9090909090909,4,2,1,70,0,0
212882,-125,4,2,273,70,0,0
213217,-125,4,2,273,70,0,0
214055,-125,4,2,274,50,0,0
214139,-125,4,2,275,50,0,0
214223,-200,4,2,276,50,0,0
214474,-200,4,2,276,5,0,0
214558,-200,4,2,9,50,0,0
214893,-200,4,2,277,50,0,0
215228,-83.3333333333333,4,2,278,50,0,0
215479,-83.3333333333333,4,2,278,5,0,0
215564,-142.857142857143,4,2,279,50,0,0
215731,-142.857142857143,4,2,15,50,0,0
215899,-142.857142857143,4,2,280,50,0,0
216066,-142.857142857143,4,2,281,50,0,0
216317,-142.857142857143,4,2,281,5,0,0
216402,-142.857142857143,4,2,282,50,0,0
216569,-142.857142857143,4,2,58,50,0,0
216736,-142.857142857143,4,2,282,50,0,0
216904,-111.111111111111,4,2,5,50,0,0
217072,-111.111111111111,4,2,15,50,0,0
217239,-111.111111111111,4,2,161,50,0,0
217407,-111.111111111111,4,2,58,50,0,0
217575,-111.111111111111,4,2,282,50,0,0
217742,-111.111111111111,4,2,5,50,0,0
217910,-111.111111111111,4,2,283,50,0,0
218245,-142.857142857143,4,2,279,50,0,0
218413,-142.857142857143,4,2,160,50,0,0
218580,-142.857142857143,4,2,284,50,0,0
218748,-142.857142857143,4,2,285,50,0,0
219083,-142.857142857143,4,2,286,50,0,0
219251,-142.857142857143,4,2,56,50,0,0
219418,-142.857142857143,4,2,287,50,0,0
219586,-111.111111111111,4,2,5,50,0,0
219753,-111.111111111111,4,2,160,50,0,0
219921,-111.111111111111,4,2,8,50,0,0
220089,-142.857142857143,4,2,76,50,0,0
220256,-142.857142857143,4,2,287,50,0,0
220424,-142.857142857143,4,2,15,50,0,0
220592,-200,4,2,288,50,0,0
220759,-200,4,2,15,50,0,0
220843,-200,4,2,15,5,0,0
220927,-200,4,2,289,50,0,0
221094,-200,4,2,160,50,0,0
221262,-200,4,2,284,50,0,0
221430,-142.857142857143,4,2,290,50,0,0
221765,-142.857142857143,4,2,19,50,0,0
221932,-142.857142857143,4,2,27,50,0,0
222100,-142.857142857143,4,2,161,50,0,0
222268,-142.857142857143,4,2,291,50,0,0
222435,-142.857142857143,4,2,2,50,0,0
222519,-142.857142857143,4,2,2,5,0,0
222603,-142.857142857143,4,2,292,50,0,0
222770,-142.857142857143,4,2,293,50,0,0
223105,-142.857142857143,4,2,294,50,0,0
223273,-142.857142857143,4,2,67,50,0,0
223441,-142.857142857143,4,2,295,50,0,0
223608,-222.222222222222,4,2,1,50,0,0
223692,-222.222222222222,4,2,1,50,0,0
223776,-222.222222222222,4,2,2,50,0,0
223943,-222.222222222222,4,2,296,50,0,0
224111,-222.222222222222,4,2,297,50,0,0
224445,-222.222222222222,4,2,298,50,0,0
224614,-222.222222222222,4,2,299,50,0,0
224781,-222.222222222222,4,2,12,50,0,0
224949,-222.222222222222,4,2,1,50,0,0
225284,-222.222222222222,4,2,7,50,0,0
225452,-222.222222222222,4,2,1,50,0,0
225619,-222.222222222222,4,2,58,50,0,0
225787,-222.222222222222,4,2,58,50,0,0
225955,-222.222222222222,4,2,59,50,0,0
226290,-111.111111111111,4,2,300,50,0,0
226457,-111.111111111111,4,2,10,50,0,0
226625,-111.111111111111,4,2,301,50,0,0
226793,-111.111111111111,4,2,302,50,0,0
226960,-111.111111111111,4,2,1,50,0,0
227128,-111.111111111111,4,2,58,50,0,0
227295,-111.111111111111,4,2,58,50,0,0
227462,-111.111111111111,4,2,6,50,0,0
227630,-111.111111111111,4,2,303,50,0,0
227798,-111.111111111111,4,2,10,50,0,0
227966,-111.111111111111,4,2,17,50,0,0
228133,-111.111111111111,4,2,20,50,0,0
228301,-111.111111111111,4,2,304,50,0,0
228468,-111.111111111111,4,2,304,50,0,0
228636,-111.111111111111,4,2,9,50,0,0
228803,-111.111111111111,4,2,9,50,0,0
228971,-111.111111111111,4,2,305,50,0,0
229139,-111.111111111111,4,2,107,50,0,0
229306,-111.111111111111,4,2,306,50,0,0
229474,-111.111111111111,4,2,307,50,0,0
229641,-111.111111111111,4,2,1,50,0,0
229809,-111.111111111111,4,2,12,50,0,0
229977,-111.111111111111,4,2,12,50,0,0
230144,-111.111111111111,4,2,14,50,0,0
230312,-111.111111111111,4,2,303,50,0,0
230480,-111.111111111111,4,2,107,50,0,0
230647,-111.111111111111,4,2,26,50,0,0
230815,-142.857142857143,4,2,23,50,0,0
230982,-142.857142857143,4,2,308,50,0,0
231150,-142.857142857143,4,2,308,50,0,0
231318,-200,4,2,76,50,0,0
231569,-200,4,2,76,5,0,0
231653,-200,4,2,309,50,0,0
231820,-200,4,2,107,50,0,0
231988,-200,4,2,310,50,0,0
232156,-200,4,2,311,50,0,0
232323,-200,4,2,1,50,0,0
232491,-200,4,2,59,50,0,0
232659,-111.111111111111,4,2,59,50,0,0
232826,-111.111111111111,4,2,312,50,0,0
232994,-111.111111111111,4,2,313,50,0,0
233161,-111.111111111111,4,2,19,50,0,0
233329,-111.111111111111,4,2,314,50,0,0
233496,-111.111111111111,4,2,27,50,0,0
233664,-111.111111111111,4,2,315,50,0,0
233832,-111.111111111111,4,2,315,50,0,0
233999,-90.9090909090909,4,2,58,50,0,0
234250,-90.9090909090909,4,2,58,5,0,0
234335,-90.9090909090909,4,2,1,50,0,0
234837,-90.9090909090909,4,2,1,20,0,0
236011,-90.9090909090909,4,2,316,50,0,0
236346,-90.9090909090909,4,2,317,50,0,0
236430,-90.9090909090909,4,2,317,50,0,0
236681,-90.9090909090909,4,2,318,60,0,0
236765,-90.9090909090909,4,2,318,60,0,0
237016,-83.3333333333333,4,2,319,70,0,1
237184,-83.3333333333333,4,2,21,70,0,1
237267,-83.3333333333333,4,2,21,5,0,1
237351,-83.3333333333333,4,2,320,70,0,1
237519,-83.3333333333333,4,2,321,70,0,1
237686,-83.3333333333333,4,2,321,70,0,1
237854,-83.3333333333333,4,2,322,70,0,1
237938,-83.3333333333333,4,2,322,70,0,1
238022,-83.3333333333333,4,2,323,70,0,1
238106,-83.3333333333333,4,2,323,70,0,1
238189,-83.3333333333333,4,2,324,70,0,1
238357,-83.3333333333333,4,2,238,70,0,1
238441,-83.3333333333333,4,2,238,70,0,1
238525,-83.3333333333333,4,2,51,70,0,1
238692,-83.3333333333333,4,2,325,70,0,1
238860,-83.3333333333333,4,2,326,70,0,1
238944,-83.3333333333333,4,2,326,70,0,1
239027,-83.3333333333333,4,2,327,70,0,1
239195,-83.3333333333333,4,2,51,70,0,1
239363,-71.4285714285714,4,2,328,70,0,1
239530,-71.4285714285714,4,2,328,70,0,1
239698,-83.3333333333333,4,2,329,70,0,1
239865,-83.3333333333333,4,2,26,70,0,1
239949,-83.3333333333333,4,2,26,5,0,1
240033,-83.3333333333333,4,2,330,70,0,1
240200,-83.3333333333333,4,2,331,70,0,1
240368,-83.3333333333333,4,2,331,70,0,1
240536,-83.3333333333333,4,2,332,70,0,1
240620,-83.3333333333333,4,2,332,70,0,1
240703,-83.3333333333333,4,2,15,70,0,1
240787,-83.3333333333333,4,2,15,70,0,1
240871,-83.3333333333333,4,2,333,70,0,1
241039,-100,4,2,334,70,0,1
241123,-100,4,2,334,70,0,1
241206,-100,4,2,36,70,0,1
241374,-100,4,2,128,70,0,1
241541,-100,4,2,335,70,0,1
241708,-100,4,2,294,70,0,1
241876,-100,4,2,36,70,0,1
242044,-100,4,2,336,70,0,1
242128,-100,4,2,336,70,0,1
242212,-100,4,2,26,70,0,1
242379,-83.3333333333333,4,2,337,70,0,1
242547,-83.3333333333333,4,2,107,70,0,1
242630,-83.3333333333333,4,2,107,5,0,1
242714,-83.3333333333333,4,2,338,70,0,1
242882,-83.3333333333333,4,2,339,70,0,1
242966,-83.3333333333333,4,2,339,70,0,1
243217,-83.3333333333333,4,2,40,70,0,1
243301,-83.3333333333333,4,2,40,70,0,1
243385,-83.3333333333333,4,2,19,70,0,1
243469,-83.3333333333333,4,2,19,70,0,1
243552,-83.3333333333333,4,2,340,70,0,1
243720,-83.3333333333333,4,2,341,70,0,1
243888,-83.3333333333333,4,2,40,70,0,1
244055,-83.3333333333333,4,2,342,70,0,1
244223,-83.3333333333333,4,2,343,70,0,1
244307,-83.3333333333333,4,2,343,70,0,1
244558,-83.3333333333333,4,2,344,70,0,1
244726,-76.9230769230769,4,2,2,70,0,1
244893,-76.9230769230769,4,2,345,70,0,1
245061,-83.3333333333333,4,2,116,70,0,1
245228,-83.3333333333333,4,2,19,70,0,1
245312,-83.3333333333333,4,2,19,5,0,1
245396,-83.3333333333333,4,2,346,70,0,1
245563,-83.3333333333333,4,2,347,70,0,1
245731,-83.3333333333333,4,2,347,70,0,1
245899,-83.3333333333333,4,2,348,70,0,1
246066,-83.3333333333333,4,2,349,70,0,1
246233,-83.3333333333333,4,2,349,70,0,1
246402,-83.3333333333333,4,2,350,70,0,1
246485,-83.3333333333333,4,2,350,70,0,1
246569,-83.3333333333333,4,2,35,70,0,1
246653,-83.3333333333333,4,2,35,70,0,1
246737,-83.3333333333333,4,2,351,70,0,1
246821,-83.3333333333333,4,2,351,70,0,1
246904,-83.3333333333333,4,2,335,70,0,1
246987,-83.3333333333333,4,2,335,5,0,1
247072,-83.3333333333333,4,2,100,5,0,1
247240,-83.3333333333333,4,2,108,70,0,1
247323,-83.3333333333333,4,2,1,70,0,1
247407,-71.4285714285714,4,2,352,70,0,1
247574,-71.4285714285714,4,2,352,70,0,1
247742,-83.3333333333333,4,2,353,70,0,1
247910,-83.3333333333333,4,2,21,70,0,1
247993,-83.3333333333333,4,2,21,5,0,1
248078,-83.3333333333333,4,2,320,70,0,1
248245,-83.3333333333333,4,2,354,70,0,1
248412,-83.3333333333333,4,2,354,70,0,1
248580,-83.3333333333333,4,2,355,70,0,1
248664,-83.3333333333333,4,2,355,70,0,1
248748,-83.3333333333333,4,2,323,70,0,1
248832,-83.3333333333333,4,2,323,70,0,1
248915,-83.3333333333333,4,2,356,70,0,1
249083,-83.3333333333333,4,2,238,70,0,1
249167,-83.3333333333333,4,2,238,70,0,1
249251,-83.3333333333333,4,2,51,70,0,1
249418,-83.3333333333333,4,2,325,70,0,1
249586,-83.3333333333333,4,2,79,70,0,1
249670,-83.3333333333333,4,2,79,70,0,1
249753,-83.3333333333333,4,2,330,70,0,1
249921,-83.3333333333333,4,2,51,70,0,1
250089,-71.4285714285714,4,2,357,70,0,1
250256,-71.4285714285714,4,2,357,70,0,1
250424,-83.3333333333333,4,2,358,70,0,1
250591,-83.3333333333333,4,2,26,70,0,1
250675,-83.3333333333333,4,2,26,5,0,1
250759,-83.3333333333333,4,2,330,70,0,1
250927,-83.3333333333333,4,2,359,70,0,1
251094,-83.3333333333333,4,2,21,70,0,1
251262,-83.3333333333333,4,2,360,70,0,1
251346,-83.3333333333333,4,2,360,70,0,1
251430,-83.3333333333333,4,2,128,70,0,1
251513,-83.3333333333333,4,2,128,70,0,1
251597,-83.3333333333333,4,2,361,70,0,1
251765,-100,4,2,51,70,0,1
251849,-100,4,2,51,70,0,1
251932,-100,4,2,36,70,0,1
252100,-100,4,2,128,70,0,1
252267,-100,4,2,154,70,0,1
252435,-100,4,2,294,70,0,1
252603,-100,4,2,36,70,0,1
252687,-100,4,2,36,70,0,1
252770,-71.4285714285714,4,2,362,70,0,1
252938,-71.4285714285714,4,2,26,70,0,1
253021,-71.4285714285714,4,2,26,5,0,1
253106,-71.4285714285714,4,2,363,70,0,1
253273,-71.4285714285714,4,2,107,70,0,1
253441,-71.4285714285714,4,2,364,70,0,1
253608,-76.9230769230769,4,2,365,70,0,1
253775,-76.9230769230769,4,2,365,70,0,1
253944,-76.9230769230769,4,2,366,70,0,1
254111,-76.9230769230769,4,2,19,70,0,1
254279,-76.9230769230769,4,2,367,70,0,1
254446,-71.4285714285714,4,2,368,70,0,1
254614,-71.4285714285714,4,2,40,70,0,1
254782,-83.3333333333333,4,2,369,70,0,1
254949,-83.3333333333333,4,2,370,70,0,1
255117,-83.3333333333333,4,2,371,70,0,1
255284,-83.3333333333333,4,2,108,70,0,1
255368,-83.3333333333333,4,2,108,70,0,1
255452,-83.3333333333333,4,2,372,70,0,1
255619,-83.3333333333333,4,2,107,70,0,1
255703,-83.3333333333333,4,2,107,5,0,1
255787,-100,4,2,373,70,0,1
255955,-100,4,2,19,70,0,1
256122,-100,4,2,374,70,0,1
256290,-100,4,2,375,70,0,1
256457,-100,4,2,375,70,0,1
256625,-100,4,2,376,70,0,1
256709,-100,4,2,376,70,0,1
256793,-100,4,2,296,70,0,1
256877,-100,4,2,296,70,0,1
257128,-100,4,2,377,70,0,1
257212,-100,4,2,377,70,0,1
257295,-100,4,2,378,70,0,1
257379,-100,4,2,378,70,0,1
257463,-83.3333333333333,4,2,379,70,0,1
257547,-83.3333333333333,4,2,379,70,0,1
257631,-100,4,2,380,70,0,1
257798,-100,4,2,15,70,0,1
257966,-100,4,2,381,70,0,1
258050,-100,4,2,1,70,0,1
258133,-100,4,2,382,70,0,1
258217,-100,4,2,382,70,0,1
258301,-100,4,2,382,70,0,1
258469,-83.3333333333333,4,2,383,70,0,1
258636,-83.3333333333333,4,2,18,70,0,1
258720,-83.3333333333333,4,2,18,5,0,1
258804,-83.3333333333333,4,2,384,70,0,1
258971,-83.3333333333333,4,2,385,70,0,1
259139,-83.3333333333333,4,2,262,70,0,1
259307,-83.3333333333333,4,2,386,70,0,1
259390,-83.3333333333333,4,2,386,70,0,1
259474,-83.3333333333333,4,2,262,70,0,1
259642,-83.3333333333333,4,2,385,70,0,1
259726,-83.3333333333333,4,2,385,70,0,1
259809,-83.3333333333333,4,2,208,70,0,1
259977,-83.3333333333333,4,2,387,70,0,1
260145,-83.3333333333333,4,2,388,70,0,1
260312,-83.3333333333333,4,2,387,70,0,1
260396,-83.3333333333333,4,2,387,70,0,1
260480,-83.3333333333333,4,2,389,70,0,1
260647,-83.3333333333333,4,2,390,70,0,1
260815,-83.3333333333333,4,2,391,70,0,1
260982,-83.3333333333333,4,2,392,70,0,1
261067,-83.3333333333333,4,2,392,70,0,1
261150,-83.3333333333333,4,2,393,70,0,1
261318,-83.3333333333333,4,2,394,70,0,1
261485,-83.3333333333333,4,2,395,70,0,1
261653,-83.3333333333333,4,2,356,70,0,1
261820,-83.3333333333333,4,2,394,70,0,1
261988,-83.3333333333333,4,2,326,70,0,1
262156,-66.6666666666667,4,2,396,70,0,1
262240,-66.6666666666667,4,2,396,70,0,1
262323,-66.6666666666667,4,2,1,70,0,1
262491,-500,4,2,397,70,0,0
263162,-500,4,2,397,70,0,0
263329,-200,4,2,397,70,0,0
263664,-83.3333333333333,4,2,166,70,0,0
263748,-83.3333333333333,4,2,1,70,0,0
263832,-83.3333333333333,4,2,167,70,0,0
263999,-83.3333333333333,4,2,108,70,0,0
264167,-83.3333333333333,4,2,154,70,0,0
264335,-100,4,2,168,70,0,0
264502,-100,4,2,35,70,0,0
264586,-100,4,2,35,5,0,0
264670,-100,4,2,108,70,0,0
264837,-100,4,2,4,70,0,0
265005,-100,4,2,35,70,0,0
265089,-100,4,2,1,70,0,0
265172,-100,4,2,44,70,0,0
265340,-100,4,2,60,70,0,0
265424,-100,4,2,1,70,0,0
265508,-100,4,2,100,70,0,0
265675,-100,4,2,48,70,0,0
265759,-100,4,2,48,70,0,0
265843,-100,4,2,68,70,0,0
266010,-100,4,2,108,70,0,0
266178,-83.3333333333333,4,2,169,70,0,0
266346,-83.3333333333333,4,2,60,70,0,0
266429,-83.3333333333333,4,2,60,5,0,0
266513,-83.3333333333333,4,2,170,70,0,0
266681,-83.3333333333333,4,2,36,70,0,0
266848,-83.3333333333333,4,2,145,70,0,0
267016,-83.3333333333333,4,2,171,70,0,0
267184,-83.3333333333333,4,2,166,70,0,0
267351,-83.3333333333333,4,2,36,70,0,0
267519,-100,4,2,29,70,0,0
267686,-100,4,2,99,70,0,0
267770,-100,4,2,99,70,0,0
267854,-100,4,2,172,70,0,0
268022,-100,4,2,99,70,0,0
268106,-100,4,2,99,70,0,0
268189,-100,4,2,4,70,0,0
268357,-100,4,2,88,70,0,0
268441,-100,4,2,88,70,0,0
268525,-100,4,2,173,70,0,0
268692,-100,4,2,154,70,0,0
268860,-125,4,2,88,70,0,0
269027,-125,4,2,99,70,0,0
269111,-125,4,2,1,70,0,0
269195,-111.111111111111,4,2,398,70,0,0
269362,-111.111111111111,4,2,399,70,0,0
269530,-111.111111111111,4,2,400,70,0,0
269698,-111.111111111111,4,2,247,70,0,0
269865,-111.111111111111,4,2,117,70,0,0
270033,-111.111111111111,4,2,8,70,0,0
270200,-111.111111111111,4,2,162,70,0,0
270368,-111.111111111111,4,2,401,70,0,0
270452,-111.111111111111,4,2,1,70,0,0
270494,-111.111111111111,4,2,1,70,0,0
270536,-111.111111111111,4,2,402,70,0,0
270703,-111.111111111111,4,2,403,70,0,0
270871,-111.111111111111,4,2,404,70,0,0
271038,-111.111111111111,4,2,405,70,0,0
271206,-111.111111111111,4,2,145,70,0,0
271374,-111.111111111111,4,2,12,70,0,0
271541,-111.111111111111,4,2,174,70,0,0
271709,-111.111111111111,4,2,27,70,0,0
271876,-90.9090909090909,4,2,406,70,0,0
272044,-90.9090909090909,4,2,407,70,0,0
272127,-90.9090909090909,4,2,407,5,0,0
272212,-90.9090909090909,4,2,408,70,0,0
272379,-90.9090909090909,4,2,409,70,0,0
272547,-90.9090909090909,4,2,58,70,0,0
272714,-90.9090909090909,4,2,76,70,0,0
272882,-90.9090909090909,4,2,175,70,0,0
273050,-90.9090909090909,4,2,176,70,0,0
273217,-90.9090909090909,4,2,410,70,0,0
273385,-90.9090909090909,4,2,73,70,0,0
273552,-90.9090909090909,4,2,173,70,0,0
273720,-90.9090909090909,4,2,411,70,0,0
273804,-90.9090909090909,4,2,411,70,0,0
273888,-90.9090909090909,4,2,144,70,0,0
274055,-90.9090909090909,4,2,153,70,0,0
274139,-90.9090909090909,4,2,153,70,0,0
274223,-90.9090909090909,4,2,100,70,0,0
274363,-90.9090909090909,4,2,1,70,0,0
274446,-90.9090909090909,4,2,1,70,0,0
274558,-421.940928270042,4,2,413,70,0,0
274642,-421.940928270042,4,2,413,70,0,0
275207,-188.679245283019,4,2,1,65,0,0
275878,-188.679245283019,4,2,1,60,0,0
276548,-188.679245283019,4,2,1,55,0,0
277219,-188.679245283019,4,2,1,50,0,0
277931,-188.679245283019,4,2,1,40,0,0
278559,-188.679245283019,4,2,1,30,0,0
279230,-188.679245283019,4,2,1,15,0,0
279921,-421.940928270042,4,2,1,5,0,0

[Colours]
Combo1 : 114,114,114
Combo2 : 242,87,172
Combo3 : 247,149,200
Combo4 : 255,204,230
Combo5 : 219,248,118
Combo6 : 117,164,234
Combo7 : 232,198,255
Combo8 : 126,228,157

[HitObjects]
483,275,1039,86,0,P|442:345|361:339,1,170.198333333334,10|2,2:2|2:2,0:0:0:0:
289,330,1541,70,0,B|244:352|244:352|293:367,1,102.321866666666,2|0,2:2|0:0,0:0:0:0:
361,340,1876,2,0,L|366:272,1,68.0793333333333,0|2,0:0|2:2,0:0:0:0:
372,170,2212,1,2,2:2:0:0:
323,111,2379,38,0,P|301:138|295:171,2,68.0793333333334,10|0|2,2:2|0:0|2:2,0:0:0:0:
473,172,2882,2,0,P|412:149|395:86,1,136.158666666666,2|0,2:2|0:0,0:0:0:0:
494,9,3385,1,2,2:2:0:0:
486,20,3720,69,10,2:2:0:0:
337,36,4055,37,2,2:2:0:0:
329,25,4223,1,2,2:2:0:0:
188,52,4558,69,2,2:3:0:0:
180,41,4726,1,2,2:3:0:0:
39,68,4893,37,2,2:2:0:0:
0,135,5061,69,10,2:2:0:0:
48,145,5228,1,2,2:2:0:0:
93,122,5396,1,2,2:2:0:0:
39,68,5564,37,2,2:3:0:0:
151,174,5731,69,2,2:2:0:0:
180,41,5899,1,2,2:2:0:0:
188,52,6066,1,2,2:2:0:0:
151,174,6402,38,0,P|72:180|51:257,1,170.198333333334,10|2,2:2|2:2,0:0:0:0:
94,319,6904,70,0,P|145:335|121:288,1,136.158666666666,2|0,2:2|0:0,0:0:0:0:
39,68,7407,37,2,2:2:0:0:
45,55,7742,70,0,B|86:38|86:38|122:64|124:111|92:147,1,153.178495330811,10|2,2:2|2:2,0:0:0:0:
80,208,8245,38,0,P|41:186|24:146,1,89.5316306096396,2|0,2:2|0:0,0:0:0:0:
25,136,8580,1,0,0:0:0:0:
172,168,8748,70,0,L|222:164,1,51.1609333333334,2|0,2:2|0:0,0:0:0:0:
228,156,9083,37,10,2:2:0:0:
380,172,9418,69,2,2:2:0:0:
304,164,9586,1,2,2:2:0:0:
304,148,9921,1,2,2:3:0:0:
456,180,10256,37,2,2:2:0:0:
380,172,10424,1,10,2:2:0:0:
323,266,10592,70,0,L|256:272,1,68.0793333333333,2|2,2:2|2:2,0:0:0:0:
228,156,10927,2,0,L|160:150,1,68.0793333333333,2|2,2:3|2:2,0:0:0:0:
80,264,11262,37,2,2:2:0:0:
8,292,11430,2,0,P|45:295|75:274,1,76.7413976654053,2|0,2:2|0:0,0:0:0:0:
92,188,11765,102,0,L|115:356,1,170.198333333334,6|2,2:2|2:2,0:0:0:0:
256,354,12268,2,0,P|225:332|188:332,1,76.5892476654053,2|2,2:2|2:3,0:0:0:0:
80,264,12603,1,2,2:2:0:0:
115,356,12770,69,2,2:3:0:0:
132,208,12938,1,2,2:2:0:0:
142,115,13106,37,10,2:2:0:0:
208,68,13273,69,2,2:2:0:0:
208,55,13357,1,0,0:0:0:0:
202,42,13441,1,2,2:2:0:0:
194,30,13525,1,0,0:0:0:0:
183,21,13608,1,2,2:2:0:0:
171,16,13692,1,2,2:3:0:0:
155,13,13776,1,2,2:3:0:0:
142,14,13860,1,2,2:3:0:0:
128,20,13944,38,0,P|106:34|97:52,1,38.5228488327027,2|0,2:3|0:0,0:0:0:0:
36,136,14111,70,0,P|33:110|23:93,3,38.3706988327027,2|0|0|0,2:2|0:0|0:0|0:0,0:0:0:0:
142,115,14446,38,0,L|256:122,1,115.112096498108,10|0,2:2|0:0,0:0:0:0:
272,112,14782,69,2,2:2:0:0:
344,138,14949,1,2,2:2:0:0:
353,116,15033,1,2,2:3:0:0:
346,93,15117,1,2,2:3:0:0:
379,4,15284,38,0,L|455:8,1,76.5892476654053,2|2,2:2|2:3,0:0:0:0:
265,35,15620,1,2,2:2:0:0:
379,4,15787,69,10,2:2:0:0:
421,150,15955,1,2,2:2:0:0:
344,138,16122,1,2,2:2:0:0:
339,160,16206,1,2,2:2:0:0:
352,187,16290,1,2,2:3:0:0:
498,213,16457,38,0,B|449:205|449:205|428:179|428:179|437:220|398:267|349:265,1,204.238,2|2,2:2|2:2,0:0:0:0:
343,264,17044,1,2,3:3:0:0:
292,322,17128,21,14,2:2:0:0:
469,372,17295,1,2,2:2:0:0:
466,296,17463,1,2,2:2:0:0:
343,264,17631,70,0,B|287:270|287:270|259:315|259:315|198:322,1,170.198333333334,10|2,2:2|2:2,0:0:0:0:
17,311,18133,2,0,B|19:357|77:386|114:364|114:364|125:344,1,153.482795330811,10|0,2:2|1:0,0:0:0:0:
199,321,18469,38,0,L|283:327,1,85.0991666666667,14|2,2:2|2:2,0:0:0:0:
460,220,18804,1,2,2:2:0:0:
388,192,18971,1,10,2:2:0:0:
344,376,19139,70,0,B|361:337|361:337|353:296,1,85.0991666666667,2|2,1:2|2:2,0:0:0:0:
238,139,19474,2,0,L|340:132,1,102.118996887207,10|2,2:2|2:2,0:0:0:0:
352,124,19726,1,0,0:0:0:0:
388,192,19809,37,14,2:2:0:0:
428,126,19977,1,2,2:2:0:0:
391,58,20145,1,2,2:2:0:0:
162,146,20312,69,10,2:2:0:0:
340,132,20480,2,0,L|238:139,1,102.118996887207,2|2,2:2|2:2,0:0:0:0:
8,70,20815,37,10,2:2:0:0:
162,146,20983,1,2,2:2:0:0:
194,75,21150,1,2,2:2:0:0:
26,145,21318,69,10,2:2:0:0:
47,219,21485,1,2,2:2:0:0:
15,290,21653,1,2,2:2:0:0:
109,68,21821,38,0,L|194:75,1,85.0991666666667,10|2,2:2|2:2,0:0:0:0:
263,268,22156,70,0,B|372:257|372:257|357:272|352:295,1,153.482795330811,10|0,2:2|0:0,0:0:0:0:
392,364,22491,6,0,B|426:341|428:307|428:307|448:316|496:312|505:244|452:219|445:274,1,204.035133333333,10|0,2:2|0:0,0:0:0:0:
446,265,23664,54,0,P|455:251|465:246,1,25.6818992218018,2|2,2:2|2:2,0:0:0:0:
489,99,23832,101,2,2:2:0:0:
457,129,23916,1,0,0:0:0:0:
415,133,23999,1,0,0:0:0:0:
381,106,24083,1,0,0:0:0:0:
346,37,24167,5,2,2:2:0:0:
298,17,24251,1,2,2:2:0:0:
251,39,24335,1,10,2:2:0:0:
239,88,24418,1,2,2:2:0:0:
278,154,24502,101,2,2:2:0:0:
286,177,24586,5,2,2:2:0:0:
289,210,24670,5,6,2:2:0:0:
282,251,24754,37,2,2:2:0:0:
255,294,24837,21,2,2:2:0:0:
206,328,24921,69,2,2:2:0:0:
138,336,25005,101,2,2:2:0:0:
69,301,25089,37,2,2:2:0:0:
51,269,25173,70,0,P|50:204|103:165,1,136.158666666666,10|2,2:2|2:2,0:0:0:0:
8,53,25675,2,0,P|20:84|50:101,1,68.0793333333333,2|2,2:2|2:3,0:0:0:0:
103,164,26011,37,2,2:2:0:0:
180,114,26178,1,2,2:2:0:0:
158,24,26346,1,2,2:2:0:0:
264,181,26513,70,0,L|197:189,2,68.0793333333334,2|2|2,2:2|2:2|2:2,0:0:0:0:
297,45,27016,2,0,B|282:92|307:139|328:106|351:156|339:201,1,170.198333333334,2|2,2:2|2:2,0:0:0:0:
339,200,27519,1,2,2:2:0:0:
478,186,27687,1,2,2:2:0:0:
499,260,27854,38,0,B|492:309|492:309|406:299,1,136.158666666666,2|2,2:2|2:2,0:0:0:0:
256,260,28357,2,0,L|262:327,1,68.0793333333333,2|2,2:2|2:3,0:0:0:0:
323,378,28692,2,0,P|386:361|406:299,1,136.158666666666,2|2,2:2|2:2,0:0:0:0:
336,256,29195,69,2,2:2:0:0:
256,260,29363,1,2,2:2:0:0:
192,360,29530,37,2,2:2:0:0:
112,364,29698,1,2,2:2:0:0:
0,296,29865,70,0,L|101:288,1,102,2|0,2:2|0:0,0:0:0:0:
119,302,30201,2,0,P|127:334|112:364,1,68.0793333333333,2|2,2:2|2:2,0:0:0:0:
94,163,30536,38,0,P|135:214|200:208,2,136.158666666666,2|2|2,2:2|2:2|2:3,0:0:0:0:
84,88,31374,69,2,2:2:0:0:
24,136,31541,1,2,2:2:0:0:
94,163,31709,1,2,2:2:0:0:
195,37,31876,38,0,L|297:45,1,102.321866666666,2|0,2:2|0:0,0:0:0:0:
308,36,32212,1,2,2:2:0:0:
491,123,32379,2,0,P|455:72|394:65,1,127.902333333334,2|0,2:2|0:0,0:0:0:0:
377,71,32714,1,2,2:2:0:0:
377,71,33050,69,2,2:2:0:0:
355,232,33217,38,0,B|389:252|389:252|426:239|441:182|416:140,1,170.198333333334,2|2,2:2|2:2,0:0:0:0:
284,208,33720,2,0,P|278:249|299:285,1,85.0991666666667,2|2,2:2|2:3,0:0:0:0:
363,324,34055,69,2,2:2:0:0:
499,313,34223,1,2,2:2:0:0:
507,323,34558,38,0,L|440:316,1,68.0793333333333,2|2,2:2|2:2,0:0:0:0:
363,324,34893,53,2,2:2:0:0:
286,334,35061,1,2,2:2:0:0:
101,288,35228,1,2,2:2:0:0:
24,298,35396,101,2,2:2:0:0:
177,276,35564,1,2,2:2:0:0:
128,216,35731,1,2,2:2:0:0:
20,375,35899,22,0,P|81:350|101:288,1,136.158666666666,2|2,2:2|2:2,0:0:0:0:
181,180,36402,2,0,P|160:205|128:216,1,68.0793333333333,2|2,2:2|2:3,0:0:0:0:
52,229,36737,37,2,2:2:0:0:
12,146,36904,1,2,2:2:0:0:
61,67,37072,1,2,2:2:0:0:
181,180,37240,70,0,L|170:52,1,127.902333333334,2|0,2:2|0:0,0:0:0:0:
169,35,37575,1,2,2:2:0:0:
256,136,37742,2,0,B|376:152|376:152|352:136|344:100,1,170.198333333334,2|2,2:2|2:2,0:0:0:0:
420,88,38245,1,2,2:2:0:0:
256,136,38413,1,2,2:2:0:0:
268,212,38580,38,0,L|249:346,1,136.158666666666,2|2,2:2|2:2,0:0:0:0:
112,351,39083,2,0,P|96:321|100:287,1,68.0793333333333,2|2,2:2|2:3,0:0:0:0:
200,205,39418,2,0,L|268:212,1,68.0793333333333,2|2,2:2|2:2,0:0:0:0:
344,220,39754,1,2,2:2:0:0:
488,164,39921,70,0,L|469:29,1,136.158666666666,2|2,2:2|2:2,0:0:0:0:
512,92,40424,1,2,2:2:0:0:
410,169,40592,38,0,P|428:216|471:239,1,102.321866666666,2|0,2:2|0:0,0:0:0:0:
484,244,40927,2,0,B|495:326,1,68.0793333333333,2|2,2:2|2:2,0:0:0:0:
368,364,41262,70,0,B|384:268|328:328|344:220,1,153.178495330811,2|2,2:2|2:2,0:0:0:0:
344,220,41765,1,2,2:2:0:0:
410,169,41932,37,2,2:2:0:0:
256,132,42100,1,2,2:2:0:0:
364,17,42268,2,0,P|423:35|436:94,1,127.902333333334,2|0,2:2|0:0,0:0:0:0:
410,169,42603,70,0,L|280:176,1,127.902333333334,2|0,2:2|0:0,0:0:0:0:
276,184,42938,1,2,2:2:0:0:
150,191,43106,2,0,P|175:224|216:231,1,85.0991666666667,2|2,2:2|2:2,0:0:0:0:
310,42,43441,38,0,P|232:66|208:144,1,170.198333333334,2|2,2:2|2:2,0:0:0:0:
276,280,43944,54,0,B|216:284|216:284|196:312|196:312|137:315,1,153.482795330811,2|0,2:2|0:0,0:0:0:0:
128,320,44279,2,0,B|103:285|103:285|122:247,1,85.0991666666667,2|2,2:2|2:2,0:0:0:0:
84,180,44614,37,2,2:2:0:0:
160,180,44782,1,2,2:2:0:0:
12,148,44949,1,2,2:2:0:0:
78,18,45117,70,0,B|68:84|68:84|92:120|92:120|84:180,1,170.198333333334,10|2,2:2|2:2,0:0:0:0:
64,364,45620,1,2,2:2:0:0:
0,320,45787,101,2,2:2:0:0:
31,290,45871,1,0,0:0:0:0:
69,287,45955,1,2,2:2:0:0:
132,329,46122,1,2,2:2:0:0:
140,365,46290,102,0,L|151:263,1,102.321866666666,2|0,2:2|0:0,0:0:0:0:
185,193,46625,70,0,P|217:220|227:261,1,85.0991666666667,10|2,2:2|2:2,0:0:0:0:
151,263,46960,1,2,2:2:0:0:
301,242,47128,1,2,2:2:0:0:
378,236,47295,2,0,L|446:242,1,68.0793333333333,2|2,2:2|2:2,0:0:0:0:
358,383,47631,22,0,P|328:355|331:314,1,85.0991666666667,2|2,2:2|2:2,0:0:0:0:
343,305,47882,1,0,3:0:0:0:
415,332,47966,85,2,2:2:0:0:
378,236,48133,1,2,2:2:0:0:
341,140,48301,1,2,2:2:0:0:
439,20,48469,21,2,2:2:0:0:
464,93,48636,1,2,2:2:0:0:
388,78,48804,1,2,2:2:0:0:
236,48,48971,86,0,L|296:42,1,59.5694148508709,2|2,2:2|2:2,0:0:0:0:
451,118,49307,22,0,P|401:154|340:139,1,127.902333333334,6|0,2:2|0:0,0:0:0:0:
340,139,49642,1,2,2:2:0:0:
198,245,49809,86,0,B|191:184|191:184|195:173|195:173|187:106,1,140.692570946756,2|0,2:2|0:0,0:0:0:0:
177,113,50145,2,0,L|109:119,1,68.0793333333333,2|2,2:2|2:2,0:0:0:0:
20,15,50480,1,2,2:2:0:0:
53,18,50564,1,0,3:0:0:0:
72,52,50647,21,2,2:2:0:0:
48,165,50815,1,2,2:2:0:0:
24,278,50983,1,2,2:2:0:0:
119,371,51150,85,2,2:2:0:0:
99,297,51318,1,2,2:2:0:0:
172,316,51485,2,0,L|214:310,1,42.8031666666667,2|0,2:2|0:0,0:0:0:0:
440,282,51653,22,0,B|457:306|457:306|449:335,1,59.5694148508709,2|2,2:2|2:2,0:0:0:0:
282,377,51988,86,0,B|258:341|258:341|273:254,1,127.902333333334,10|0,2:2|0:0,0:0:0:0:
276,242,52323,1,2,2:2:0:0:
341,200,52491,21,2,2:2:0:0:
318,168,52575,1,0,0:0:0:0:
279,164,52659,1,2,2:2:0:0:
211,199,52826,85,2,2:2:0:0:
276,242,52994,1,2,2:2:0:0:
135,191,53161,1,2,2:2:0:0:
231,19,53329,22,0,P|257:51|249:92,1,85.0991666666667,2|2,2:2|2:2,0:0:0:0:
133,197,53664,2,0,L|48:206,1,85.0991666666667,2|2,2:2|2:2,0:0:0:0:
0,148,53999,85,2,2:2:0:0:
211,199,54167,1,2,2:2:0:0:
41,370,54335,2,0,P|15:338|23:298,1,85.0991666666667,2|2,2:2|2:2,0:0:0:0:
33,282,54586,1,0,0:0:0:0:
100,322,54670,22,0,L|227:330,1,127.902333333334,6|0,2:2|0:0,0:0:0:0:
286,281,55005,1,2,2:2:0:0:
449,335,55173,2,0,P|419:364|377:365,1,85.0991666666667,2|2,2:2|1:3,0:0:0:0:
214,255,55508,85,2,2:2:0:0:
286,281,55675,2,0,L|294:196,1,85.0991666666667,2|2,2:2|2:2,0:0:0:0:
297,179,55927,1,0,3:0:0:0:
230,142,56011,22,0,B|283:134|283:134|312:82|312:82|368:77,1,170.198333333334,2|2,2:2|2:2,0:0:0:0:
368,77,56513,1,2,2:2:0:0:
504,192,56681,85,0,1:0:0:0:
482,188,56765,1,0,0:0:0:0:
460,186,56849,1,2,2:2:0:0:
439,184,56932,1,0,0:0:0:0:
367,210,57016,22,0,L|362:253,1,42.8031666666667,10|0,2:2|0:0,0:0:0:0:
454,378,57184,2,0,L|449:335,1,42.8031666666667,2|0,2:2|0:0,0:0:0:0:
296,289,57351,70,0,B|211:277|253:333|154:317,1,140.692570946756,6|0,2:2|0:0,0:0:0:0:
115,258,57687,1,10,2:2:0:0:
0,302,57854,2,0,P|29:368|100:362,1,153.178495330811,2|2,2:2|2:2,0:0:0:0:
164,318,58357,37,10,2:2:0:0:
154,177,58525,1,2,2:2:0:0:
144,36,58692,69,2,2:2:0:0:
212,0,58860,37,10,2:2:0:0:
224,40,58944,1,4,2:3:0:0:
207,78,59027,1,2,2:2:0:0:
49,82,59195,70,0,B|38:52|38:52|58:18|110:7|144:36,1,153.178495330811,2|2,2:2|2:2,0:0:0:0:
207,78,59698,37,10,2:2:0:0:
347,95,59865,1,2,2:2:0:0:
512,38,60033,70,0,B|480:12|437:25|417:63|417:63|425:82|423:102,1,153.482795330811,6|0,2:2|0:0,0:0:0:0:
379,165,60368,1,10,2:2:0:0:
510,225,60536,38,0,P|494:187|456:171,1,85.0991666666667,2|0,2:2|0:0,0:0:0:0:
309,200,60871,1,2,2:2:0:0:
297,232,60955,1,0,1:0:0:0:
317,269,61039,1,10,2:2:0:0:
475,360,61206,69,2,2:2:0:0:
487,328,61290,1,0,0:0:0:0:
466,290,61374,6,0,L|405:295,1,59.9244315175375,10|8,2:2|1:3,0:0:0:0:
261,321,61541,2,0,B|253:350|253:350|266:377,1,59.9244315175375,6|0,2:2|1:0,0:0:0:0:
401,379,61709,5,2,2:2:0:0:
192,289,61876,2,0,B|131:295|131:295|120:305|120:305|49:313,1,140.692570946756,10|0,2:2|0:0,0:0:0:0:
44,320,62212,2,0,P|19:284|37:239,1,93.6090861867269,2|10,2:2|2:2,0:0:0:0:
154,177,62547,1,2,2:2:0:0:
116,178,62631,1,0,1:0:0:0:
88,152,62714,69,10,2:2:0:0:
63,23,62882,1,0,1:0:0:0:
34,241,63050,1,2,2:2:0:0:
237,157,63217,101,10,2:2:0:0:
19,116,63385,1,2,2:2:0:0:
92,325,63552,1,2,2:2:0:0:
312,144,63720,101,10,2:2:0:0:
172,383,63888,102,0,P|128:331|141:264,1,140.692570946756,6|0,2:2|0:0,0:0:0:0:
194,210,64223,70,0,B|221:212|221:212|228:217|228:217|268:222,1,64.2047524318696,10|0,2:2|0:0,0:0:0:0:
439,247,64390,22,0,B|479:268|479:268|438:286,1,89.5316306096396,10|0,2:2|0:0,0:0:0:0:
374,327,64726,70,0,L|348:310,1,32.4827512159348,8|0,2:2|0:0,0:0:0:0:
362,311,64809,2,0,L|340:286,1,32.4827512159348,8|0,2:3|0:0,0:0:0:0:
353,291,64893,2,0,L|338:261,1,32.4827512159348,4|0,2:3|0:0,0:0:0:0:
349,271,64977,2,0,L|342:239,1,32.4827512159348,0|0,1:0|0:0,0:0:0:0:
350,249,65061,2,0,L|352:216,1,32.4827512159348,8|0,2:2|0:0,0:0:0:0:
356,229,65145,2,0,L|366:198,1,32.4827512159348,2|0,3:0|0:0,0:0:0:0:
366,211,65228,2,0,L|383:184,1,32.4827512159348,2|0,3:0|0:0,0:0:0:0:
381,195,65312,2,0,L|405:173,1,32.4827512159348,2|0,0:3|0:0,0:0:0:0:
478,150,65396,102,0,P|404:154|359:96,1,153.482795330811,14|0,2:2|0:0,0:0:0:0:
363,71,65731,1,10,2:2:0:0:
270,204,65899,2,0,L|168:211,1,102.118996887207,2|0,2:2|0:0,0:0:0:0:
22,148,66234,101,2,2:2:0:0:
33,108,66318,1,0,0:0:0:0:
66,84,66402,1,10,2:2:0:0:
105,77,66485,1,0,3:0:0:0:
143,89,66569,2,0,P|159:109|163:134,1,51.3637984436036,2|0,2:2|0:0,0:0:0:0:
114,267,66737,5,2,2:2:0:0:
88,264,66821,1,0,0:0:0:0:
62,261,66904,1,2,2:2:0:0:
4,312,67072,1,10,2:2:0:0:
181,357,67240,101,2,2:2:0:0:
201,322,67323,1,0,0:0:0:0:
189,284,67407,1,0,0:0:0:0:
168,210,67575,1,2,2:2:0:0:
273,46,67742,6,0,L|358:41,1,85.0991666666667,10|2,2:2|2:2,0:0:0:0:
376,40,67994,1,0,0:0:0:0:
448,12,68078,102,0,B|496:40|504:88|472:128|472:128|444:108,1,153.482795330811,6|0,2:2|0:0,0:0:0:0:
448,108,68413,1,10,2:2:0:0:
301,238,68580,2,0,P|331:199|381:195,1,102.118996887207,2|0,2:2|0:0,0:0:0:0:
508,268,68916,5,2,2:2:0:0:
499,307,68999,1,0,0:0:0:0:
468,333,69083,1,10,2:2:0:0:
427,336,69167,1,0,3:0:0:0:
391,315,69251,2,0,P|375:295|372:271,1,51.3637984436036,2|0,2:2|0:0,0:0:0:0:
251,131,69418,102,0,P|245:151|231:167,1,42.8031666666667,2|0,2:2|0:0,0:0:0:0:
168,210,69586,1,2,2:2:0:0:
36,188,69754,1,10,2:2:0:0:
160,16,69921,6,0,L|167:101,1,85.0991666666667,2|2,2:2|2:2,0:0:0:0:
168,111,70173,1,0,0:0:0:0:
169,121,70256,1,2,2:2:0:0:
71,256,70424,101,10,2:2:0:0:
66,281,70508,1,0,0:0:0:0:
63,306,70592,1,2,2:2:0:0:
60,331,70675,1,0,0:0:0:0:
127,364,70759,6,0,B|175:357|175:357|205:315|205:315|271:308,1,153.482795330811,6|0,2:2|0:0,0:0:0:0:
273,320,71094,1,10,2:2:0:0:
485,313,71262,101,2,2:2:0:0:
463,347,71346,1,0,0:0:0:0:
425,362,71430,1,0,0:0:0:0:
384,356,71513,1,0,0:0:0:0:
349,334,71597,2,0,P|350:308|339:280,1,51.3637984436036,2|0,2:2|0:0,0:0:0:0:
252,123,71765,2,0,P|243:147|244:172,1,51.3637984436036,10|0,2:2|0:0,0:0:0:0:
374,214,71932,5,2,2:2:0:0:
399,212,72016,1,0,0:0:0:0:
426,188,72100,1,2,2:2:0:0:
385,25,72268,1,2,2:2:0:0:
252,123,72435,1,10,2:2:0:0:
507,182,72603,101,2,2:2:0:0:
505,156,72687,1,0,0:0:0:0:
481,129,72770,2,0,L|485:78,1,51.3637984436036
512,7,72938,5,2,2:2:0:0:
258,10,73106,2,0,B|231:53|231:53|245:102,1,102.118996887207,10|2,2:2|2:2,0:0:0:0:
252,123,73357,1,0,0:0:0:0:
190,167,73441,102,0,B|98:155|146:220|33:204,1,153.482795330811,2|0,2:2|0:0,0:0:0:0:
32,191,73776,1,10,2:2:0:0:
159,335,73944,2,0,B|186:292|186:292|172:243,1,102.118996887207,2|0,2:2|0:0,0:0:0:0:
190,167,74279,5,2,2:2:0:0:
62,306,74446,2,0,P|88:347|144:352,1,102.118996887207,10|2,2:2|2:2,0:0:0:0:
159,335,74698,1,0,0:0:0:0:
232,359,74782,101,2,2:2:0:0:
239,346,74865,1,0,0:0:0:0:
249,336,74949,1,2,2:2:0:0:
261,328,75033,1,0,0:0:0:0:
275,323,75117,1,10,2:2:0:0:
289,322,75201,1,0,3:2:0:0:
353,363,75284,6,0,P|363:340|364:315,1,51.3637984436036,2|0,2:2|0:0,0:0:0:0:
277,273,75620,102,0,P|278:298|289:322,1,51.3637984436036,2|0,2:2|1:0,0:0:0:0:
448,232,75787,6,0,L|347:240,1,102.118996887207,10|2,2:2|2:2,0:0:0:0:
330,218,76039,1,0,0:0:0:0:
296,149,76122,102,0,B|317:57|317:57|357:103,1,153.482795330811,10|0,2:2|0:0,0:0:0:0:
368,117,76457,1,10,2:2:0:0:
512,24,76625,2,0,L|410:31,1,102.118996887207,2|0,2:2|0:0,0:0:0:0:
330,218,76960,5,2,2:2:0:0:
289,226,77044,1,0,0:0:0:0:
250,211,77128,1,10,2:2:0:0:
225,178,77212,1,0,3:0:0:0:
220,137,77295,2,0,L|169:140,1,51.3637984436036,2|0,2:2|0:0,0:0:0:0:
32,148,77463,101,2,2:2:0:0:
23,118,77547,1,0,0:0:0:0:
28,87,77631,1,2,2:2:0:0:
81,30,77798,1,10,2:2:0:0:
227,55,77966,5,2,2:2:0:0:
223,96,78050,1,0,0:0:0:0:
220,137,78133,1,0,0:0:0:0:
296,149,78301,1,2,2:2:0:0:
448,232,78469,102,0,L|455:147,1,85.0991666666667,10|2,2:2|2:2,0:0:0:0:
457,125,78720,1,0,0:0:0:0:
400,75,78804,6,0,P|327:82|296:149,1,153.482795330811,6|0,2:2|0:0,0:0:0:0:
301,168,79139,1,10,2:2:0:0:
338,318,79307,2,0,L|439:308,1,102.118996887207,2|0,2:2|0:0,0:0:0:0:
243,226,79642,101,2,2:2:0:0:
266,259,79726,1,0,0:0:0:0:
264,299,79809,1,10,2:2:0:0:
241,332,79893,1,0,0:0:0:0:
202,344,79977,2,0,P|175:343|148:321,1,51.3637984436036,2|0,2:2|0:0,0:0:0:0:
16,191,80145,6,0,P|37:191|56:199,1,42.8031666666667,2|0,2:2|0:0,0:0:0:0:
108,256,80312,1,2,2:2:0:0:
16,368,80480,1,10,2:2:0:0:
132,184,80647,102,0,L|124:99,1,85.0991666666667,2|2,2:2|2:2,0:0:0:0:
124,86,80899,1,0,0:0:0:0:
124,73,80983,2,0,L|74:65,1,42.8031666666667,2|0,2:2|0:0,0:0:0:0:
195,11,81150,6,0,B|252:17|252:17|277:71|277:71|338:79,1,179.063261219278,10|0,2:2|0:0,0:0:0:0:
415,71,81485,101,6,2:2:0:0:
309,145,81653,1,2,2:2:0:0:
195,11,81821,1,10,2:2:0:0:
487,149,81988,6,0,L|386:141,1,102.118996887207,2|0,2:2|0:0,0:0:0:0:
263,207,82323,2,0,B|241:253|241:253|264:299,1,102.118996887207,2|10,2:2|2:2,0:0:0:0:
458,369,82659,2,0,L|463:318,1,51.3637984436036,2|0,2:2|0:0,0:0:0:0:
473,240,82826,101,2,2:2:0:0:
397,247,82994,1,2,2:2:0:0:
310,360,83161,1,10,2:2:0:0:
458,369,83329,1,2,2:2:0:0:
264,299,83497,5,0,0:0:0:0:
223,303,83580,1,0,0:0:0:0:
182,307,83664,1,2,2:2:0:0:
141,311,83748,1,0,0:0:0:0:
99,314,83832,2,0,P|54:266|114:238,1,153.482795330811,10|0,2:2|0:0,0:0:0:0:
185,208,84167,102,0,B|175:147|175:147|141:124|141:124|126:48,1,170.198333333334,2|10,2:2|2:2,0:0:0:0:
256,7,84670,2,0,L|251:91,1,85.0991666666667,2|0,2:2|0:0,0:0:0:0:
288,164,84921,1,0,0:0:0:0:
288,164,85005,6,0,P|312:168|336:160,1,42.8031666666667,2|0,2:2|0:0,0:0:0:0:
387,112,85173,2,0,P|400:94|405:74,1,42.8031666666667,10|0,2:2|0:0,0:0:0:0:
368,8,85340,1,2,2:2:0:0:
508,265,85508,101,2,2:2:0:0:
507,223,85592,1,0,0:0:0:0:
481,192,85675,1,2,2:2:0:0:
442,178,85759,1,0,0:0:0:0:
403,188,85843,2,0,L|392:249,1,51.3637984436036,10|0,2:2|0:0,0:0:0:0:
495,349,86011,6,0,L|508:265,1,85.0991666666667,2|2,2:2|2:2,0:0:0:0:
319,224,86346,101,2,2:2:0:0:
277,216,86430,1,0,1:0:0:0:
245,244,86513,1,10,2:2:0:0:
240,286,86597,1,0,0:0:0:0:
208,314,86681,1,2,2:2:0:0:
166,306,86765,1,0,0:0:0:0:
126,243,86849,102,0,P|59:254|37:342,1,153.482795330811,10|0,2:2|0:0,0:0:0:0:
37,344,87184,1,10,2:2:0:0:
7,117,87351,6,0,P|35:157|84:165,1,102.118996887207,2|10,2:2|2:2,0:0:0:0:
154,132,87687,1,2,2:2:0:0:
175,97,87770,1,0,0:0:0:0:
171,61,87854,1,10,2:2:0:0:
256,12,88022,102,0,L|320:16,1,51.3637984436036,2|0,2:2|0:0,0:0:0:0:
383,23,88189,1,10,2:2:0:0:
461,31,88357,5,2,2:2:0:0:
171,61,88525,1,10,2:2:0:0:
320,192,88692,1,2,2:2:0:0:
321,176,88776,1,0,0:0:0:0:
322,160,88860,1,10,2:2:0:0:
370,100,89027,101,2,2:2:0:0:
355,260,89195,1,10,2:2:0:0:
347,337,89363,2,0,L|397:341,1,51.3637984436036,2|0,2:2|0:0,0:0:0:0:
505,242,89530,5,10,2:2:0:0:
284,294,89698,1,2,2:2:0:0:
474,348,89865,1,2,2:2:0:0:
167,325,90033,101,10,2:2:0:0:
355,260,90201,1,2,2:2:0:0:
100,216,90368,1,2,2:2:0:0:
265,17,90536,5,10,2:2:0:0:
1,247,90703,6,0,P|25:254|44:272,1,51.3637984436036,2|0,2:2|1:0,0:0:0:0:
100,216,90871,2,0,L|96:156,1,59.5187,6|0,2:2|0:0,0:0:0:0:
68,75,91541,38,0,B|32:55|32:55|-12:67|-32:131|8:171,1,178.708244552612,0|2,0:0|2:2,0:0:0:0:
22,176,92128,1,0,1:0:0:0:
96,156,92212,5,14,2:2:0:0:
160,66,92379,1,2,2:2:0:0:
111,7,92547,1,2,2:2:0:0:
207,128,92714,70,0,L|333:116,1,127.902333333334,10|0,2:2|0:0,0:0:0:0:
348,130,93050,1,2,2:2:0:0:
465,0,93217,2,0,P|423:3|398:36,1,85.0991666666667,10|2,2:2|2:2,0:0:0:0:
394,53,93469,1,0,1:0:0:0:
423,125,93552,37,14,2:2:0:0:
473,223,93720,1,2,2:2:0:0:
384,300,93888,2,0,L|299:307,1,85.0991666666667,2|10,2:2|2:2,0:0:0:0:
272,160,94139,1,0,0:0:0:0:
268,152,94223,2,0,L|183:144,1,85.0991666666667,2|2,2:2|2:2,0:0:0:0:
12,269,94558,70,0,B|56:261|56:261|84:213|84:213|136:204,1,153.482795330811,10|0,2:2|0:0,0:0:0:0:
156,216,94893,37,14,2:2:0:0:
244,360,95061,1,2,2:2:0:0:
400,296,95228,1,2,2:2:0:0:
464,336,95396,69,10,2:2:0:0:
336,256,95564,1,2,2:2:0:0:
469,185,95731,1,2,2:2:0:0:
333,357,95899,38,0,L|248:364,1,85.0991666666667,10|2,2:2|2:2,0:0:0:0:
116,332,96150,1,0,0:0:0:0:
112,320,96234,70,0,B|148:300|148:300|156:216,1,127.902333333334,14|0,2:2|0:0,0:0:0:0:
112,152,96569,2,0,L|27:145,1,85.0991666666667,2|10,1:2|2:2,0:0:0:0:
148,8,96821,1,0,0:0:0:0:
160,16,96904,2,0,B|180:52|180:52|165:93,1,85.0991666666667,2|2,2:2|2:2,0:0:0:0:
234,264,97240,6,0,L|335:255,1,102.321866666666,10|0,2:2|1:0,0:0:0:0:
352,240,97575,38,0,P|386:303|345:363,3,153.026345330811,10|2|2|2,2:2|2:2|2:2|2:2,0:0:0:0:
352,240,98832,2,0,P|346:226|344:208,1,19.4896494163513,0|0,3:0|0:0,0:0:0:0:
352,202,98916,53,10,2:2:0:0:
460,213,99083,1,2,2:2:0:0:
502,147,99251,2,0,L|494:70,1,76.5892476654053,2|2,2:2|2:2,0:0:0:0:
445,11,99586,37,2,2:2:0:0:
337,22,99754,1,2,2:2:0:0:
288,82,99921,85,2,2:2:0:0:
212,71,100089,1,2,2:2:0:0:
48,42,100256,38,0,B|150:27|150:27|134:46|136:81,1,140.692570946756,10|0,2:2|0:0,0:0:0:0:
135,76,100592,85,2,2:2:0:0:
212,71,100759,1,2,2:2:0:0:
76,128,100927,69,2,2:2:0:0:
112,272,101094,1,2,2:2:0:0:
218,168,101262,101,2,2:2:0:0:
96,348,101430,1,2,2:2:0:0:
168,324,101597,101,10,2:2:0:0:
187,304,101681,1,0,0:0:0:0:
214,297,101765,1,2,2:2:0:0:
240,304,101849,1,0,0:0:0:0:
296,356,101932,5,2,2:2:0:0:
333,353,102016,1,2,2:2:0:0:
370,350,102100,1,2,2:2:0:0:
407,347,102184,1,2,2:2:0:0:
461,292,102268,85,2,2:2:0:0:
476,273,102351,5,2,2:2:0:0:
491,243,102435,5,2,2:2:0:0:
499,202,102519,37,2,2:2:0:0:
489,153,102603,21,2,2:2:0:0:
456,103,102687,69,2,2:2:0:0:
395,71,102770,21,2,2:2:0:0:
318,79,102854,69,2,2:2:0:0:
290,103,102938,38,0,P|273:73|276:40,1,68.0793333333333,10|2,2:2|2:2,0:0:0:0:
413,168,103273,1,2,2:2:0:0:
349,212,103441,2,0,L|281:208,1,68.0793333333333,2|0,2:2|1:0,0:0:0:0:
208,234,103776,1,2,2:2:0:0:
265,285,103944,85,2,2:2:0:0:
223,158,104111,1,2,2:2:0:0:
134,257,104279,21,2,2:2:0:0:
79,310,104446,1,2,2:2:0:0:
60,289,104530,1,2,2:3:0:0:
58,261,104614,1,2,2:2:0:0:
94,191,104782,86,0,L|90:123,1,68.0793333333333,2|0,2:2|1:0,0:0:0:0:
1,17,105117,1,2,2:2:0:0:
8,42,105201,1,2,2:3:0:0:
36,56,105284,22,0,P|57:54|75:42,1,42.8031666666667,2|0,2:2|0:0,0:0:0:0:
186,7,105452,2,0,L|189:53,1,42.8031666666667,2|0,2:2|0:0,0:0:0:0:
228,128,105620,86,0,L|100:119,1,127.902333333334,2|0,2:2|0:0,0:0:0:0:
90,123,105955,1,2,2:2:0:0:
15,191,106122,2,0,L|19:259,1,68.0793333333333,2|0,2:2|1:0,0:0:0:0:
24,337,106457,1,2,2:2:0:0:
165,289,106625,1,2,2:2:0:0:
19,259,106793,1,2,2:2:0:0:
130,357,106960,21,2,2:2:0:0:
165,289,107128,1,2,2:2:0:0:
188,275,107212,1,2,2:3:0:0:
220,282,107295,1,2,2:2:0:0:
279,331,107463,85,2,2:2:0:0:
292,255,107631,1,2,2:2:0:0:
207,358,107798,21,2,2:2:0:0:
279,331,107966,2,0,L|346:336,1,68.0793333333333,2|2,2:2|2:2,0:0:0:0:
493,324,108301,86,0,L|425:318,1,68.0793333333333,2|2,2:2|2:2,0:0:0:0:
292,255,108636,2,0,P|283:222|296:192,1,68.0793333333333,2|2,2:2|2:2,0:0:0:0:
372,202,108888,1,0,0:0:0:0:
372,202,108971,2,0,P|381:234|368:265,1,68.0793333333333,0|2,1:0|2:2,0:0:0:0:
279,331,109307,21,2,2:2:0:0:
425,318,109474,1,2,2:2:0:0:
489,276,109642,86,0,B|493:165|436:233|448:114,1,170.198333333334,2|2,2:2|2:2,0:0:0:0:
451,41,110145,22,0,B|481:-1|481:-1|484:49,1,102.118996887207,2|2,2:2|2:2,0:0:0:0:
447,118,110647,85,2,2:2:0:0:
447,118,110815,1,2,2:2:0:0:
340,122,110983,22,0,P|353:92|383:76,2,68.0793333333334,2|2|2,2:2|2:2|2:2,0:0:0:0:
313,195,111485,85,2,2:2:0:0:
283,186,111569,1,0,0:0:0:0:
268,151,111653,1,0,1:0:0:0:
383,76,111821,21,2,2:2:0:0:
492,222,111988,86,0,P|470:164|411:147,1,127.902333333334,2|0,2:2|0:0,0:0:0:0:
313,195,112323,22,0,L|237:202,1,76.5892476654053,2|2,2:2|2:2,0:0:0:0:
132,159,112659,1,2,2:2:0:0:
182,290,112826,53,2,2:2:0:0:
185,276,112910,1,0,0:0:0:0:
188,262,112994,1,2,2:2:0:0:
236,202,113161,101,2,2:2:0:0:
56,166,113329,2,0,L|132:159,1,76.5892476654053,10|2,2:2|2:2,0:0:0:0:
203,131,113664,86,0,P|216:71|175:22,1,127.902333333334,6|0,2:2|0:0,0:0:0:0:
100,5,113999,2,0,P|60:16|36:50,1,85.0991666666667,10|2,2:2|2:2,0:0:0:0:
48,160,114335,37,0,1:0:0:0:
31,235,114502,2,0,L|107:227,1,76.5892476654053,2|2,2:2|2:2,0:0:0:0:
246,333,114837,70,0,B|230:379|178:393|140:367|140:367|128:346,1,153.482795330811,10|0,2:2|0:0,0:0:0:0:
126,329,115173,1,2,2:2:0:0:
179,183,115340,38,0,P|187:219|174:255,1,76.5892476654053,10|2,2:2|2:2,0:0:0:0:
60,359,115592,1,0,0:0:0:0:
60,359,115675,2,0,P|88:334|126:329,1,76.5892476654053,0|2,1:0|2:2,0:0:0:0:
22,124,116011,2,0,P|38:195|109:213,1,153.482795330811,10|0,2:2|0:0,0:0:0:0:
179,183,116346,70,0,B|174:126|174:126|168:118|168:118|163:57,1,127.902333333334,6|0,2:2|0:0,0:0:0:0:
161,41,116681,1,10,2:2:0:0:
92,4,116849,1,2,2:2:0:0:
95,81,117016,1,0,1:0:0:0:
253,136,117184,2,0,L|260:52,1,85.0991666666667,2|2,2:2|2:2,0:0:0:0:
483,50,117519,38,0,B|398:33|398:33|363:48|374:94,1,153.482795330811,10|0,2:2|0:0,0:0:0:0:
381,108,117854,1,2,2:2:0:0:
496,192,118022,69,10,2:2:0:0:
421,173,118189,1,2,2:2:0:0:
389,186,118273,1,0,0:0:0:0:
381,214,118357,1,2,2:2:0:0:
411,285,118525,1,2,2:2:0:0:
238,359,118692,2,0,P|263:290|335:276,1,153.482795330811,10|0,2:2|0:0,0:0:0:0:
411,285,119027,102,0,P|434:335|380:340,1,127.902333333334,10|0,2:2|0:0,0:0:0:0:
335,276,119363,53,10,2:2:0:0:
381,214,119530,1,2,2:2:0:0:
296,84,119698,53,2,2:2:0:0:
305,204,119865,1,2,2:2:0:0:
411,285,120033,2,0,L|495:291,1,85.0991666666667,10|2,2:2|2:2,0:0:0:0:
305,204,120368,54,0,L|221:198,1,85.0991666666667,2|2,2:2|2:2,0:0:0:0:
220,197,120703,1,10,2:2:0:0:
63,207,120871,54,0,B|143:193|143:193|143:169|162:146,1,127.902333333334,2|0,2:2|0:0,0:0:0:0:
220,197,121206,1,2,2:2:0:0:
102,21,121374,2,0,L|96:106,1,85.0991666666667,10|2,2:2|2:2,0:0:0:0:
63,207,121709,53,6,2:2:0:0:
230,121,121876,1,2,2:2:0:0:
220,308,122044,1,10,2:2:0:0:
158,352,122212,53,2,2:2:0:0:
139,324,122295,1,0,0:0:0:0:
147,282,122379,1,10,2:2:0:0:
339,318,122547,54,0,L|297:314,1,42.8031666666667,2|0,2:2|1:0,0:0:0:0:
220,308,122714,1,10,2:2:0:0:
32,292,122882,54,0,L|147:282,1,115.112096498108,2|0,2:2|0:0,0:0:0:0:
220,308,123217,1,2,2:2:0:0:
305,204,123385,1,14,2:2:0:0:
256,56,123552,53,2,2:2:0:0:
281,90,123636,1,0,0:0:0:0:
319,93,123720,1,10,2:2:0:0:
373,38,123888,1,10,2:2:0:0:
487,145,124055,101,6,2:2:0:0:
466,114,124139,1,0,0:0:0:0:
430,102,124223,1,2,2:2:0:0:
393,113,124307,1,0,0:0:0:0:
339,167,124390,54,0,B|319:205|319:205|333:244,1,85.0991666666667,10|2,2:2|2:2,0:0:0:0:
407,212,124726,1,2,2:2:0:0:
244,200,124893,1,2,2:2:0:0:
168,192,125061,2,0,L|83:202,1,85.0991666666667,2|2,2:2|2:2,0:0:0:0:
210,23,125396,22,0,B|230:61|230:61|216:100,1,85.0991666666667,2|2,2:2|2:2,0:0:0:0:
208,116,125647,1,0,3:0:0:0:
148,72,125731,85,2,2:2:0:0:
168,192,125899,1,2,2:2:0:0:
188,312,126066,1,2,2:2:0:0:
43,355,126234,21,2,2:2:0:0:
59,279,126402,1,2,2:2:0:0:
115,331,126569,1,2,2:2:0:0:
260,287,126737,86,0,P|293:286|326:259,1,68.0793333333333,2|2,2:2|2:2,0:0:0:0:
485,343,127072,22,0,P|453:291|392:293,1,127.902333333334,6|0,2:2|0:0,0:0:0:0:
392,293,127407,1,2,2:2:0:0:
268,214,127575,86,0,B|239:180|259:144|259:144|289:128|331:160,1,140.692570946756,2|0,2:2|0:0,0:0:0:0:
385,192,127910,2,0,P|398:155|390:119,1,76.5892476654053,2|2,2:2|2:2,0:0:0:0:
492,24,128245,1,2,2:2:0:0:
481,56,128329,1,0,3:0:0:0:
444,65,128413,21,2,2:2:0:0:
276,52,128580,1,2,2:2:0:0:
108,39,128748,1,2,2:2:0:0:
36,192,128916,85,2,2:2:0:0:
162,114,129083,1,2,2:2:0:0:
32,44,129251,2,0,L|29:82,1,38.5228488327027,2|0,2:2|0:0,0:0:0:0:
11,263,129418,22,0,P|45:268|77:256,1,68.0793333333333,2|2,2:2|2:2,0:0:0:0:
268,214,129754,86,0,L|260:341,1,127.902333333334,10|0,2:2|0:0,0:0:0:0:
268,356,130089,1,2,2:2:0:0:
340,380,130256,21,2,2:2:0:0:
360,353,130340,1,0,0:0:0:0:
346,312,130424,1,2,2:2:0:0:
221,275,130592,85,2,2:2:0:0:
268,356,130759,1,2,2:2:0:0:
358,236,130927,1,2,2:2:0:0:
154,238,131094,22,0,B|140:277|140:277|156:316,1,85.0991666666667,2|2,2:2|2:2,0:0:0:0:
288,170,131430,2,0,L|204:180,1,85.0991666666667,2|2,2:2|2:2,0:0:0:0:
36,192,131765,85,2,2:2:0:0:
221,275,131932,1,2,2:2:0:0:
154,43,132100,2,0,B|168:82|168:82|152:123,1,85.0991666666667,2|2,2:2|2:2,0:0:0:0:
141,137,132351,1,0,0:0:0:0:
203,180,132435,22,0,L|330:189,1,127.902333333334,6|0,2:2|0:0,0:0:0:0:
390,236,132770,1,2,2:2:0:0:
427,85,132938,2,0,P|385:86|357:117,1,85.0991666666667,2|2,2:2|1:3,0:0:0:0:
320,265,133273,85,2,2:2:0:0:
250,295,133441,2,0,L|165:287,1,85.0991666666667,2|2,2:2|2:2,0:0:0:0:
147,293,133692,1,0,3:0:0:0:
81,331,133776,22,0,B|61:302|69:258|94:238|94:238|65:218|23:252,1,170.198333333334,2|2,2:2|2:2,0:0:0:0:
31,245,134279,1,2,2:2:0:0:
147,293,134446,85,0,1:0:0:0:
169,267,134530,1,0,0:0:0:0:
203,262,134614,1,2,2:2:0:0:
234,275,134698,1,0,0:0:0:0:
281,335,134782,22,0,P|273:355|257:371,1,42.8031666666667,10|0,2:2|0:0,0:0:0:0:
174,170,134949,2,0,P|180:149|194:134,1,42.8031666666667,2|0,2:2|0:0,0:0:0:0:
344,117,135117,70,0,P|316:178|249:187,1,140.692570946756,6|0,2:2|0:0,0:0:0:0:
194,134,135452,1,10,2:2:0:0:
31,167,135620,2,0,B|18:148|18:148|18:108|86:80|119:117,1,153.178495330811,2|2,2:2|2:2,0:0:0:0:
174,170,136122,37,10,2:2:0:0:
325,192,136290,1,2,2:2:0:0:
476,214,136457,69,6,2:2:0:0:
490,289,136625,37,10,2:2:0:0:
454,291,136709,1,4,2:3:0:0:
420,265,136793,1,2,2:2:0:0:
425,88,136960,70,0,B|466:106|466:106|476:214,1,153.178495330811,2|2,2:2|2:2,0:0:0:0:
420,265,137463,37,10,2:2:0:0:
234,275,137631,1,2,2:2:0:0:
48,285,137798,70,0,B|61:289|61:289|70:299|70:299|112:300|141:241|93:185,1,153.482795330811,10|0,2:2|0:0,0:0:0:0:
40,163,138133,1,10,2:2:0:0:
160,69,138301,38,0,P|143:107|105:125,1,85.0991666666667,2|0,2:2|0:0,0:0:0:0:
0,227,138636,1,2,2:2:0:0:
5,269,138720,1,0,1:0:0:0:
48,285,138804,1,10,2:2:0:0:
221,350,138971,69,2,2:2:0:0:
249,319,139055,1,0,0:0:0:0:
234,275,139139,6,0,L|175:283,1,59.9244315175375,10|8,2:2|1:3,0:0:0:0:
40,163,139307,2,0,B|29:134|29:134|40:107,1,59.9244315175375,6|0,2:2|1:0,0:0:0:0:
68,35,139474,5,2,2:2:0:0:
256,16,139642,2,0,L|243:155,1,140.692570946756,10|0,2:2|0:0,0:0:0:0:
255,167,139977,2,0,P|300:179|338:155,1,93.6090861867269,2|10,2:2|2:2,0:0:0:0:
456,138,140312,101,2,2:2:0:0:
419,138,140396,1,0,1:0:0:0:
396,104,140480,85,10,2:2:0:0:
512,191,140647,1,0,1:0:0:0:
338,155,140815,1,2,2:2:0:0:
456,22,140983,101,10,2:2:0:0:
350,231,141150,1,2,2:2:0:0:
456,138,141318,1,2,2:2:0:0:
477,376,141485,101,10,2:2:0:0:
235,217,141653,70,0,P|270:159|338:155,1,140.692570946756,6|0,2:2|0:0,0:0:0:0:
373,233,141988,70,0,B|345:232|345:232|341:229|341:229|311:227,1,64.2047524318696,10|0,2:2|0:0,0:0:0:0:
158,218,142156,102,0,L|164:277,1,59.5694148508709,10|2,2:2|2:2,0:0:0:0:
168,296,142407,1,0,0:0:0:0:
122,358,142491,102,0,L|98:378,1,32.4827512159348,10|0,2:2|0:0,0:0:0:0:
97,359,142575,2,0,L|70:376,1,32.4827512159348,10|0,2:2|0:0,0:0:0:0:
73,353,142659,2,0,L|43:365,1,32.4827512159348,6|0,2:2|0:0,0:0:0:0:
52,338,142742,2,0,L|20:344,1,32.4827512159348,2|0,2:2|0:0,0:0:0:0:
38,317,142826,2,0,L|6:318,1,32.4827512159348,10|0,2:2|0:0,0:0:0:0:
32,292,142910,2,0,L|0:287,1,32.4827512159348,2|0,3:2|0:0,0:0:0:0:
34,267,142994,2,0,L|3:257,1,32.4827512159348,2|0,2:2|0:0,0:0:0:0:
45,244,143078,2,0,L|16:229,1,32.4827512159348,2|0,2:2|0:0,0:0:0:0:
94,178,143161,6,0,L|246:193,1,153.482795330811,14|0,2:2|0:0,0:0:0:0:
264,208,143497,1,10,2:2:0:0:
396,104,143664,2,0,P|409:56|383:14,1,102.118996887207,2|0,2:2|0:0,0:0:0:0:
334,177,143999,5,2,2:2:0:0:
352,213,144083,1,0,0:0:0:0:
388,232,144167,1,10,2:2:0:0:
428,229,144251,1,0,3:0:0:0:
464,209,144335,2,0,P|473:186|471:161,1,51.3637984436036,2|0,2:2|0:0,0:0:0:0:
320,102,144502,101,2,2:2:0:0:
284,96,144586,1,0,0:0:0:0:
248,90,144670,1,2,2:2:0:0:
192,37,144837,1,10,2:2:0:0:
401,26,145005,5,2,2:2:0:0:
413,66,145089,1,0,0:0:0:0:
396,104,145173,1,0,0:0:0:0:
334,177,145340,1,2,2:2:0:0:
496,311,145508,102,0,L|412:305,1,85.0991666666667,10|2,2:2|2:2,0:0:0:0:
397,302,145759,1,0,0:0:0:0:
336,347,145843,6,0,P|271:310|260:237,1,153.482795330811,6|0,2:2|0:0,0:0:0:0:
264,208,146178,1,10,2:2:0:0:
174,344,146346,2,0,L|73:353,1,102.118996887207,2|0,2:2|0:0,0:0:0:0:
50,171,146681,101,2,2:2:0:0:
86,151,146765,1,0,0:0:0:0:
126,156,146849,1,10,2:2:0:0:
155,183,146932,1,0,3:0:0:0:
169,221,147016,2,0,P|170:246|160:269,1,51.3637984436036,2|0,2:2|0:0,0:0:0:0:
73,353,147184,6,0,P|66:332|69:311,1,42.8031666666667,2|0,2:2|0:0,0:0:0:0:
32,245,147351,1,2,2:2:0:0:
160,269,147519,1,10,2:2:0:0:
256,144,147687,102,0,L|256:59,1,85.0991666666667,2|2,2:2|2:2,0:0:0:0:
256,46,147938,1,0,0:0:0:0:
256,33,148022,1,2,2:2:0:0:
80,0,148189,5,10,2:2:0:0:
56,18,148273,1,0,0:0:0:0:
44,45,148357,1,2,2:2:0:0:
47,74,148441,1,0,0:0:0:0:
0,134,148525,102,0,B|51:125|51:125|95:146|95:146|162:136,1,153.482795330811,6|0,2:2|0:0,0:0:0:0:
157,122,148860,1,10,2:2:0:0:
319,188,149027,5,2,2:2:0:0:
358,197,149111,1,0,0:0:0:0:
398,189,149195,1,0,0:0:0:0:
426,159,149279,1,0,0:0:0:0:
432,118,149363,2,0,P|424:93|406:76,1,51.3637984436036,2|0,2:2|0:0,0:0:0:0:
256,59,149530,2,0,P|237:76|230:100,1,51.3637984436036,10|0,2:2|0:0,0:0:0:0:
288,258,149698,101,2,2:2:0:0:
257,254,149782,1,0,0:0:0:0:
216,250,149865,1,2,2:2:0:0:
102,318,150033,1,2,2:2:0:0:
325,342,150201,1,10,2:2:0:0:
48,187,150368,5,2,2:2:0:0:
74,189,150452,1,0,0:0:0:0:
101,213,150536,2,0,L|152:209,1,51.3637984436036
218,173,150703,101,2,2:2:0:0:
325,342,150871,2,0,L|426:349,1,102.118996887207,10|2,2:2|2:2,0:0:0:0:
449,351,151122,1,0,0:0:0:0:
482,282,151206,6,0,B|437:264|437:264|420:208|420:208|377:190,1,153.482795330811,2|0,2:2|0:0,0:0:0:0:
360,198,151541,1,10,2:2:0:0:
507,83,151709,2,0,L|406:76,1,102.118996887207,2|0,2:2|0:0,0:0:0:0:
372,7,152044,101,2,2:2:0:0:
263,216,152212,2,0,P|249:168|268:122,1,102.118996887207,10|2,2:2|2:2,0:0:0:0:
312,54,152463,1,0,0:0:0:0:
325,129,152547,5,2,2:2:0:0:
306,133,152631,1,0,0:0:0:0:
286,131,152714,1,2,2:2:0:0:
268,122,152798,1,0,0:0:0:0:
254,107,152882,1,10,2:2:0:0:
246,88,152966,1,0,3:0:0:0:
199,29,153050,102,0,P|180:46|172:71,1,51.3637984436036,2|0,2:2|0:0,0:0:0:0:
218,129,153385,6,0,P|236:111|246:87,1,51.3637984436036,2|0,2:2|1:0,0:0:0:0:
108,0,153552,102,0,B|85:24|85:24|91:92,1,102.118996887207,10|2,2:2|2:2,0:0:0:0:
93,111,153804,1,0,0:0:0:0:
150,164,153888,6,0,B|150:261|95:206|95:311,1,153.482795330811,10|0,2:2|0:0,0:0:0:0:
93,318,154223,1,10,2:2:0:0:
227,366,154390,2,0,B|217:317|217:317|173:291,1,102.118996887207,2|0,2:2|0:0,0:0:0:0:
218,129,154726,101,2,2:2:0:0:
255,113,154809,1,0,0:0:0:0:
295,120,154893,1,10,2:2:0:0:
321,151,154977,1,0,3:0:0:0:
327,191,155061,2,0,P|341:211|363:223,1,51.3637984436036,2|0,2:2|0:0,0:0:0:0:
480,176,155228,5,2,2:2:0:0:
484,135,155312,1,0,0:0:0:0:
488,94,155396,1,2,2:2:0:0:
438,35,155564,1,10,2:2:0:0:
495,266,155731,101,2,2:2:0:0:
460,264,155815,1,0,0:0:0:0:
437,238,155899,1,0,0:0:0:0:
340,296,156066,1,2,2:2:0:0:
211,213,156234,6,0,L|218:129,1,85.0991666666667,10|2,2:2|2:2,0:0:0:0:
219,107,156485,1,0,0:0:0:0:
209,30,156569,102,0,P|136:31|99:94,1,153.482795330811,6|0,2:2|0:0,0:0:0:0:
109,116,156904,1,10,2:2:0:0:
286,221,157072,2,0,L|295:120,1,102.118996887207,2|0,2:2|0:0,0:0:0:0:
410,22,157407,5,2,2:2:0:0:
450,27,157491,1,0,0:0:0:0:
478,55,157575,1,10,2:2:0:0:
488,94,157659,1,0,3:0:0:0:
473,130,157742,2,0,P|449:138|423:137,1,51.3637984436036,2|0,2:2|0:0,0:0:0:0:
286,221,157910,102,0,P|307:218|327:224,1,42.8031666666667,2|0,2:2|0:0,0:0:0:0:
391,266,158078,1,2,2:2:0:0:
423,137,158245,1,10,2:2:0:0:
324,300,158413,6,0,L|240:307,1,85.0991666666667,2|2,2:2|2:2,0:0:0:0:
227,302,158664,1,0,0:0:0:0:
214,297,158748,2,0,L|207:339,1,42.8031666666667,2|0,2:2|0:0,0:0:0:0:
29,316,158916,102,0,B|32:258|110:235|140:274|140:274|136:288|137:303,1,179.063261219278,10|0,2:2|0:0,0:0:0:0:
144,381,159251,5,6,2:2:0:0:
286,221,159418,1,2,2:2:0:0:
76,178,159586,1,10,2:2:0:0:
13,19,159754,102,0,B|31:29|31:29|41:110,1,102.118996887207,2|0,2:2|0:0,0:0:0:0:
76,178,160089,5,2,2:2:0:0:
263,148,160256,1,10,2:2:0:0:
388,343,160424,2,0,L|438:347,1,51.3637984436036,2|0,2:2|0:0,0:0:0:0:
501,305,160592,102,0,P|511:255|486:212,1,102.118996887207,2|2,2:2|2:2,0:0:0:0:
311,350,160927,2,0,P|286:307|295:258,1,102.118996887207,10|2,2:2|2:2,0:0:0:0:
433,158,161262,5,0,0:0:0:0:
392,149,161346,1,0,0:0:0:0:
369,115,161430,1,2,2:2:0:0:
368,74,161513,1,0,0:0:0:0:
390,38,161597,2,0,P|462:40|489:107,1,153.482795330811,10|0,2:2|0:0,0:0:0:0:
412,232,161932,102,0,B|367:208|332:235|332:235|309:286|246:277,1,170.198333333334,2|10,2:2|2:2,0:0:0:0:
80,212,162435,2,0,P|67:172|83:134,1,85.0991666666667,2|0,2:2|0:0,0:0:0:0:
131,75,162687,1,0,0:0:0:0:
131,76,162770,6,0,P|149:66|170:66,1,42.8031666666667,2|0,2:2|0:0,0:0:0:0:
241,97,162938,2,0,P|258:108|269:126,1,42.8031666666667,10|0,2:2|0:0,0:0:0:0:
265,203,163106,1,2,2:2:0:0:
470,144,163273,101,2,2:2:0:0:
436,165,163357,1,0,0:0:0:0:
396,165,163441,1,2,2:2:0:0:
359,149,163525,1,0,0:0:0:0:
344,112,163608,2,0,L|350:56,1,51.3637984436036,10|0,2:2|0:0,0:0:0:0:
478,59,163776,6,0,L|470:144,1,85.0991666666667,2|2,2:2|2:2,0:0:0:0:
283,158,164111,101,2,2:2:0:0:
240,164,164195,1,0,1:0:0:0:
210,133,164279,1,10,2:2:0:0:
205,90,164363,1,0,0:0:0:0:
175,59,164446,1,2,2:2:0:0:
132,65,164530,1,0,3:0:0:0:
98,134,164614,102,0,P|29:108|12:37,1,153.482795330811,10|0,2:2|0:0,0:0:0:0:
24,20,164949,1,10,2:2:0:0:
155,185,165117,6,0,P|146:233|105:261,1,102.118996887207,2|10,2:2|2:2,0:0:0:0:
36,230,165452,1,2,2:2:0:0:
25,264,165536,1,0,0:0:0:0:
38,296,165620,1,10,2:2:0:0:
185,353,165787,102,0,L|235:346,1,51.3637984436036,2|0,2:2|0:0,0:0:0:0:
311,350,165955,1,10,2:2:0:0:
112,373,166122,5,2,2:2:0:0:
210,133,166290,1,10,2:2:0:0:
277,281,166457,1,2,2:2:0:0:
280,260,166541,1,0,0:0:0:0:
283,239,166625,1,10,2:2:0:0:
301,165,166793,101,2,2:2:0:0:
136,146,166960,1,10,2:2:0:0:
61,136,167128,2,0,L|52:80,1,51.3637984436036,2|0,2:2|0:0,0:0:0:0:
110,33,167295,5,10,2:2:0:0:
24,203,167463,1,2,2:2:0:0:
210,133,167631,1,2,2:2:0:0:
311,350,167798,101,10,2:2:0:0:
183,204,167966,1,2,2:2:0:0:
395,241,168133,1,2,2:2:0:0:
479,65,168301,6,0,L|486:-6,1,64.2047524318696,10|0,2:2|0:0,0:0:0:0:
216,69,168469,2,0,L|210:133,1,64.2047524318696,2|0,2:2|1:0,0:0:0:0:
258,193,168636,101,6,2:2:0:0:
469,259,168804,1,10,2:2:0:0:
417,336,168971,6,0,B|400:317|400:317|395:241,1,102.118996887207,2|2,2:2|2:2,0:0:0:0:
448,185,169223,1,0,0:0:0:0:
375,167,169307,5,10,2:2:0:0:
373,155,169390,1,4,3:3:0:0:
372,144,169474,1,6,2:2:0:0:
371,133,169558,1,4,3:3:0:0:
395,59,169642,38,0,P|362:6|337:63,1,153.482795330811,14|0,2:2|0:0,0:0:0:0:
371,133,169977,101,14,2:2:0:0:
355,138,170061,1,0,2:0:0:0:
338,140,170145,1,2,2:3:0:0:
320,138,170228,1,2,2:3:0:0:
304,132,170312,1,2,2:2:0:0:
289,122,170396,1,2,2:2:0:0:
277,110,170480,1,2,2:2:0:0:
269,94,170564,1,2,2:2:0:0:
263,78,170647,37,2,2:2:0:0:
224,60,170731,1,2,2:2:0:0:
182,67,170815,1,2,2:2:0:0:
150,95,170899,1,2,2:2:0:0:
138,134,170983,2,0,P|138:158|149:178,1,47.0834847600301,2|2,2:2|2:2,0:0:0:0:
137,311,171150,70,0,P|137:288|126:268,1,47.0834847600301,2|2,2:2|2:2,0:0:0:0:
73,217,171318,2,0,L|213:223,1,140.692570946756,14|2,2:2|2:2,0:0:0:0:
225,215,171653,1,2,2:2:0:0:
266,280,171821,1,2,2:2:0:0:
352,192,171988,37,2,2:2:0:0:
348,173,172072,1,2,2:2:0:0:
344,154,172156,1,2,2:2:0:0:
340,135,172240,1,2,2:2:0:0:
414,120,172323,69,2,2:2:0:0:
418,139,172407,1,0,2:0:0:0:
422,158,172491,1,2,2:3:0:0:
426,177,172575,1,2,2:3:0:0:
402,250,172659,38,0,L|391:295,3,46.897523648919,6|0|2|2,2:2|2:0|2:3|2:3,0:0:0:0:
310,266,172994,70,0,L|266:280,3,46.897523648919,2|2|2|2,2:2|2:2|2:2|2:2,0:0:0:0:
250,194,173329,38,0,L|215:162,3,46.897523648919,2|2|2|2,2:2|2:2|2:2|2:2,0:0:0:0:
282,105,173664,70,0,L|292:59,1,47.0834847600301,2|2,2:2|2:2,0:0:0:0:
375,88,173832,38,0,L|419:73,1,47.0834847600301,2|2,2:2|2:2,0:0:0:0:
228,19,173999,70,0,B|173:34|173:34|162:55|162:55|105:72,1,140.692570946756,14|2,2:2|2:2,0:0:0:0:
91,67,174335,1,2,2:2:0:0:
15,61,174502,37,2,2:2:0:0:
17,42,174586,1,2,2:2:0:0:
19,23,174670,1,2,2:2:0:0:
120,147,174837,69,2,2:2:0:0:
101,145,174921,1,2,2:2:0:0:
82,143,175005,1,2,2:2:0:0:
19,185,175173,38,0,L|12:231,1,47.0834847600301,2|2,2:3|2:3,0:0:0:0:
1,332,175340,69,6,2:2:0:0:
31,353,175424,1,0,2:0:0:0:
67,355,175508,1,2,2:3:0:0:
100,337,175592,1,2,2:3:0:0:
117,304,175675,1,2,2:2:0:0:
114,267,175759,1,2,2:2:0:0:
151,200,175843,37,2,2:2:0:0:
181,178,175927,1,2,2:2:0:0:
217,176,176011,1,2,2:2:0:0:
250,194,176094,1,2,2:2:0:0:
267,227,176178,1,2,2:2:0:0:
264,264,176262,1,2,2:2:0:0:
255,339,176346,70,0,P|275:351|298:352,1,47.0834847600301,2|2,2:2|2:2,0:0:0:0:
473,273,176513,2,0,P|450:274|431:286,1,47.0834847600301,2|2,2:2|2:2,0:0:0:0:
406,358,176681,38,0,P|358:312|366:244,1,140.692570946756,14|2,2:2|2:2,0:0:0:0:
376,233,177016,1,2,2:2:0:0:
493,199,177184,2,0,L|500:105,1,93.6090861867269,2|2,2:2|2:2,0:0:0:0:
370,16,177519,69,2,2:2:0:0:
372,34,177603,1,2,2:2:0:0:
373,52,177687,1,2,2:2:0:0:
373,71,177770,1,0,2:0:0:0:
375,88,177854,2,0,L|388:43,1,47.0834847600301,2|2,2:3|2:3,0:0:0:0:
500,105,178022,37,6,2:2:0:0:
498,123,178106,1,0,2:0:0:0:
497,141,178189,1,2,2:3:0:0:
497,160,178273,1,2,2:3:0:0:
495,177,178357,2,0,L|481:132,1,47.0834847600301,2|2,2:2|2:2,0:0:0:0:
302,129,178525,69,2,2:2:0:0:
282,160,178608,1,2,2:2:0:0:
280,197,178692,1,2,2:2:0:0:
300,228,178776,1,2,2:2:0:0:
332,243,178860,2,0,P|355:244|376:233,1,47.0834847600301,2|2,2:2|2:2,0:0:0:0:
473,296,179027,38,0,P|453:285|430:286,1,47.0834847600301,2|2,2:2|2:2,0:0:0:0:
256,356,179195,69,2,2:2:0:0:
238,333,179279,1,2,2:2:0:0:
194,337,179363,2,0,B|175:295|108:287|83:320|83:320|88:349,1,153.178495330811,14|2,2:2|2:2,0:0:0:0:
25,276,179865,38,0,P|87:234|163:232,1,153.178495330811,2|2,2:2|2:2,0:0:0:0:
181,236,180284,1,2,2:2:0:0:
206,217,180368,2,0,P|189:184|192:146,1,76.5892476654053,2|2,2:2|2:3,0:0:0:0:
323,66,180703,70,0,P|321:133|264:168,1,140.692570946756,10|2,2:2|2:3,0:0:0:0:
192,145,181039,1,2,2:2:0:0:
41,159,181206,38,0,P|74:127|120:124,1,93.6090861867269,2|2,2:2|2:2,0:0:0:0:
263,168,181541,2,0,L|256:262,1,93.6090861867269,2|2,2:2|2:2,0:0:0:0:
192,145,181876,2,0,L|195:98,1,47.0834847600301,2|2,2:2|2:2,0:0:0:0:
308,52,182044,70,0,L|447:40,1,140.692570946756,14|2,2:2|2:2,0:0:0:0:
456,28,182379,1,2,2:2:0:0:
512,80,182547,1,2,2:2:0:0:
509,107,182631,1,2,2:2:0:0:
506,134,182714,1,2,2:2:0:0:
375,233,182882,38,0,L|368:327,1,93.6090861867269,2|2,2:2|2:2,0:0:0:0:
368,344,183133,1,0,2:0:0:0:
400,362,183217,1,2,2:3:0:0:
437,358,183301,1,2,2:3:0:0:
462,330,183385,70,0,L|464:283,3,46.897523648919,6|0|2|2,2:2|2:0|2:3|2:3,0:0:0:0:
375,233,183720,2,0,L|328:231,3,46.897523648919,2|2|2|2,2:2|2:2|2:2|2:2,0:0:0:0:
256,192,184055,37,2,2:2:0:0:
274,159,184139,1,2,2:2:0:0:
267,122,184223,1,2,2:2:0:0:
239,96,184307,1,2,2:2:0:0:
203,86,184390,2,0,L|156:84,1,47.0834847600301,2|2,2:2|2:2,0:0:0:0:
50,145,184558,2,0,L|48:192,1,47.0834847600301,2|2,2:2|2:2,0:0:0:0:
44,328,184726,69,14,2:2:0:0:
103,376,184893,2,0,B|119:333|119:333|109:287,1,93.6090861867269,2|2,2:2|2:2,0:0:0:0:
175,250,185228,37,2,2:2:0:0:
198,251,185312,1,2,2:2:0:0:
221,252,185396,1,2,2:2:0:0:
283,112,185564,70,0,B|267:156|267:156|278:202,1,93.6090861867269,2|2,2:2|2:2,0:0:0:0:
236,327,185899,2,0,L|282:328,1,47.0834847600301,2|2,2:3|2:3,0:0:0:0:
397,332,186066,37,6,2:2:0:0:
424,332,186150,1,0,2:0:0:0:
448,322,186234,1,2,2:3:0:0:
467,303,186318,1,2,2:3:0:0:
477,278,186402,1,2,2:2:0:0:
476,252,186485,1,2,2:2:0:0:
466,227,186569,1,2,2:2:0:0:
447,209,186653,1,2,2:2:0:0:
403,147,186737,69,2,2:2:0:0:
378,122,186821,1,2,2:2:0:0:
370,88,186904,1,2,2:2:0:0:
381,56,186988,1,2,2:2:0:0:
408,33,187072,38,0,L|454:36,1,47.0834847600301,2|2,2:2|2:2,0:0:0:0:
301,118,187240,2,0,P|294:95|296:72,1,47.0834847600301,2|2,2:2|2:2,0:0:0:0:
475,125,187407,70,0,P|474:171|446:209,1,93.6090861867269,14|2,2:2|2:2,0:0:0:0:
403,147,187742,1,2,2:2:0:0:
500,265,187910,38,0,L|347:254,1,153.178495330811,2|2,2:2|2:2,0:0:0:0:
276,283,188329,1,2,2:2:0:0:
275,282,188413,2,0,P|235:246|250:194,1,115.112096498108,2|2,2:2|1:3,0:0:0:0:
290,130,188748,70,0,P|296:107|293:84,3,46.897523648919,6|0|0|0,2:2|2:0|3:0|2:0,0:0:0:0:
218,82,189083,2,0,P|212:105|216:128,1,47.0834847600301,2|2,2:2|2:2,0:0:0:0:
228,288,189251,38,0,L|275:282,3,46.897523648919,2|2|2|2,2:2|2:2|2:2|2:2,0:0:0:0:
182,228,189586,2,0,L|135:234,1,47.0834847600301,2|2,2:2|2:2,0:0:0:0:
37,297,189754,70,0,B|30:319|30:319|41:345,1,47.0834847600301,2|2,2:2|2:2,0:0:0:0:
135,234,189921,37,2,2:2:0:0:
111,231,190005,1,2,2:2:0:0:
87,228,190089,1,14,2:2:0:0:
63,225,190173,1,2,2:2:0:0:
18,164,190256,2,0,B|11:141|11:141|22:115,1,47.0834847600301,2|2,2:2|2:2,0:0:0:0:
32,3,190424,5,2,2:2:0:0:
83,0,190508,1,2,2:2:0:0:
121,34,190592,1,2,2:2:0:0:
123,84,190675,1,2,2:2:0:0:
93,154,190759,6,0,L|232:167,1,140.692570946756,10|2,2:2|2:2,0:0:0:0:
299,204,191094,1,2,2:2:0:0:
319,167,191178,1,2,2:2:0:0:
302,133,191262,1,6,2:2:0:0:
189,288,191430,70,0,L|329:275,1,140.692570946756,14|0,2:2|0:0,0:0:0:0:
341,286,191765,1,10,2:2:0:0:
395,382,191932,2,0,P|423:346|415:302,1,93.6090861867269,2|0,2:2|0:0,0:0:0:0:
438,144,192268,5,2,2:2:0:0:
422,177,192351,1,0,0:0:0:0:
390,196,192435,1,10,2:2:0:0:
352,193,192519,1,0,3:0:0:0:
319,173,192603,2,0,P|305:155|302:133,1,47.0834847600301,2|0,2:2|0:0,0:0:0:0:
356,44,192770,101,2,2:2:0:0:
428,68,192938,1,2,2:2:0:0:
438,144,193106,1,10,2:2:0:0:
328,275,193273,6,0,B|320:368,1,93.6090861867269,2|0,2:2|0:0,0:0:0:0:
320,368,193608,1,2,2:2:0:0:
191,368,193776,2,0,B|184:275,1,93.6090861867269,10|2,2:2|2:2,0:0:0:0:
183,260,194027,1,0,0:0:0:0:
215,187,194111,102,0,B|103:165|151:253|35:228,1,187.218172373453,2|10,2:2|2:2,0:0:0:0:
60,72,194614,2,0,P|48:116|72:155,1,93.6090861867269,2|0,2:2|0:0,0:0:0:0:
183,260,194949,5,2,2:2:0:0:
197,294,195033,1,0,0:0:0:0:
188,330,195117,1,10,2:2:0:0:
161,356,195201,1,0,3:0:0:0:
124,363,195284,2,0,L|70:353,1,47.0834847600301,2|0,2:2|0:0,0:0:0:0:
259,250,195452,102,0,L|360:271,1,93.6090861867269,2|0,2:2|1:0,0:0:0:0:
113,17,195787,1,10,2:2:0:0:
60,72,195955,6,0,P|48:116|72:155,1,93.6090861867269,2|2,2:2|2:2,0:0:0:0:
72,155,196290,1,2,2:2:0:0:
188,141,196457,2,0,P|200:97|177:59,1,93.6090861867269,10|2,2:2|2:2,0:0:0:0:
235,8,196709,1,0,0:0:0:0:
250,19,196793,102,0,L|389:29,1,140.692570946756,6|0,2:2|0:0,0:0:0:0:
405,19,197128,1,10,2:2:0:0:
442,14,197212,1,0,0:0:0:0:
476,27,197295,1,2,2:2:0:0:
496,58,197379,1,0,0:0:0:0:
497,94,197463,6,0,P|488:116|471:131,1,47.0834847600301
352,193,197631,2,0,L|347:146,1,47.0834847600301,2|0,2:2|0:0,0:0:0:0:
498,247,197798,102,0,P|472:209|427:201,1,93.6090861867269,10|2,2:2|2:2,0:0:0:0:
352,193,198050,1,0,0:0:0:0:
383,262,198133,6,0,B|376:357|376:357|413:332,2,140.41362928009,2|2|2,2:2|1:2|2:2,0:0:0:0:
498,247,198804,1,0,0:0:0:0:
308,272,198971,101,2,2:2:0:0:
270,266,199055,1,0,0:0:0:0:
232,262,199139,1,10,2:2:0:0:
194,257,199223,1,0,3:0:0:0:
156,250,199307,2,0,L|149:203,1,47.0834847600301,2|0,2:2|0:0,0:0:0:0:
177,59,199474,6,0,L|183:105,1,47.0834847600301,2|0,2:2|0:0,0:0:0:0:
219,173,199642,1,2,2:2:0:0:
58,159,199809,1,10,2:2:0:0:
15,319,199977,102,0,L|108:309,1,93.6090861867269,2|0,2:2|0:0,0:0:0:0:
105,322,200228,1,0,0:0:0:0:
103,335,200312,1,2,2:2:0:0:
242,355,200480,2,0,L|232:262,1,93.6090861867269,10|2,2:2|2:2,0:0:0:0:
255,108,200815,5,2,2:2:0:0:
275,94,200899,1,0,0:0:0:0:
297,89,200983,1,2,2:2:0:0:
320,92,201066,1,0,3:0:0:0:
341,103,201150,1,10,2:2:0:0:
355,121,201234,1,0,3:0:0:0:
400,184,201318,102,0,B|444:188|444:188|492:168|512:72|444:32,1,221.257823216757,2|2,2:2|2:2,0:0:0:0:
355,121,201737,1,0,1:0:0:0:
341,135,201821,2,0,P|327:159|324:186,1,55.6441141375225,10|0,2:2|0:0,0:0:0:0:
420,278,201988,2,0,L|475:283,1,55.6441141375225,2|0,2:2|0:0,0:0:0:0:
350,307,202156,69,10,2:2:0:0:
220,344,202323,1,2,2:2:0:0:
253,214,202491,1,10,2:2:0:0:
97,166,202659,53,2,2:2:0:0:
95,179,202742,1,0,0:0:0:0:
92,192,202826,1,0,0:0:0:0:
256,136,202994,53,2,2:2:0:0:
264,99,203078,1,0,0:0:0:0:
249,64,203161,1,10,2:2:0:0:
217,43,203245,1,0,3:0:0:0:
179,41,203329,2,0,P|156:43|139:59,1,47.0834847600301,2|0,2:2|0:0,0:0:0:0:
23,150,203497,53,2,2:2:0:0:
172,176,203664,1,2,2:2:0:0:
76,267,203832,1,10,2:2:0:0:
139,57,203999,54,0,P|184:131|264:98,1,187.218172373453,2|2,2:2|2:2,0:0:0:0:
276,84,204390,1,0,0:0:0:0:
292,76,204446,1,0,0:0:0:0:
309,73,204502,54,0,P|333:71|354:79,1,47.0834847600301,10|0,2:2|0:0,0:0:0:0:
484,69,204670,2,0,L|488:22,1,47.0834847600301,2|0,2:2|0:0,0:0:0:0:
503,180,204837,53,6,2:2:0:0:
324,149,205005,1,2,2:2:0:0:
274,208,205173,1,10,2:2:0:0:
344,327,205340,53,2,2:2:0:0:
348,289,205424,1,0,0:0:0:0:
327,263,205508,1,0,0:0:0:0:
198,213,205675,53,2,2:2:0:0:
161,222,205759,1,0,0:0:0:0:
139,252,205843,1,10,2:2:0:0:
134,289,205927,1,0,3:0:0:0:
150,321,206011,2,0,P|165:337|189:345,1,47.0834847600301,2|0,2:2|0:0,0:0:0:0:
327,263,206178,53,2,2:2:0:0:
264,381,206346,2,0,L|256:288,1,93.6090861867269,2|10,2:2|2:2,0:0:0:0:
435,200,206681,54,0,B|454:218|454:218|447:285,1,93.6090861867269,2|0,2:2|0:0,0:0:0:0:
420,357,206932,1,0,0:0:0:0:
444,360,207016,1,2,2:2:0:0:
468,363,207100,1,0,0:0:0:0:
492,366,207184,1,10,2:2:0:0:
373,268,207351,54,0,L|327:263,1,47.0834847600301,2|0,2:2|0:0,0:0:0:0:
256,288,207519,53,6,2:2:0:0:
215,135,207687,1,2,2:2:0:0:
297,135,207854,53,10,2:2:0:0:
256,288,208022,1,2,2:2:0:0:
112,192,208189,53,10,2:2:0:0:
256,68,208357,53,2,2:2:0:0:
256,60,208441,1,0,0:0:0:0:
256,52,208525,1,10,2:2:0:0:
400,192,208692,54,0,L|353:187,1,47.0834847600301,2|0,2:2|0:0,0:0:0:0:
111,268,208860,53,14,2:2:0:0:
256,360,209027,53,2,2:2:0:0:
256,368,209111,1,0,0:0:0:0:
256,376,209195,1,10,2:2:0:0:
401,268,209363,53,2,2:2:0:0:
256,52,209530,53,10,2:2:0:0:
256,208,209698,53,2,2:2:0:0:
256,200,209782,1,0,0:0:0:0:
256,192,209865,1,10,2:2:0:0:
256,5,210033,54,0,L|256:52,1,47.0834847600301,2|0,2:2|0:0,0:0:0:0:
111,268,210201,37,14,2:2:0:0:
329,346,210368,1,2,2:2:0:0:
256,192,210536,1,2,2:2:0:0:
401,268,210703,69,10,2:2:0:0:
183,346,210871,2,0,L|136:351,3,46.897523648919,2|0|2|0,2:2|0:0|2:2|0:0,0:0:0:0:
111,268,211206,38,0,L|48:264,2,62.5920185689292,10|0|0,2:2|0:0|0:0,0:0:0:0:
401,268,211541,86,0,L|464:264,2,62.5920185689292,2|0|0,2:2|0:0|0:0,0:0:0:0:
256,51,211876,37,2,2:2:0:0:
296,122,211988,5,0,0:0:0:0:
256,193,212100,5,0,0:0:0:0:
215,122,212212,5,10,2:2:0:0:
376,124,212379,37,2,2:2:0:0:
389,89,212463,1,0,0:0:0:0:
369,51,212547,1,10,2:2:0:0:
143,51,212714,21,0,1:0:0:0:
123,89,212798,1,0,1:0:0:0:
136,124,212882,2,0,P|114:185|50:197,3,136.023422222222,6|0|0|0,2:2|0:0|0:0|0:0,0:0:0:0:
256,184,214055,5,2,2:2:0:0:
256,200,214139,1,2,2:2:0:0:
256,216,214223,2,0,L|256:279,1,63.9511666666666,2|0,2:2|0:0,0:0:0:0:
256,300,214558,5,2,2:2:0:0:
180,280,214893,5,2,2:2:0:0:
332,280,215228,38,0,B|432:264|376:332|480:320,1,153.482795330811,6|0,2:2|0:0,0:0:0:0:
479,312,215564,70,0,P|498:257|462:213,1,119.138829701742,10|2,2:2|2:2,0:0:0:0:
495,113,216066,2,0,L|406:121,1,89.5316306096396,2|0,2:2|0:0,0:0:0:0:
406,121,216402,1,2,2:2:0:0:
308,73,216569,2,0,L|311:13,1,59.5694148508709,2|2,2:2|2:2,0:0:0:0:
406,121,216904,38,0,P|409:193|341:237,1,153.178495330811,10|2,2:2|2:2,0:0:0:0:
253,360,217407,2,0,L|236:208,1,153.178495330811,2|2,2:2|2:2,0:0:0:0:
236,208,217910,1,2,2:2:0:0:
172,168,218245,70,0,P|130:207|135:264,1,119.138829701742,10|2,2:2|2:2,0:0:0:0:
148,276,218748,1,2,2:2:0:0:
148,276,219083,1,2,2:2:0:0:
47,356,219251,2,0,P|77:354|100:336,1,59.5694148508709,2|2,2:2|2:2,0:0:0:0:
148,276,219586,38,0,P|127:203|69:157,1,153.178495330811,10|2,2:2|2:2,0:0:0:0:
1,185,220089,2,0,P|41:227|99:228,1,119.138829701742,2|2,2:2|2:2,0:0:0:0:
66,81,220592,2,0,P|35:90|11:111,1,63.9511666666666,2|0,2:2|0:0,0:0:0:0:
69,157,220927,1,10,2:2:0:0:
111,18,221262,69,2,2:2:0:0:
141,86,221430,2,0,P|191:116|247:101,1,119.138829701742,2|2,2:2|2:2,0:0:0:0:
287,34,221932,1,2,2:2:0:0:
287,34,222100,1,2,2:2:0:0:
264,197,222268,38,0,L|257:109,1,89.5316306096396,10|0,2:2|0:0,0:0:0:0:
246,101,222603,1,2,2:2:0:0:
359,12,222770,2,0,P|382:64|438:80,1,119.138829701742,2|2,2:2|2:2,0:0:0:0:
505,12,223273,1,2,2:2:0:0:
394,195,223608,70,0,B|395:161|428:127|474:126|474:126|489:100|469:74|439:80,1,191.473119163513,10|2,2:2|2:2,0:0:0:0:
470,204,224614,37,2,2:2:0:0:
394,195,224782,1,2,2:2:0:0:
368,203,224865,1,0,2:0:0:0:
353,235,224949,1,8,2:1:0:0:
380,355,225117,69,2,2:3:0:0:
449,320,225284,1,2,2:2:0:0:
324,304,225452,1,2,2:3:0:0:
188,304,225620,37,2,2:2:0:0:
63,320,225787,1,0,0:0:0:0:
132,355,225955,1,2,2:2:0:0:
132,355,226290,54,0,P|172:291|155:219,1,153.178495330811,6|2,2:2|2:2,0:0:0:0:
85,188,226793,1,2,2:2:0:0:
147,143,227128,37,2,2:2:0:0:
13,184,227295,2,0,P|48:198|85:188,1,76.5892476654053,0|2,0:0|2:2,0:0:0:0:
197,85,227631,70,0,B|245:93|245:93|274:142|274:142|320:150,1,153.178495330811,10|2,2:2|2:2,0:0:0:0:
164,14,228133,2,0,P|121:74|147:143,1,153.178495330811,2|0,2:2|0:0,0:0:0:0:
13,184,228636,2,0,P|48:198|85:188,1,76.5892476654053,2|0,2:2|0:0,0:0:0:0:
206,191,228971,38,0,P|249:251|223:320,1,153.178495330811,10|2,2:2|2:2,0:0:0:0:
152,347,229474,1,2,2:2:0:0:
223,319,229809,1,2,2:2:0:0:
83,327,229977,2,0,P|120:325|152:347,1,76.5892476654053,0|2,0:0|2:2,0:0:0:0:
287,360,230312,70,0,P|358:345|386:276,1,153.178495330811,10|2,2:2|2:2,0:0:0:0:
393,201,230815,2,0,L|511:209,1,119.138829701742,2|0,2:2|0:0,0:0:0:0:
508,133,231318,2,0,L|444:128,1,63.9511666666666,2|0,2:2|0:0,0:0:0:0:
440,120,231653,37,10,2:2:0:0:
440,120,231988,69,2,2:2:0:0:
393,201,232156,1,2,2:2:0:0:
393,201,232491,37,2,2:2:0:0:
402,53,232659,2,0,L|325:47,1,76.5892476654053,0|2,0:0|2:2,0:0:0:0:
252,66,232994,70,0,B|228:65|217:69|217:69|222:50|245:40,1,76.5892476654053,10|2,2:2|2:2,0:0:0:0:
474,27,233329,38,0,B|497:28|508:23|508:23|503:42|480:52,1,76.5892476654053,2|2,2:2|2:2,0:0:0:0:
325,47,233664,69,2,2:2:0:0:
402,53,233832,1,0,0:0:0:0:
252,66,233999,38,0,B|224:62|208:46|208:46|180:62|168:98|196:126,1,140.692570946756,2|0,2:2|0:0,0:0:0:0:
193,123,234335,69,4,2:2:0:0:
160,196,234670,101,0,2:0:0:0:
156,208,234837,1,4,2:2:0:0:
80,36,235173,101,0,2:0:0:0:
84,24,235340,1,4,2:2:0:0:
84,24,236011,5,2,2:2:0:0:
156,208,236346,5,2,2:2:0:0:
133,195,236430,1,0,0:0:0:0:
107,195,236513,1,0,0:0:0:0:
83,205,236597,1,0,0:0:0:0:
67,225,236681,5,2,2:2:0:0:
51,264,236765,1,0,0:0:0:0:
66,303,236849,1,0,0:0:0:0:
100,326,236932,1,0,0:0:0:0:
176,282,237016,102,0,B|221:288|221:288|252:337|252:337|307:344,1,153.482795330811,14|0,2:2|0:0,0:0:0:0:
316,329,237351,1,10,2:2:0:0:
455,277,237519,2,0,P|488:315|479:364,1,102.118996887207,2|0,2:2|0:0,0:0:0:0:
338,209,237854,5,2,2:2:0:0:
377,220,237938,1,0,0:0:0:0:
417,212,238022,1,10,2:2:0:0:
445,182,238106,1,0,3:0:0:0:
450,142,238189,2,0,P|448:116|433:96,1,51.3637984436036,2|0,2:2|0:0,0:0:0:0:
275,63,238357,101,2,2:2:0:0:
247,93,238441,1,0,0:0:0:0:
256,132,238525,1,2,2:2:0:0:
338,209,238692,1,10,2:2:0:0:
472,32,238860,5,2,2:2:0:0:
440,15,238944,1,0,0:0:0:0:
406,26,239027,1,2,2:2:0:0:
275,63,239195,1,2,2:2:0:0:
116,140,239363,102,0,B|77:143|70:109|70:109|84:82|115:80,1,119.138829701741,10|0,2:2|0:0,0:0:0:0:
131,84,239614,1,0,0:0:0:0:
191,132,239698,6,0,B|283:119|239:184|345:163,1,153.482795330811,6|0,2:2|0:0,0:0:0:0:
346,153,240033,1,10,2:2:0:0:
472,32,240201,2,0,P|425:47|409:94,1,102.118996887207,2|0,2:2|0:0,0:0:0:0:
491,295,240536,101,2,2:2:0:0:
496,253,240620,1,0,0:0:0:0:
469,222,240703,1,10,2:2:0:0:
431,205,240787,1,0,3:0:0:0:
391,216,240871,2,0,P|371:231|335:240,1,51.3637984436036,2|0,2:2|0:0,0:0:0:0:
256,324,241039,6,0,P|276:329|294:341,1,42.8031666666667,2|0,2:2|0:0,0:0:0:0:
365,378,241206,1,2,2:2:0:0:
346,239,241374,1,10,2:2:0:0:
185,352,241541,102,0,L|100:359,1,85.0991666666667,2|2,2:2|2:2,0:0:0:0:
89,351,241793,1,0,0:0:0:0:
78,344,241876,1,2,2:2:0:0:
22,203,242044,5,10,2:2:0:0:
40,186,242128,1,0,0:0:0:0:
64,180,242212,1,2,2:2:0:0:
89,181,242295,1,0,0:0:0:0:
143,128,242379,102,0,B|119:153|119:153|129:270,1,153.482795330811,6|0,2:2|0:0,0:0:0:0:
135,279,242714,1,10,2:2:0:0:
260,363,242882,5,2,2:2:0:0:
294,341,242966,1,0,0:0:0:0:
305,301,243050,1,0,0:0:0:0:
293,262,243133,1,0,0:0:0:0:
262,234,243217,2,0,P|251:212|254:178,1,51.3637984436036,2|0,2:2|0:0,0:0:0:0:
345,50,243385,2,0,P|369:46|400:59,1,51.3637984436036,10|0,2:2|0:0,0:0:0:0:
488,192,243552,101,2,2:2:0:0:
454,215,243636,1,0,0:0:0:0:
414,204,243720,1,2,2:2:0:0:
296,123,243888,1,2,2:2:0:0:
417,307,244055,1,10,2:2:0:0:
269,50,244223,5,2,2:2:0:0:
235,27,244307,1,0,0:0:0:0:
195,38,244390,2,0,L|142:45,1,51.3637984436036
68,50,244558,101,2,2:2:0:0:
24,242,244726,2,0,B|-4:217|11:186|11:186|28:200|57:199,1,110.628911608379,8|2,2:2|2:2,0:0:0:0:
68,204,244977,1,0,0:0:0:0:
103,272,245061,6,0,P|144:211|115:144,1,153.482795330811,2|0,2:2|0:0,0:0:0:0:
101,135,245396,1,10,2:2:0:0:
235,27,245564,2,0,L|336:38,1,102.118996887207,2|0,2:2|0:0,0:0:0:0:
411,20,245899,1,2,2:2:0:0:
491,154,246066,2,0,P|463:195|414:204,1,102.118996887207,10|0,2:2|0:0,0:0:0:0:
348,164,246318,1,0,0:0:0:0:
402,218,246402,101,2,2:2:0:0:
398,237,246485,1,0,0:0:0:0:
400,257,246569,1,2,2:2:0:0:
409,275,246653,1,0,0:0:0:0:
424,289,246737,1,10,2:2:0:0:
443,297,246821,1,0,3:0:0:0:
502,344,246904,6,0,P|485:363|460:371,1,51.3637984436036,2|0,2:2|0:0,0:0:0:0:
402,325,247240,102,0,P|420:307|444:297,1,51.3637984436036,2|0,2:2|1:0,0:0:0:0:
255,209,247407,6,0,B|292:207|315:255|315:255|296:251|275:255,1,119.138829701741,10|0,2:2|0:0,0:0:0:0:
260,264,247659,1,0,0:0:0:0:
234,336,247742,102,0,B|201:326|190:296|190:296|141:264|99:315,1,153.482795330811,10|0,2:2|0:0,0:0:0:0:
105,317,248078,1,10,2:2:0:0:
24,208,248245,2,0,P|10:164|54:155,1,102.118996887207,2|0,2:2|0:0,0:0:0:0:
196,29,248580,5,2,2:2:0:0:
225,57,248664,1,0,0:0:0:0:
227,97,248748,1,10,2:2:0:0:
202,129,248832,1,0,3:0:0:0:
164,144,248916,2,0,P|139:138|122:121,1,51.3637984436036,2|0,2:2|0:0,0:0:0:0:
0,0,249083,101,2,2:2:0:0:
34,21,249167,1,0,0:0:0:0:
35,61,249251,1,2,2:2:0:0:
54,155,249418,1,10,2:2:0:0:
80,311,249586,5,2,2:2:0:0:
105,285,249670,1,0,0:0:0:0:
140,287,249754,1,2,2:2:0:0:
280,316,249921,1,2,2:2:0:0:
456,350,250089,102,0,B|491:295|491:295|441:314,1,119.138829701741,10|0,2:2|0:0,0:0:0:0:
424,320,250340,1,0,0:0:0:0:
367,271,250424,6,0,B|336:222|379:180|379:180|393:201|430:208,1,153.482795330811,6|0,2:2|0:0,0:0:0:0:
437,206,250759,1,10,2:2:0:0:
466,40,250927,2,0,B|445:51|445:51|435:129,1,102.118996887207,2|2,2:2|2:2,0:0:0:0:
424,320,251262,101,2,2:2:0:0:
408,358,251346,1,0,0:0:0:0:
371,375,251430,1,10,2:2:0:0:
330,370,251513,1,0,3:0:0:0:
302,339,251597,2,0,P|288:317|287:292,1,51.3637984436036,2|0,2:2|0:0,0:0:0:0:
255,119,251765,6,0,P|256:141|247:160,1,42.8031666666667,2|0,2:2|0:0,0:0:0:0:
192,212,251932,1,2,2:2:0:0:
348,188,252100,1,10,2:2:0:0:
170,15,252268,102,0,L|179:99,1,85.0991666666667,2|2,2:2|2:2,0:0:0:0:
180,111,252519,1,0,0:0:0:0:
180,122,252603,2,0,L|138:117,1,42.8031666666667,2|0,2:2|0:0,0:0:0:0:
6,209,252770,6,0,B|118:191|118:191|82:181|71:151,1,179.063261219278,10|0,2:2|0:0,0:0:0:0:
138,117,253106,101,6,2:2:0:0:
181,334,253273,1,2,2:2:0:0:
348,188,253441,1,10,2:2:0:0:
423,201,253608,6,0,B|452:217|459:241|459:241|425:254|405:239,1,110.628911608379,2|0,2:2|0:0,0:0:0:0:
333,263,253944,101,2,2:2:0:0:
256,60,254111,1,10,2:2:0:0:
488,0,254279,2,0,L|481:54,1,55.6441141375225,2|0,2:2|0:0,0:0:0:0:
457,127,254446,6,0,B|425:115|412:86|412:86|385:108|402:146,1,119.138829701741,2|2,2:2|2:2,0:0:0:0:
411,314,254782,2,0,P|362:303|333:263,1,102.118996887207,10|2,2:2|2:2,0:0:0:0:
159,191,255117,101,2,2:2:0:0:
118,190,255201,1,0,0:0:0:0:
83,211,255284,1,2,2:2:0:0:
69,249,255368,1,0,0:0:0:0:
80,288,255452,2,0,B|123:294|123:294|151:350|151:350|197:356,1,153.482795330811,10|0,2:2|0:0,0:0:0:0:
333,263,255787,6,0,B|336:144|274:225|290:90,1,170.198333333334,2|10,2:2|2:2,0:0:0:0:
456,15,256290,2,0,B|470:55|470:55|446:90,1,85.0991666666667,2|0,2:2|0:0,0:0:0:0:
385,43,256541,1,0,0:0:0:0:
371,43,256625,2,0,L|329:42,1,42.8031666666667,2|0,2:2|0:0,0:0:0:0:
254,38,256793,2,0,L|211:36,1,42.8031666666667,10|0,2:2|0:0,0:0:0:0:
135,33,256960,1,0,0:0:0:0:
24,192,257128,101,2,2:2:0:0:
41,228,257212,1,0,0:0:0:0:
77,244,257295,1,2,2:2:0:0:
117,240,257379,1,0,0:0:0:0:
147,214,257463,2,0,P|161:192|161:167,1,51.3637984436036,10|0,2:2|0:0,0:0:0:0:
32,107,257631,6,0,L|24:192,1,85.0991666666667,2|2,2:2|2:2,0:0:0:0:
180,284,257966,101,2,2:2:0:0:
219,251,258050,1,0,1:0:0:0:
267,265,258133,1,10,2:2:0:0:
280,314,258217,1,0,0:0:0:0:
319,347,258301,1,0,0:0:0:0:
367,333,258385,1,0,0:0:0:0:
438,364,258469,102,0,B|451:328|442:298|417:275|417:275|482:288,1,153.482795330811,10|0,2:2|0:0,0:0:0:0:
483,278,258804,1,10,2:2:0:0:
445,90,258971,6,0,P|422:134|375:148,1,102.118996887207,2|10,2:2|2:2,0:0:0:0:
305,177,259307,1,2,2:2:0:0:
289,139,259390,1,0,0:0:0:0:
303,100,259474,1,10,2:2:0:0:
317,260,259642,102,0,L|267:265,1,51.3637984436036,2|0,2:2|0:0,0:0:0:0:
189,274,259809,1,10,2:2:0:0:
367,333,259977,5,2,2:2:0:0:
119,244,260145,1,10,2:2:0:0:
232,365,260312,1,2,2:2:0:0:
234,350,260396,1,0,0:0:0:0:
236,335,260480,1,10,2:2:0:0:
248,160,260647,101,2,2:2:0:0:
373,172,260815,1,10,2:2:0:0:
449,179,260983,2,0,L|453:128,1,51.3637984436036,2|0,2:2|0:0,0:0:0:0:
458,51,261150,5,10,2:2:0:0:
491,243,261318,1,2,2:2:0:0:
315,121,261485,1,2,2:2:0:0:
256,352,261653,101,10,2:2:0:0:
373,172,261821,1,2,2:2:0:0:
119,244,261988,1,2,2:2:0:0:
0,64,262156,6,0,L|9:0,1,64.2047524318696,10|0,2:2|0:0,0:0:0:0:
178,132,262323,2,0,B|186:162|186:162|176:192,1,64.2047524318696,0|0,1:0|1:0,0:0:0:0:
119,244,262491,6,0,L|48:248,1,68.0793333333334,6|0,2:2|0:0,0:0:0:0:
51,247,263329,102,0,P|42:266|49:286,1,42.5495833333333
128,325,263664,6,0,L|181:321,1,51.3637984436036,2|0,2:2|1:0,0:0:0:0:
416,228,263832,5,14,2:2:0:0:
352,318,263999,1,2,2:2:0:0:
401,377,264167,1,2,2:2:0:0:
305,256,264335,38,0,L|179:268,1,127.902333333333,10|0,2:2|0:0,0:0:0:0:
164,254,264670,1,2,2:2:0:0:
47,384,264837,2,0,P|89:381|114:348,1,85.0991666666667,10|2,2:2|2:2,0:0:0:0:
118,331,265089,1,0,1:0:0:0:
109,308,265173,69,14,2:2:0:0:
16,192,265340,1,2,2:2:0:0:
128,84,265508,2,0,L|213:77,1,85.0991666666667,2|10,2:2|2:2,0:0:0:0:
240,224,265759,1,0,0:0:0:0:
244,232,265843,2,0,L|329:240,1,85.0991666666667,2|2,2:2|2:2,0:0:0:0:
500,115,266178,38,0,B|456:123|456:123|428:171|428:171|376:180,1,153.482795330811,10|0,2:2|0:0,0:0:0:0:
356,168,266513,69,14,2:2:0:0:
268,24,266681,1,2,2:2:0:0:
112,88,266849,1,2,2:2:0:0:
48,48,267016,37,10,2:2:0:0:
176,128,267184,1,2,2:2:0:0:
43,199,267351,1,2,2:2:0:0:
179,27,267519,70,0,L|264:20,1,85.0991666666667,10|2,2:2|2:2,0:0:0:0:
396,52,267770,1,0,0:0:0:0:
400,64,267854,38,0,B|364:84|364:84|356:168,1,127.902333333334,14|0,2:2|0:0,0:0:0:0:
400,232,268189,2,0,L|485:239,1,85.0991666666667,2|10,1:2|2:2,0:0:0:0:
364,376,268441,1,0,0:0:0:0:
352,368,268525,2,0,B|332:332|332:332|347:291,1,85.0991666666667,2|2,2:2|2:2,0:0:0:0:
278,120,268860,86,0,L|177:129,1,102.321866666666,10|0,2:2|1:0,0:0:0:0:
160,144,269195,38,0,P|126:81|167:21,3,153.026345330811,10|2|2|2,2:2|2:2|2:2|2:2,0:0:0:0:
160,144,270452,2,0,P|166:158|168:176,1,19.4896494163513,0|0,3:0|0:0,0:0:0:0:
160,182,270536,53,10,2:2:0:0:
52,171,270703,1,2,2:2:0:0:
10,237,270871,2,0,L|18:314,1,76.5892476654053,2|2,2:2|2:2,0:0:0:0:
67,373,271206,37,2,2:2:0:0:
175,362,271374,1,2,2:2:0:0:
224,302,271541,85,2,2:2:0:0:
300,313,271709,1,2,2:2:0:0:
464,342,271876,38,0,B|362:357|362:357|378:338|376:303,1,140.692570946756,10|0,2:2|0:0,0:0:0:0:
377,308,272212,85,2,2:2:0:0:
300,313,272379,1,2,2:2:0:0:
436,256,272547,69,2,2:2:0:0:
400,112,272714,1,2,2:2:0:0:
294,216,272882,101,2,2:2:0:0:
416,36,273050,1,2,2:2:0:0:
368,200,273217,101,14,2:2:0:0:
180,80,273385,1,10,2:2:0:0:
332,80,273552,5,10,2:2:0:0:
144,199,273720,5,10,2:2:0:0:
107,227,273804,1,0,0:0:0:0:
63,218,273888,1,10,2:2:0:0:
256,360,274055,37,10,2:2:0:0:
256,340,274139,1,0,0:0:0:0:
256,320,274223,1,6,2:2:0:0:
368,200,274363,69,0,1:0:0:0:
391,238,274446,5,0,0:0:0:0:
421,245,274502,5,0,0:0:0:0:
438,240,274558,86,0,B|436:186|470:158|470:158|537:102|499:22|418:17|389:58|392:97|392:97|376:61|328:44|264:92|278:181|366:190|366:190|410:194|427:227,1,644.670904738282,6|8,2:2|2:1,0:0:0:0:
