osu file format v14

[General]
AudioFilename: audio.mp3
AudioLeadIn: 0
PreviewTime: 214600
Countdown: 0
SampleSet: Soft
StackLeniency: 0.5
Mode: 0
LetterboxInBreaks: 0
WidescreenStoryboard: 1

[Editor]
Bookmarks: 25215,46667,65438,92254,124432,143203,170019
DistanceSpacing: 0.8
BeatDivisor: 4
GridSize: 16
TimelineZoom: 1.9

[Metadata]
Title:Rinne
TitleUnicode:輪廻
Artist:Yamamoto Mineko
ArtistUnicode:山本美禰子
Creator:ScubDomino
Version:Left's Insane
Source:さくら、もゆ。-as the Night's, Reincarnation-
Tags:山本 美禰子 Sakura Moyu 2nd opening op2 Takayuki Ishikura 石倉 誉之 maro Masato Yokoe 横江将人 Kotaro Odaka 小高 光太郎 FVS-SAKREC Japanese Vocal FAVORITE 15th ANNIVERSARY SPECIAL LIVE Denkigai Matsuri 2019 SUMMER FVS-SAKOST OST Original Soundtrack CD Cherry Blossom Dark Fantasy Mahou Shoujo Catgirl eroge ero video hentai game galgame nakige cute pop novelty xLolicore- HiImNoob 4525153 Shizuku- vahn10 1125647 Left jaehyeok 5062061 anime girl anime_girl jungkyuyoung 8972308
BeatmapID:2197382
BeatmapSetID:1018061

[Difficulty]
HPDrainRate:5.6
CircleSize:3.8
OverallDifficulty:7.5
ApproachRate:9
SliderMultiplier:1.5
SliderTickRate:1

[Events]
//Background and Video events
0,0,"kuro.png",0,0
//Break Periods
2,215606,225690
2,234534,236416
//Storyboard Layer 0 (Background)
//Storyboard Layer 1 (Fail)
//Storyboard Layer 2 (Pass)
//Storyboard Layer 3 (Foreground)
//Storyboard Layer 4 (Overlay)
//Storyboard Sound Samples

[TimingPoints]
1039,335.195530726257,4,2,1,50,1,0
1373,-100,4,2,2,50,0,0
1541,-100,4,2,3,50,0,0
2044,-100,4,2,4,50,0,0
2379,-100,4,2,5,50,0,0
2714,-100,4,2,6,50,0,0
2882,-100,4,2,3,50,0,0
3385,-100,4,2,4,50,0,0
3720,-100,4,2,7,50,0,0
4055,-100,4,2,8,50,0,0
4222,-100,4,2,9,50,0,0
4558,-100,4,2,1,50,0,0
4893,-100,4,2,4,50,0,0
5060,-100,4,2,10,50,0,0
5228,-100,4,2,11,50,0,0
5396,-100,4,2,12,50,0,0
5564,-100,4,2,1,50,0,0
5731,-100,4,2,13,50,0,0
5898,-100,4,2,11,50,0,0
6066,-100,4,2,14,50,0,0
6401,-100,4,2,1,50,0,0
6736,-100,4,2,2,50,0,0
6904,-100,4,2,3,50,0,0
7407,-100,4,2,4,50,0,0
7742,-100,4,2,5,50,0,0
8077,-100,4,2,15,50,0,0
8245,-100,4,2,3,50,0,0
8748,-100,4,2,4,50,0,0
9083,-100,4,2,7,50,0,0
9418,-100,4,2,8,50,0,0
9585,-100,4,2,9,50,0,0
9921,-100,4,2,1,50,0,0
10256,-100,4,2,4,50,0,0
10423,-100,4,2,10,50,0,0
10591,-100,4,2,11,50,0,0
10759,-100,4,2,2,50,0,0
10927,-100,4,2,1,50,0,0
11094,-100,4,2,16,50,0,0
11261,-100,4,2,17,50,0,0
11429,-100,4,2,14,50,0,0
11764,-100,4,2,18,50,0,0
11932,-100,4,2,19,50,0,0
12100,-100,4,2,20,50,0,0
12268,-133.333333333333,4,2,6,50,0,0
12435,-133.333333333333,4,2,1,50,0,0
12603,-133.333333333333,4,2,4,50,0,0
12770,-133.333333333333,4,2,1,50,0,0
12938,-133.333333333333,4,2,4,50,0,0
13105,-133.333333333333,4,2,21,50,0,0
13273,-133.333333333333,4,2,22,50,0,0
13440,-133.333333333333,4,2,23,50,0,0
13608,-133.333333333333,4,2,24,50,0,0
13692,-133.333333333333,4,2,1,50,0,0
14111,-133.333333333333,4,2,4,50,0,0
14446,-133.333333333333,4,2,25,50,0,0
14613,-133.333333333333,4,2,26,50,0,0
14782,-133.333333333333,4,2,11,50,0,0
14949,-133.333333333333,4,2,27,50,0,0
15033,-133.333333333333,4,2,1,50,0,0
15284,-133.333333333333,4,2,4,50,0,0
15452,-133.333333333333,4,2,1,50,0,0
15620,-133.333333333333,4,2,4,50,0,0
15787,-133.333333333333,4,2,28,60,0,0
15954,-133.333333333333,4,2,29,60,0,0
16122,-133.333333333333,4,2,30,60,0,0
16206,-133.333333333333,4,2,4,60,0,0
16290,-133.333333333333,4,2,1,60,0,0
16457,-133.333333333333,4,2,31,60,0,0
16625,-133.333333333333,4,2,25,60,0,0
16792,-133.333333333333,4,2,32,60,0,0
16960,-133.333333333333,4,2,33,60,0,0
17044,-133.333333333333,4,2,1,60,0,0
17128,-90.9090909090909,4,2,34,70,0,0
17295,-90.9090909090909,4,2,35,70,0,0
17463,-90.9090909090909,4,2,36,70,0,0
17630,-90.9090909090909,4,2,37,70,0,0
17798,-90.9090909090909,4,2,1,70,0,0
17965,-90.9090909090909,4,2,35,70,0,0
18133,-90.9090909090909,4,2,38,70,0,0
18301,-90.9090909090909,4,2,35,70,0,0
18385,-90.9090909090909,4,2,1,70,0,0
18468,-90.9090909090909,4,2,39,70,0,0
18636,-90.9090909090909,4,2,40,70,0,0
18803,-90.9090909090909,4,2,41,70,0,0
18971,-90.9090909090909,4,2,42,70,0,0
19055,-90.9090909090909,4,2,4,70,0,0
19306,-90.9090909090909,4,2,40,70,0,0
19474,-90.9090909090909,4,2,43,70,0,0
19641,-90.9090909090909,4,2,40,70,0,0
19809,-90.9090909090909,4,2,44,70,0,0
19977,-90.9090909090909,4,2,45,70,0,0
20312,-90.9090909090909,4,2,46,70,0,0
20479,-90.9090909090909,4,2,47,70,0,0
20647,-90.9090909090909,4,2,45,70,0,0
20815,-90.9090909090909,4,2,48,70,0,0
20983,-111.111111111111,4,2,45,70,0,0
21066,-111.111111111111,4,2,1,70,0,0
21150,-111.111111111111,4,2,49,70,0,0
21317,-111.111111111111,4,2,50,70,0,0
21485,-133.333333333333,4,2,45,70,0,0
21653,-133.333333333333,4,2,51,70,0,0
21821,-76.9230769230769,4,2,52,70,0,0
21988,-76.9230769230769,4,2,45,70,0,0
22156,-76.9230769230769,4,2,46,70,0,0
22323,-76.9230769230769,4,2,1,70,0,0
22491,-200,4,2,53,70,0,0
22575,-200,4,2,53,70,0,0
23496,-200,4,2,53,5,0,0
23664,-200,4,2,11,50,0,0
23748,-200,4,2,27,50,0,0
23832,-200,4,2,54,50,0,0
24167,-200,4,2,33,50,0,0
24250,-200,4,2,22,50,0,0
24334,-200,4,2,55,50,0,0
24418,-200,4,2,11,50,0,0
24502,-200,4,2,55,60,0,0
24586,-200,4,2,11,60,0,0
24670,-200,4,2,15,70,0,0
24753,-200,4,2,56,70,0,0
24837,-200,4,2,57,70,0,0
24921,-200,4,2,58,70,0,0
25005,-200,4,2,56,80,0,0
25088,-200,4,2,59,80,0,0
25173,-142.857142857143,4,2,60,50,0,0
25340,-142.857142857143,4,2,7,50,0,0
25507,-142.857142857143,4,2,58,50,0,0
25675,-142.857142857143,4,2,61,50,0,0
25843,-142.857142857143,4,2,1,50,0,0
26010,-142.857142857143,4,2,8,50,0,0
26178,-142.857142857143,4,2,62,50,0,0
26345,-142.857142857143,4,2,63,50,0,0
26513,-142.857142857143,4,2,64,50,0,0
26680,-142.857142857143,4,2,65,50,0,0
26848,-142.857142857143,4,2,66,50,0,0
27016,-142.857142857143,4,2,6,50,0,0
27184,-142.857142857143,4,2,1,50,0,0
27351,-142.857142857143,4,2,65,50,0,0
27518,-142.857142857143,4,2,67,50,0,0
27686,-142.857142857143,4,2,68,50,0,0
27854,-142.857142857143,4,2,69,50,0,0
28021,-142.857142857143,4,2,5,50,0,0
28189,-142.857142857143,4,2,58,50,0,0
28356,-142.857142857143,4,2,70,50,0,0
28524,-142.857142857143,4,2,1,50,0,0
28692,-142.857142857143,4,2,5,50,0,0
28859,-142.857142857143,4,2,66,50,0,0
29027,-142.857142857143,4,2,5,50,0,0
29194,-142.857142857143,4,2,71,50,0,0
29362,-142.857142857143,4,2,70,50,0,0
29530,-142.857142857143,4,2,56,50,0,0
29697,-142.857142857143,4,2,72,50,0,0
29865,-142.857142857143,4,2,56,50,0,0
30032,-142.857142857143,4,2,5,50,0,0
30200,-142.857142857143,4,2,66,50,0,0
30368,-142.857142857143,4,2,73,50,0,0
30535,-142.857142857143,4,2,68,50,0,0
30703,-142.857142857143,4,2,7,50,0,0
30870,-142.857142857143,4,2,58,50,0,0
31038,-142.857142857143,4,2,61,50,0,0
31206,-142.857142857143,4,2,1,50,0,0
31373,-142.857142857143,4,2,8,50,0,0
31541,-142.857142857143,4,2,62,50,0,0
31708,-142.857142857143,4,2,15,50,0,0
31876,-142.857142857143,4,2,64,50,0,0
32044,-142.857142857143,4,2,65,50,0,0
32211,-142.857142857143,4,2,66,50,0,0
32379,-142.857142857143,4,2,6,50,0,0
32547,-142.857142857143,4,2,1,50,0,0
32714,-142.857142857143,4,2,65,50,0,0
32882,-142.857142857143,4,2,67,50,0,0
33049,-142.857142857143,4,2,68,50,0,0
33217,-142.857142857143,4,2,69,50,0,0
33384,-142.857142857143,4,2,26,50,0,0
33552,-142.857142857143,4,2,23,50,0,0
33720,-142.857142857143,4,2,70,50,0,0
33887,-142.857142857143,4,2,1,50,0,0
34055,-142.857142857143,4,2,5,50,0,0
34222,-142.857142857143,4,2,66,50,0,0
34390,-142.857142857143,4,2,5,50,0,0
34558,-142.857142857143,4,2,71,50,0,0
34725,-142.857142857143,4,2,74,50,0,0
34893,-142.857142857143,4,2,62,50,0,0
35060,-142.857142857143,4,2,75,50,0,0
35228,-142.857142857143,4,2,76,50,0,0
35396,-142.857142857143,4,2,74,50,0,0
35563,-142.857142857143,4,2,77,50,0,0
35731,-142.857142857143,4,2,66,50,0,0
35898,-142.857142857143,4,2,68,50,0,0
36066,-142.857142857143,4,2,7,50,0,0
36234,-142.857142857143,4,2,58,50,0,0
36401,-142.857142857143,4,2,61,50,0,0
36569,-142.857142857143,4,2,1,50,0,0
36736,-142.857142857143,4,2,8,50,0,0
36904,-142.857142857143,4,2,62,50,0,0
37072,-142.857142857143,4,2,63,50,0,0
37239,-142.857142857143,4,2,78,50,0,0
37407,-142.857142857143,4,2,65,50,0,0
37574,-142.857142857143,4,2,66,50,0,0
37742,-142.857142857143,4,2,6,50,0,0
37910,-142.857142857143,4,2,1,50,0,0
38077,-142.857142857143,4,2,65,50,0,0
38245,-142.857142857143,4,2,67,50,0,0
38412,-142.857142857143,4,2,68,50,0,0
38580,-142.857142857143,4,2,69,50,0,0
38748,-142.857142857143,4,2,5,50,0,0
38915,-142.857142857143,4,2,58,50,0,0
39083,-142.857142857143,4,2,70,50,0,0
39250,-142.857142857143,4,2,1,50,0,0
39418,-142.857142857143,4,2,5,50,0,0
39586,-142.857142857143,4,2,66,50,0,0
39753,-142.857142857143,4,2,79,50,0,0
39921,-142.857142857143,4,2,80,50,0,0
40088,-142.857142857143,4,2,7,50,0,0
40256,-142.857142857143,4,2,66,50,0,0
40424,-142.857142857143,4,2,72,50,0,0
40591,-142.857142857143,4,2,56,50,0,0
40759,-142.857142857143,4,2,70,50,0,0
40926,-142.857142857143,4,2,81,50,0,0
41094,-142.857142857143,4,2,82,50,0,0
41262,-142.857142857143,4,2,83,50,0,0
41429,-142.857142857143,4,2,84,50,0,0
41597,-142.857142857143,4,2,64,50,0,0
41764,-142.857142857143,4,2,85,50,0,0
41932,-142.857142857143,4,2,22,50,0,0
42100,-142.857142857143,4,2,65,50,0,0
42267,-142.857142857143,4,2,67,50,0,0
42435,-142.857142857143,4,2,15,50,0,0
42602,-142.857142857143,4,2,86,50,0,0
42770,-142.857142857143,4,2,21,50,0,0
42938,-142.857142857143,4,2,87,50,0,0
43105,-142.857142857143,4,2,88,50,0,0
43273,-142.857142857143,4,2,55,50,0,0
43440,-142.857142857143,4,2,65,50,0,0
43608,-142.857142857143,4,2,23,50,0,0
43775,-142.857142857143,4,2,75,50,0,0
43944,-142.857142857143,4,2,89,50,0,0
44111,-142.857142857143,4,2,25,50,0,0
44279,-125,4,2,90,50,0,0
44446,-125,4,2,26,50,0,0
44613,-125,4,2,91,50,0,0
44781,-125,4,2,10,50,0,0
44949,-125,4,2,57,50,0,0
45116,-125,4,2,92,50,0,0
45284,-125,4,2,15,50,0,0
45451,-125,4,2,93,50,0,0
45619,-125,4,2,12,50,0,0
45787,-125,4,2,94,50,0,0
45954,-125,4,2,11,50,0,0
46122,-125,4,2,95,50,0,0
46289,-125,4,2,32,50,0,0
46457,-125,4,2,22,50,0,0
46625,-105.263157894737,4,2,49,60,0,0
46792,-105.263157894737,4,2,10,60,0,0
46960,-105.263157894737,4,2,79,60,0,0
47127,-105.263157894737,4,2,11,60,0,0
47295,-153.846153846154,4,2,96,60,0,0
47463,-153.846153846154,4,2,10,60,0,0
47631,-105.263157894737,4,2,81,60,0,0
47798,-105.263157894737,4,2,22,60,0,0
47882,-105.263157894737,4,2,1,60,0,0
47965,-105.263157894737,4,2,97,60,0,0
48133,-105.263157894737,4,2,10,60,0,0
48301,-105.263157894737,4,2,79,60,0,0
48468,-105.263157894737,4,2,98,60,0,0
48636,-105.263157894737,4,2,99,60,0,0
48803,-105.263157894737,4,2,10,60,0,0
48971,-105.263157894737,4,2,100,60,0,0
49139,-105.263157894737,4,2,10,60,0,0
49307,-153.846153846154,4,2,101,60,0,0
49474,-153.846153846154,4,2,10,60,0,0
49641,-153.846153846154,4,2,79,60,0,0
49809,-105.263157894737,4,2,11,60,0,0
49977,-105.263157894737,4,2,96,60,0,0
50145,-153.846153846154,4,2,10,60,0,0
50312,-153.846153846154,4,2,102,60,0,0
50479,-153.846153846154,4,2,22,60,0,0
50564,-153.846153846154,4,2,1,60,0,0
50647,-95.2380952380952,4,2,103,60,0,0
50815,-95.2380952380952,4,2,10,60,0,0
50982,-95.2380952380952,4,2,79,60,0,0
51150,-95.2380952380952,4,2,104,60,0,0
51317,-95.2380952380952,4,2,99,60,0,0
51485,-95.2380952380952,4,2,10,60,0,0
51653,-95.2380952380952,4,2,105,60,0,0
51820,-95.2380952380952,4,2,10,60,0,0
51988,-105.263157894737,4,2,106,60,0,0
52155,-105.263157894737,4,2,107,60,0,0
52323,-105.263157894737,4,2,108,60,0,0
52491,-105.263157894737,4,2,109,60,0,0
52658,-105.263157894737,4,2,110,60,0,0
52826,-105.263157894737,4,2,19,60,0,0
52994,-83.3333333333333,4,2,111,60,0,0
53161,-83.3333333333333,4,2,112,60,0,0
53245,-83.3333333333333,4,2,1,60,0,0
53329,-105.263157894737,4,2,83,60,0,0
53496,-105.263157894737,4,2,113,60,0,0
53664,-105.263157894737,4,2,108,60,0,0
53831,-105.263157894737,4,2,13,60,0,0
53999,-105.263157894737,4,2,114,60,0,0
54167,-105.263157894737,4,2,107,60,0,0
54335,-83.3333333333333,4,2,115,60,0,0
54502,-83.3333333333333,4,2,107,60,0,0
54670,-105.263157894737,4,2,116,60,0,0
54837,-105.263157894737,4,2,19,60,0,0
55005,-105.263157894737,4,2,117,60,0,0
55172,-105.263157894737,4,2,27,60,0,0
55340,-105.263157894737,4,2,1,60,0,0
55508,-83.3333333333333,4,2,19,60,0,0
55675,-83.3333333333333,4,2,118,60,0,0
55843,-83.3333333333333,4,2,20,60,0,0
55927,-83.3333333333333,4,2,1,60,0,0
56011,-105.263157894737,4,2,119,60,0,0
56178,-105.263157894737,4,2,19,60,0,0
56345,-105.263157894737,4,2,117,60,0,0
56513,-105.263157894737,4,2,6,60,0,0
56681,-105.263157894737,4,2,1,60,0,0
56848,-105.263157894737,4,2,19,60,0,0
57016,-166.666666666667,4,2,120,60,0,0
57183,-166.666666666667,4,2,15,60,0,0
57267,-166.666666666667,4,2,15,5,0,0
57351,-90.9090909090909,4,2,121,60,0,0
57519,-90.9090909090909,4,2,18,60,0,0
57686,-90.9090909090909,4,2,122,60,0,0
57854,-90.9090909090909,4,2,123,60,0,0
58189,-90.9090909090909,4,2,60,60,0,0
58357,-90.9090909090909,4,2,124,60,0,0
58524,-90.9090909090909,4,2,35,60,0,0
58692,-90.9090909090909,4,2,125,60,0,0
58859,-90.9090909090909,4,2,107,60,0,0
58944,-90.9090909090909,4,2,1,60,0,0
59027,-90.9090909090909,4,2,99,60,0,0
59195,-90.9090909090909,4,2,126,60,0,0
59530,-90.9090909090909,4,2,108,60,0,0
59697,-90.9090909090909,4,2,127,60,0,0
59782,-90.9090909090909,4,2,127,60,0,0
59865,-90.9090909090909,4,2,99,60,0,0
60033,-83.3333333333333,4,2,49,60,0,0
60200,-83.3333333333333,4,2,10,60,0,0
60368,-83.3333333333333,4,2,128,60,0,0
60535,-83.3333333333333,4,2,129,60,0,0
60870,-83.3333333333333,4,2,79,60,0,0
60955,-83.3333333333333,4,2,1,60,0,0
61038,-83.3333333333333,4,2,15,60,0,0
61206,-83.3333333333333,4,2,60,60,0,0
61373,-83.3333333333333,4,2,130,60,0,0
61457,-83.3333333333333,4,2,1,60,0,0
61541,-83.3333333333333,4,2,10,60,0,0
61624,-83.3333333333333,4,2,1,60,0,0
61708,-83.3333333333333,4,2,131,60,0,0
61876,-83.3333333333333,4,2,132,60,0,0
62211,-83.3333333333333,4,2,60,60,0,0
62379,-83.3333333333333,4,2,133,60,0,0
62546,-83.3333333333333,4,2,134,60,0,0
62631,-83.3333333333333,4,2,1,60,0,0
62714,-83.3333333333333,4,2,135,60,0,0
62882,-83.3333333333333,4,2,1,60,0,0
63049,-83.3333333333333,4,2,136,60,0,0
63217,-74.0740740740741,4,2,136,60,0,0
63384,-74.0740740740741,4,2,137,60,0,0
63552,-74.0740740740741,4,2,136,60,0,0
63888,-66.6666666666667,4,2,138,60,0,0
64222,-66.6666666666667,4,2,139,60,0,0
64390,-66.6666666666667,4,2,140,60,0,0
64809,-66.6666666666667,4,2,1,60,0,0
64893,-66.6666666666667,4,2,1,60,0,0
64976,-66.6666666666667,4,2,1,60,0,0
65061,-142.857142857143,4,2,2,60,0,0
65145,-142.857142857143,4,2,1,60,0,0
65228,-142.857142857143,4,2,1,60,0,0
65396,-86.9565217391304,4,2,141,70,0,1
65480,-86.9565217391304,4,2,141,70,0,1
65563,-86.9565217391304,4,2,10,70,0,1
65731,-86.9565217391304,4,2,128,70,0,1
65898,-86.9565217391304,4,2,142,70,0,1
66234,-86.9565217391304,4,2,79,70,0,1
66401,-86.9565217391304,4,2,143,70,0,1
66569,-86.9565217391304,4,2,5,70,0,1
66736,-86.9565217391304,4,2,51,70,0,1
66904,-86.9565217391304,4,2,60,70,0,1
67072,-86.9565217391304,4,2,128,70,0,1
67239,-86.9565217391304,4,2,142,70,0,1
67574,-86.9565217391304,4,2,79,70,0,1
67742,-86.9565217391304,4,2,143,70,0,1
67910,-86.9565217391304,4,2,5,70,0,1
68077,-86.9565217391304,4,2,51,70,0,1
68245,-86.9565217391304,4,2,26,70,0,1
68412,-86.9565217391304,4,2,122,70,0,1
68580,-86.9565217391304,4,2,117,70,0,1
68915,-86.9565217391304,4,2,79,70,0,1
69083,-86.9565217391304,4,2,15,70,0,1
69250,-86.9565217391304,4,2,5,70,0,1
69418,-86.9565217391304,4,2,144,70,0,1
69586,-86.9565217391304,4,2,51,70,0,1
69753,-86.9565217391304,4,2,26,70,0,1
69921,-86.9565217391304,4,2,145,70,0,1
70088,-86.9565217391304,4,2,21,70,0,1
70256,-86.9565217391304,4,2,60,70,0,1
70424,-86.9565217391304,4,2,128,70,0,1
70591,-86.9565217391304,4,2,21,70,0,1
70759,-86.9565217391304,4,2,146,70,0,1
70926,-86.9565217391304,4,2,107,70,0,1
71094,-86.9565217391304,4,2,147,70,0,1
71262,-86.9565217391304,4,2,148,70,0,1
71597,-86.9565217391304,4,2,36,70,0,1
71764,-86.9565217391304,4,2,149,70,0,1
71932,-86.9565217391304,4,2,7,70,0,1
72100,-86.9565217391304,4,2,146,70,0,1
72267,-86.9565217391304,4,2,40,70,0,1
72435,-86.9565217391304,4,2,19,70,0,1
72602,-86.9565217391304,4,2,150,70,0,1
72938,-86.9565217391304,4,2,40,70,0,1
73105,-86.9565217391304,4,2,151,70,0,1
73273,-86.9565217391304,4,2,19,70,0,1
73440,-86.9565217391304,4,2,35,70,0,1
73608,-86.9565217391304,4,2,19,70,0,1
73776,-86.9565217391304,4,2,15,70,0,1
73943,-86.9565217391304,4,2,145,70,0,1
74278,-86.9565217391304,4,2,108,70,0,1
74446,-86.9565217391304,4,2,152,70,0,1
74614,-86.9565217391304,4,2,19,70,0,1
74781,-86.9565217391304,4,2,153,70,0,1
74949,-86.9565217391304,4,2,154,70,0,1
75116,-86.9565217391304,4,2,19,70,0,1
75284,-86.9565217391304,4,2,154,70,0,1
75452,-86.9565217391304,4,2,19,70,0,1
75619,-86.9565217391304,4,2,60,70,0,1
75703,-86.9565217391304,4,2,1,70,0,1
75787,-86.9565217391304,4,2,108,70,0,1
75954,-86.9565217391304,4,2,18,70,0,1
76122,-86.9565217391304,4,2,51,70,0,1
76290,-86.9565217391304,4,2,10,70,0,1
76457,-86.9565217391304,4,2,128,70,0,1
76625,-86.9565217391304,4,2,142,70,0,1
76960,-86.9565217391304,4,2,79,70,0,1
77127,-86.9565217391304,4,2,143,70,0,1
77295,-86.9565217391304,4,2,5,70,0,1
77463,-86.9565217391304,4,2,51,70,0,1
77630,-86.9565217391304,4,2,60,70,0,1
77798,-86.9565217391304,4,2,128,70,0,1
77965,-86.9565217391304,4,2,142,70,0,1
78301,-86.9565217391304,4,2,79,70,0,1
78468,-86.9565217391304,4,2,143,70,0,1
78636,-86.9565217391304,4,2,5,70,0,1
78803,-86.9565217391304,4,2,51,70,0,1
78971,-86.9565217391304,4,2,26,70,0,1
79139,-86.9565217391304,4,2,122,70,0,1
79306,-86.9565217391304,4,2,117,70,0,1
79641,-86.9565217391304,4,2,79,70,0,1
79809,-86.9565217391304,4,2,15,70,0,1
79977,-86.9565217391304,4,2,5,70,0,1
80144,-86.9565217391304,4,2,144,70,0,1
80312,-86.9565217391304,4,2,51,70,0,1
80479,-86.9565217391304,4,2,26,70,0,1
80647,-86.9565217391304,4,2,155,70,0,1
80815,-86.9565217391304,4,2,21,70,0,1
80982,-86.9565217391304,4,2,60,70,0,1
81150,-86.9565217391304,4,2,156,70,0,1
81317,-86.9565217391304,4,2,21,70,0,1
81485,-86.9565217391304,4,2,157,70,0,1
81653,-86.9565217391304,4,2,107,70,0,1
81820,-86.9565217391304,4,2,147,70,0,1
81988,-86.9565217391304,4,2,148,70,0,1
82323,-86.9565217391304,4,2,36,70,0,1
82491,-86.9565217391304,4,2,149,70,0,1
82658,-86.9565217391304,4,2,7,70,0,1
82826,-86.9565217391304,4,2,158,70,0,1
82993,-86.9565217391304,4,2,40,70,0,1
83161,-86.9565217391304,4,2,19,70,0,1
83329,-86.9565217391304,4,2,150,70,0,1
83664,-86.9565217391304,4,2,40,70,0,1
83831,-86.9565217391304,4,2,151,70,0,1
83999,-86.9565217391304,4,2,19,70,0,1
84167,-86.9565217391304,4,2,35,70,0,1
84334,-86.9565217391304,4,2,19,70,0,1
84502,-86.9565217391304,4,2,15,70,0,1
84669,-86.9565217391304,4,2,145,70,0,1
85005,-86.9565217391304,4,2,108,70,0,1
85172,-86.9565217391304,4,2,152,70,0,1
85340,-86.9565217391304,4,2,19,70,0,1
85507,-86.9565217391304,4,2,144,70,0,1
85675,-86.9565217391304,4,2,154,70,0,1
85843,-86.9565217391304,4,2,128,70,0,1
86010,-86.9565217391304,4,2,154,70,0,1
86178,-86.9565217391304,4,2,1,70,0,1
86345,-86.9565217391304,4,2,108,70,0,1
86430,-86.9565217391304,4,2,1,70,0,1
86513,-86.9565217391304,4,2,35,70,0,1
86681,-86.9565217391304,4,2,25,70,0,1
86848,-86.9565217391304,4,2,159,70,0,1
87016,-86.9565217391304,4,2,18,70,0,1
87184,-86.9565217391304,4,2,26,70,0,1
87351,-86.9565217391304,4,2,79,70,0,1
87519,-86.9565217391304,4,2,128,70,0,1
87686,-86.9565217391304,4,2,144,70,0,1
87854,-80,4,2,156,70,0,1
88021,-80,4,2,117,70,0,1
88189,-80,4,2,113,70,0,1
88357,-80,4,2,40,70,0,1
88524,-80,4,2,19,70,0,1
88692,-80,4,2,99,70,0,1
88859,-80,4,2,160,70,0,1
89027,-80,4,2,155,70,0,1
89195,-80,4,2,161,70,0,1
89362,-80,4,2,145,70,0,1
89530,-66.6666666666667,4,2,48,70,0,1
89697,-66.6666666666667,4,2,60,70,0,1
89865,-66.6666666666667,4,2,79,70,0,1
90033,-66.6666666666667,4,2,128,70,0,1
90200,-66.6666666666667,4,2,154,70,0,1
90368,-66.6666666666667,4,2,162,70,0,1
90535,-66.6666666666667,4,2,163,70,0,1
90703,-66.6666666666667,4,2,164,70,0,1
90787,-66.6666666666667,4,2,1,70,0,1
90871,-66.6666666666667,4,2,165,70,0,1
92044,-66.6666666666667,4,2,166,70,0,1
92128,-66.6666666666667,4,2,1,70,0,1
92212,-86.9565217391304,4,2,167,70,0,0
92379,-86.9565217391304,4,2,108,70,0,0
92547,-86.9565217391304,4,2,154,70,0,0
92714,-86.9565217391304,4,2,168,70,0,0
92882,-86.9565217391304,4,2,35,70,0,0
93049,-86.9565217391304,4,2,108,70,0,0
93217,-86.9565217391304,4,2,4,70,0,0
93384,-86.9565217391304,4,2,35,70,0,0
93469,-86.9565217391304,4,2,1,70,0,0
93552,-86.9565217391304,4,2,44,70,0,0
93720,-86.9565217391304,4,2,60,70,0,0
93804,-86.9565217391304,4,2,1,70,0,0
93887,-86.9565217391304,4,2,100,70,0,0
94055,-86.9565217391304,4,2,48,70,0,0
94222,-86.9565217391304,4,2,68,70,0,0
94390,-86.9565217391304,4,2,108,70,0,0
94558,-86.9565217391304,4,2,169,70,0,0
94725,-86.9565217391304,4,2,60,70,0,0
94893,-86.9565217391304,4,2,170,70,0,0
95060,-86.9565217391304,4,2,36,70,0,0
95228,-86.9565217391304,4,2,145,70,0,0
95396,-86.9565217391304,4,2,171,70,0,0
95563,-86.9565217391304,4,2,166,70,0,0
95731,-86.9565217391304,4,2,36,70,0,0
95898,-86.9565217391304,4,2,29,70,0,0
96066,-86.9565217391304,4,2,99,70,0,0
96234,-86.9565217391304,4,2,172,70,0,0
96401,-86.9565217391304,4,2,99,70,0,0
96569,-86.9565217391304,4,2,4,70,0,0
96736,-86.9565217391304,4,2,88,70,0,0
96904,-86.9565217391304,4,2,173,70,0,0
97072,-86.9565217391304,4,2,154,70,0,0
97239,-86.9565217391304,4,2,88,70,0,0
97407,-86.9565217391304,4,2,99,70,0,0
97491,-86.9565217391304,4,2,1,70,0,0
97574,-86.9565217391304,4,2,159,70,0,0
97742,-86.9565217391304,4,2,18,70,0,0
97910,-86.9565217391304,4,2,36,70,0,0
98077,-86.9565217391304,4,2,5,70,0,0
98245,-86.9565217391304,4,2,117,70,0,0
98412,-86.9565217391304,4,2,8,70,0,0
98580,-86.9565217391304,4,2,162,70,0,0
98748,-86.9565217391304,4,2,1,70,0,0
98915,-86.9565217391304,4,2,146,70,0,0
99083,-86.9565217391304,4,2,16,70,0,0
99251,-100,4,2,91,70,0,0
99418,-100,4,2,11,70,0,0
99586,-100,4,2,145,70,0,0
99753,-100,4,2,12,70,0,0
99921,-100,4,2,174,70,0,0
100088,-100,4,2,27,70,0,0
100256,-100,4,2,51,70,0,0
100424,-100,4,2,10,70,0,0
100592,-74.0740740740741,4,2,23,70,0,0
100759,-74.0740740740741,4,2,20,70,0,0
100926,-74.0740740740741,4,2,58,70,0,0
101094,-74.0740740740741,4,2,76,70,0,0
101262,-74.0740740740741,4,2,175,70,0,0
101429,-74.0740740740741,4,2,176,70,0,0
101513,-74.0740740740741,4,2,1,70,0,0
101597,-74.0740740740741,4,2,29,70,0,0
101764,-74.0740740740741,4,2,55,70,0,0
101932,-74.0740740740741,4,2,56,70,0,0
102016,-74.0740740740741,4,2,59,70,0,0
102100,-74.0740740740741,4,2,175,70,0,0
102183,-74.0740740740741,4,2,177,70,0,0
102267,-74.0740740740741,4,2,59,70,0,0
102351,-74.0740740740741,4,2,177,70,0,0
102435,-74.0740740740741,4,2,176,70,0,0
102519,-74.0740740740741,4,2,178,70,0,0
102603,-100,4,2,179,70,0,0
102686,-100,4,2,180,70,0,0
102770,-100,4,2,181,70,0,0
102854,-100,4,2,182,70,0,0
102938,-111.111111111111,4,2,183,60,0,0
103105,-111.111111111111,4,2,11,60,0,0
103273,-111.111111111111,4,2,154,60,0,0
103440,-111.111111111111,4,2,62,60,0,0
103608,-111.111111111111,4,2,1,60,0,0
103776,-111.111111111111,4,2,56,60,0,0
103943,-111.111111111111,4,2,184,60,0,0
104111,-111.111111111111,4,2,185,60,0,0
104278,-111.111111111111,4,2,186,60,0,0
104446,-111.111111111111,4,2,71,60,0,0
104530,-111.111111111111,4,2,1,60,0,0
104614,-111.111111111111,4,2,187,60,0,0
104781,-111.111111111111,4,2,58,60,0,0
104949,-111.111111111111,4,2,1,60,0,0
105116,-111.111111111111,4,2,71,60,0,0
105201,-111.111111111111,4,2,1,60,0,0
105284,-111.111111111111,4,2,150,60,0,0
105452,-111.111111111111,4,2,88,60,0,0
105619,-111.111111111111,4,2,188,60,0,0
105787,-111.111111111111,4,2,23,60,0,0
105954,-111.111111111111,4,2,154,60,0,0
106122,-111.111111111111,4,2,66,60,0,0
106290,-111.111111111111,4,2,1,60,0,0
106457,-111.111111111111,4,2,23,60,0,0
106625,-111.111111111111,4,2,187,60,0,0
106792,-111.111111111111,4,2,95,60,0,0
106960,-111.111111111111,4,2,189,60,0,0
107128,-111.111111111111,4,2,74,60,0,0
107212,-111.111111111111,4,2,1,60,0,0
107295,-111.111111111111,4,2,144,60,0,0
107463,-111.111111111111,4,2,62,60,0,0
107630,-111.111111111111,4,2,144,60,0,0
107798,-111.111111111111,4,2,23,60,0,0
107883,-111.111111111111,4,2,1,60,0,0
107966,-111.111111111111,4,2,187,60,0,0
108133,-111.111111111111,4,2,73,60,0,0
108301,-111.111111111111,4,2,60,60,0,0
108468,-111.111111111111,4,2,11,60,0,0
108636,-111.111111111111,4,2,154,60,0,0
108804,-111.111111111111,4,2,62,60,0,0
108971,-111.111111111111,4,2,1,60,0,0
109139,-111.111111111111,4,2,56,60,0,0
109306,-111.111111111111,4,2,184,60,0,0
109474,-111.111111111111,4,2,58,60,0,0
109642,-111.111111111111,4,2,186,60,0,0
109809,-111.111111111111,4,2,71,60,0,0
109893,-111.111111111111,4,2,1,60,0,0
109977,-111.111111111111,4,2,187,60,0,0
110144,-111.111111111111,4,2,58,60,0,0
110312,-111.111111111111,4,2,1,60,0,0
110479,-111.111111111111,4,2,71,60,0,0
110564,-111.111111111111,4,2,1,60,0,0
110647,-111.111111111111,4,2,150,60,0,0
110815,-111.111111111111,4,2,88,60,0,0
110982,-111.111111111111,4,2,188,60,0,0
111150,-111.111111111111,4,2,55,60,0,0
111317,-111.111111111111,4,2,79,60,0,0
111485,-111.111111111111,4,2,66,60,0,0
111653,-111.111111111111,4,2,1,60,0,0
111820,-111.111111111111,4,2,23,60,0,0
111988,-111.111111111111,4,2,187,60,0,0
112155,-111.111111111111,4,2,95,60,0,0
112323,-111.111111111111,4,2,189,60,0,0
112491,-111.111111111111,4,2,74,60,0,0
112575,-111.111111111111,4,2,1,60,0,0
112658,-111.111111111111,4,2,72,60,0,0
112826,-111.111111111111,4,2,66,60,0,0
112993,-111.111111111111,4,2,190,60,0,0
113161,-111.111111111111,4,2,191,60,0,0
113246,-111.111111111111,4,2,1,60,0,0
113329,-83.3333333333333,4,2,63,60,0,0
113496,-83.3333333333333,4,2,70,60,0,0
113664,-111.111111111111,4,2,183,60,0,0
113831,-111.111111111111,4,2,7,60,0,0
113999,-111.111111111111,4,2,15,60,0,0
114167,-111.111111111111,4,2,61,60,0,0
114335,-111.111111111111,4,2,1,60,0,0
114502,-111.111111111111,4,2,144,60,0,0
114669,-111.111111111111,4,2,61,60,0,0
114837,-111.111111111111,4,2,63,60,0,0
115005,-111.111111111111,4,2,192,60,0,0
115172,-111.111111111111,4,2,189,60,0,0
115340,-111.111111111111,4,2,70,60,0,0
115507,-111.111111111111,4,2,15,60,0,0
115675,-111.111111111111,4,2,1,60,0,0
115843,-111.111111111111,4,2,189,60,0,0
116010,-111.111111111111,4,2,193,60,0,0
116178,-111.111111111111,4,2,10,60,0,0
116345,-111.111111111111,4,2,194,60,0,0
116513,-111.111111111111,4,2,5,60,0,0
116681,-111.111111111111,4,2,15,60,0,0
116848,-111.111111111111,4,2,70,60,0,0
117017,-111.111111111111,4,2,1,60,0,0
117183,-111.111111111111,4,2,79,60,0,0
117351,-111.111111111111,4,2,70,60,0,0
117519,-111.111111111111,4,2,122,60,0,0
117686,-111.111111111111,4,2,195,60,0,0
117854,-111.111111111111,4,2,99,60,0,0
118021,-111.111111111111,4,2,70,60,0,0
118189,-111.111111111111,4,2,61,60,0,0
118357,-111.111111111111,4,2,144,60,0,0
118524,-111.111111111111,4,2,187,60,0,0
118692,-111.111111111111,4,2,95,60,0,0
118859,-111.111111111111,4,2,85,60,0,0
119027,-111.111111111111,4,2,196,60,0,0
119195,-111.111111111111,4,2,84,60,0,0
119362,-111.111111111111,4,2,197,60,0,0
119530,-111.111111111111,4,2,85,60,0,0
119697,-111.111111111111,4,2,68,60,0,0
119865,-111.111111111111,4,2,189,60,0,0
120033,-111.111111111111,4,2,193,60,0,0
120200,-111.111111111111,4,2,58,60,0,0
120368,-111.111111111111,4,2,198,60,0,0
120535,-111.111111111111,4,2,51,60,0,0
120703,-111.111111111111,4,2,85,60,0,0
120871,-111.111111111111,4,2,22,60,0,0
121038,-111.111111111111,4,2,36,60,0,0
121206,-111.111111111111,4,2,189,60,0,0
121373,-111.111111111111,4,2,95,60,0,0
121541,-111.111111111111,4,2,66,60,0,0
121709,-111.111111111111,4,2,199,60,0,0
121876,-111.111111111111,4,2,25,60,0,0
122044,-95.2380952380952,4,2,92,60,0,0
122211,-95.2380952380952,4,2,36,60,0,0
122379,-95.2380952380952,4,2,19,60,0,0
122547,-95.2380952380952,4,2,60,60,0,0
122631,-95.2380952380952,4,2,1,60,0,0
122714,-95.2380952380952,4,2,147,60,0,0
122882,-95.2380952380952,4,2,60,60,0,0
123049,-95.2380952380952,4,2,15,60,0,0
123217,-95.2380952380952,4,2,162,60,0,0
123385,-95.2380952380952,4,2,2,60,0,0
123552,-95.2380952380952,4,2,15,60,0,0
123720,-95.2380952380952,4,2,147,60,0,0
123887,-95.2380952380952,4,2,200,60,0,0
124055,-95.2380952380952,4,2,19,60,0,0
124138,-95.2380952380952,4,2,19,60,0,0
124223,-95.2380952380952,4,2,60,60,0,0
124390,-105.263157894737,4,2,49,60,0,0
124558,-105.263157894737,4,2,10,60,0,0
124725,-105.263157894737,4,2,79,60,0,0
124893,-105.263157894737,4,2,11,60,0,0
125061,-153.846153846154,4,2,96,60,0,0
125228,-153.846153846154,4,2,10,60,0,0
125396,-105.263157894737,4,2,81,60,0,0
125563,-105.263157894737,4,2,22,60,0,0
125647,-105.263157894737,4,2,1,60,0,0
125731,-105.263157894737,4,2,97,60,0,0
125899,-105.263157894737,4,2,10,60,0,0
126066,-105.263157894737,4,2,79,60,0,0
126234,-105.263157894737,4,2,98,60,0,0
126401,-105.263157894737,4,2,99,60,0,0
126569,-105.263157894737,4,2,10,60,0,0
126737,-105.263157894737,4,2,100,60,0,0
126904,-105.263157894737,4,2,10,60,0,0
127072,-153.846153846154,4,2,101,60,0,0
127239,-153.846153846154,4,2,10,60,0,0
127407,-153.846153846154,4,2,79,60,0,0
127575,-105.263157894737,4,2,11,60,0,0
127742,-105.263157894737,4,2,96,60,0,0
127910,-153.846153846154,4,2,10,60,0,0
128077,-153.846153846154,4,2,102,60,0,0
128245,-153.846153846154,4,2,22,60,0,0
128329,-153.846153846154,4,2,1,60,0,0
128413,-105.263157894737,4,2,103,60,0,0
128580,-105.263157894737,4,2,10,60,0,0
128748,-105.263157894737,4,2,79,60,0,0
128915,-105.263157894737,4,2,104,60,0,0
129083,-105.263157894737,4,2,99,60,0,0
129250,-105.263157894737,4,2,10,60,0,0
129418,-105.263157894737,4,2,105,60,0,0
129586,-105.263157894737,4,2,10,60,0,0
129753,-105.263157894737,4,2,106,60,0,0
129921,-105.263157894737,4,2,107,60,0,0
130088,-105.263157894737,4,2,108,60,0,0
130256,-105.263157894737,4,2,109,60,0,0
130424,-105.263157894737,4,2,110,60,0,0
130591,-105.263157894737,4,2,19,60,0,0
130759,-83.3333333333333,4,2,111,60,0,0
130926,-83.3333333333333,4,2,112,60,0,0
131010,-83.3333333333333,4,2,1,60,0,0
131094,-105.263157894737,4,2,83,60,0,0
131262,-105.263157894737,4,2,113,60,0,0
131429,-105.263157894737,4,2,108,60,0,0
131597,-105.263157894737,4,2,13,60,0,0
131764,-105.263157894737,4,2,114,60,0,0
131932,-105.263157894737,4,2,107,60,0,0
132100,-83.3333333333333,4,2,115,60,0,0
132267,-83.3333333333333,4,2,107,60,0,0
132435,-105.263157894737,4,2,116,60,0,0
132602,-105.263157894737,4,2,19,60,0,0
132770,-105.263157894737,4,2,117,60,0,0
132938,-105.263157894737,4,2,27,60,0,0
133105,-105.263157894737,4,2,1,60,0,0
133273,-83.3333333333333,4,2,19,60,0,0
133440,-83.3333333333333,4,2,118,60,0,0
133608,-83.3333333333333,4,2,20,60,0,0
133692,-83.3333333333333,4,2,1,60,0,0
133776,-105.263157894737,4,2,119,60,0,0
133943,-105.263157894737,4,2,19,60,0,0
134111,-105.263157894737,4,2,117,60,0,0
134278,-105.263157894737,4,2,6,60,0,0
134446,-105.263157894737,4,2,1,60,0,0
134614,-105.263157894737,4,2,19,60,0,0
134782,-166.666666666667,4,2,120,60,0,0
134949,-166.666666666667,4,2,15,60,0,0
135033,-166.666666666667,4,2,15,5,0,0
135117,-90.9090909090909,4,2,121,60,0,0
135284,-90.9090909090909,4,2,18,60,0,0
135452,-90.9090909090909,4,2,122,60,0,0
135619,-90.9090909090909,4,2,123,60,0,0
135954,-90.9090909090909,4,2,60,60,0,0
136122,-90.9090909090909,4,2,124,60,0,0
136290,-90.9090909090909,4,2,35,60,0,0
136457,-90.9090909090909,4,2,138,60,0,0
136625,-90.9090909090909,4,2,107,60,0,0
136709,-90.9090909090909,4,2,1,60,0,0
136792,-90.9090909090909,4,2,99,60,0,0
136960,-90.9090909090909,4,2,126,60,0,0
137295,-90.9090909090909,4,2,108,60,0,0
137463,-90.9090909090909,4,2,127,60,0,0
137547,-90.9090909090909,4,2,127,60,0,0
137630,-90.9090909090909,4,2,99,60,0,0
137798,-83.3333333333333,4,2,49,60,0,0
137966,-83.3333333333333,4,2,10,60,0,0
138133,-83.3333333333333,4,2,128,60,0,0
138301,-83.3333333333333,4,2,129,60,0,0
138636,-83.3333333333333,4,2,79,60,0,0
138720,-83.3333333333333,4,2,1,60,0,0
138804,-83.3333333333333,4,2,15,60,0,0
138971,-83.3333333333333,4,2,60,60,0,0
139139,-83.3333333333333,4,2,130,60,0,0
139222,-83.3333333333333,4,2,1,60,0,0
139306,-83.3333333333333,4,2,10,60,0,0
139389,-83.3333333333333,4,2,1,60,0,0
139474,-83.3333333333333,4,2,131,60,0,0
139642,-83.3333333333333,4,2,132,60,0,0
139977,-83.3333333333333,4,2,60,60,0,0
140144,-83.3333333333333,4,2,133,60,0,0
140312,-83.3333333333333,4,2,134,60,0,0
140396,-83.3333333333333,4,2,1,60,0,0
140480,-83.3333333333333,4,2,135,60,0,0
140647,-83.3333333333333,4,2,1,60,0,0
140815,-83.3333333333333,4,2,136,60,0,0
140983,-74.0740740740741,4,2,136,60,0,0
141150,-74.0740740740741,4,2,137,60,0,0
141318,-74.0740740740741,4,2,136,60,0,0
141653,-66.6666666666667,4,2,138,60,0,0
141988,-66.6666666666667,4,2,139,60,0,0
142156,-66.6666666666667,4,2,201,60,0,0
142323,-66.6666666666667,4,2,107,60,0,0
142491,-66.6666666666667,4,2,2,60,0,0
142575,-66.6666666666667,4,2,202,60,0,0
142658,-66.6666666666667,4,2,203,70,0,0
142741,-66.6666666666667,4,2,108,70,0,0
142826,-86.9565217391304,4,2,204,70,0,0
142910,-86.9565217391304,4,2,205,70,0,0
142994,-86.9565217391304,4,2,113,70,0,0
143077,-86.9565217391304,4,2,107,70,0,0
143161,-86.9565217391304,4,2,141,70,0,1
143329,-86.9565217391304,4,2,10,70,0,1
143496,-86.9565217391304,4,2,128,70,0,1
143664,-86.9565217391304,4,2,142,70,0,1
143999,-86.9565217391304,4,2,79,70,0,1
144167,-86.9565217391304,4,2,143,70,0,1
144334,-86.9565217391304,4,2,5,70,0,1
144502,-86.9565217391304,4,2,51,70,0,1
144669,-86.9565217391304,4,2,60,70,0,1
144837,-86.9565217391304,4,2,128,70,0,1
145005,-86.9565217391304,4,2,142,70,0,1
145340,-86.9565217391304,4,2,79,70,0,1
145507,-86.9565217391304,4,2,143,70,0,1
145675,-86.9565217391304,4,2,5,70,0,1
145843,-86.9565217391304,4,2,206,70,0,1
146010,-86.9565217391304,4,2,26,70,0,1
146178,-86.9565217391304,4,2,122,70,0,1
146345,-86.9565217391304,4,2,117,70,0,1
146681,-86.9565217391304,4,2,79,70,0,1
146848,-86.9565217391304,4,2,15,70,0,1
147016,-86.9565217391304,4,2,5,70,0,1
147183,-86.9565217391304,4,2,144,70,0,1
147351,-86.9565217391304,4,2,51,70,0,1
147519,-86.9565217391304,4,2,26,70,0,1
147686,-86.9565217391304,4,2,145,70,0,1
147854,-86.9565217391304,4,2,21,70,0,1
148021,-86.9565217391304,4,2,60,70,0,1
148189,-86.9565217391304,4,2,128,70,0,1
148357,-86.9565217391304,4,2,21,70,0,1
148524,-86.9565217391304,4,2,138,70,0,1
148692,-86.9565217391304,4,2,107,70,0,1
148859,-86.9565217391304,4,2,147,70,0,1
149027,-86.9565217391304,4,2,148,70,0,1
149362,-86.9565217391304,4,2,36,70,0,1
149530,-86.9565217391304,4,2,149,70,0,1
149697,-86.9565217391304,4,2,7,70,0,1
149865,-86.9565217391304,4,2,138,70,0,1
150033,-86.9565217391304,4,2,40,70,0,1
150200,-86.9565217391304,4,2,19,70,0,1
150368,-86.9565217391304,4,2,150,70,0,1
150703,-86.9565217391304,4,2,40,70,0,1
150871,-86.9565217391304,4,2,151,70,0,1
151038,-86.9565217391304,4,2,19,70,0,1
151206,-86.9565217391304,4,2,116,70,0,1
151373,-86.9565217391304,4,2,19,70,0,1
151541,-86.9565217391304,4,2,15,70,0,1
151709,-86.9565217391304,4,2,145,70,0,1
152044,-86.9565217391304,4,2,108,70,0,1
152211,-86.9565217391304,4,2,152,70,0,1
152379,-86.9565217391304,4,2,19,70,0,1
152547,-86.9565217391304,4,2,153,70,0,1
152714,-86.9565217391304,4,2,154,70,0,1
152882,-86.9565217391304,4,2,19,70,0,1
153049,-86.9565217391304,4,2,154,70,0,1
153217,-86.9565217391304,4,2,19,70,0,1
153385,-86.9565217391304,4,2,60,70,0,1
153469,-86.9565217391304,4,2,1,70,0,1
153552,-86.9565217391304,4,2,108,70,0,1
153720,-86.9565217391304,4,2,18,70,0,1
153887,-86.9565217391304,4,2,49,70,0,1
154055,-86.9565217391304,4,2,10,70,0,1
154223,-86.9565217391304,4,2,128,70,0,1
154390,-86.9565217391304,4,2,142,70,0,1
154725,-86.9565217391304,4,2,79,70,0,1
154893,-86.9565217391304,4,2,143,70,0,1
155061,-86.9565217391304,4,2,5,70,0,1
155228,-86.9565217391304,4,2,51,70,0,1
155396,-86.9565217391304,4,2,60,70,0,1
155563,-86.9565217391304,4,2,128,70,0,1
155731,-86.9565217391304,4,2,142,70,0,1
156066,-86.9565217391304,4,2,79,70,0,1
156234,-86.9565217391304,4,2,143,70,0,1
156401,-86.9565217391304,4,2,5,70,0,1
156569,-86.9565217391304,4,2,206,70,0,1
156737,-86.9565217391304,4,2,26,70,0,1
156904,-86.9565217391304,4,2,122,70,0,1
157072,-86.9565217391304,4,2,117,70,0,1
157407,-86.9565217391304,4,2,79,70,0,1
157575,-86.9565217391304,4,2,15,70,0,1
157742,-86.9565217391304,4,2,5,70,0,1
157910,-86.9565217391304,4,2,144,70,0,1
158077,-86.9565217391304,4,2,51,70,0,1
158245,-86.9565217391304,4,2,26,70,0,1
158413,-86.9565217391304,4,2,155,70,0,1
158580,-86.9565217391304,4,2,21,70,0,1
158748,-86.9565217391304,4,2,60,70,0,1
158915,-86.9565217391304,4,2,156,70,0,1
159083,-86.9565217391304,4,2,21,70,0,1
159251,-86.9565217391304,4,2,207,70,0,1
159418,-86.9565217391304,4,2,107,70,0,1
159586,-86.9565217391304,4,2,147,70,0,1
159753,-86.9565217391304,4,2,148,70,0,1
160089,-86.9565217391304,4,2,36,70,0,1
160256,-86.9565217391304,4,2,149,70,0,1
160424,-86.9565217391304,4,2,7,70,0,1
160591,-86.9565217391304,4,2,106,70,0,1
160759,-86.9565217391304,4,2,40,70,0,1
160926,-86.9565217391304,4,2,19,70,0,1
161094,-86.9565217391304,4,2,150,70,0,1
161429,-86.9565217391304,4,2,40,70,0,1
161597,-86.9565217391304,4,2,151,70,0,1
161764,-86.9565217391304,4,2,19,70,0,1
161932,-86.9565217391304,4,2,116,70,0,1
162100,-86.9565217391304,4,2,19,70,0,1
162267,-86.9565217391304,4,2,15,70,0,1
162435,-86.9565217391304,4,2,145,70,0,1
162770,-86.9565217391304,4,2,108,70,0,1
162938,-86.9565217391304,4,2,152,70,0,1
163105,-86.9565217391304,4,2,19,70,0,1
163273,-86.9565217391304,4,2,144,70,0,1
163440,-86.9565217391304,4,2,154,70,0,1
163608,-86.9565217391304,4,2,128,70,0,1
163776,-86.9565217391304,4,2,154,70,0,1
163943,-86.9565217391304,4,2,1,70,0,1
164111,-86.9565217391304,4,2,108,70,0,1
164195,-86.9565217391304,4,2,1,70,0,1
164278,-86.9565217391304,4,2,35,70,0,1
164446,-86.9565217391304,4,2,25,70,0,1
164614,-86.9565217391304,4,2,121,70,0,1
164781,-86.9565217391304,4,2,18,70,0,1
164949,-86.9565217391304,4,2,26,70,0,1
165116,-86.9565217391304,4,2,79,70,0,1
165284,-86.9565217391304,4,2,128,70,0,1
165452,-86.9565217391304,4,2,144,70,0,1
165620,-80,4,2,156,70,0,1
165787,-80,4,2,117,70,0,1
165954,-80,4,2,208,70,0,1
166122,-80,4,2,40,70,0,1
166290,-80,4,2,19,70,0,1
166457,-80,4,2,99,70,0,1
166625,-80,4,2,160,70,0,1
166792,-80,4,2,155,70,0,1
166960,-80,4,2,161,70,0,1
167128,-80,4,2,145,70,0,1
167295,-66.6666666666667,4,2,44,70,0,1
167463,-66.6666666666667,4,2,60,70,0,1
167630,-66.6666666666667,4,2,79,70,0,1
167798,-66.6666666666667,4,2,128,70,0,1
167966,-66.6666666666667,4,2,154,70,0,1
168133,-66.6666666666667,4,2,162,70,0,1
168301,-68.9655172413793,4,2,163,70,0,1
168385,-68.9655172413793,4,2,163,70,0,1
168468,-68.9655172413793,4,2,164,70,0,1
168552,-68.9655172413793,4,2,1,70,0,1
168636,-68.9655172413793,4,2,209,70,0,1
168804,-83.3333333333333,4,2,210,70,0,1
168888,-83.3333333333333,4,2,210,70,0,1
168971,-83.3333333333333,4,2,153,70,0,1
169139,-83.3333333333333,4,2,144,70,0,1
169306,-83.3333333333333,4,2,160,70,0,1
169390,-83.3333333333333,4,2,1,70,0,1
169474,-83.3333333333333,4,2,7,70,0,1
169558,-83.3333333333333,4,2,1,70,0,1
169642,-66.6666666666667,4,2,26,70,0,1
169809,-66.6666666666667,4,2,25,70,0,1
169977,-66.6666666666667,4,2,211,70,0,0
170061,-66.6666666666667,4,2,1,70,0,0
170312,-66.6666666666667,4,2,35,70,0,0
170396,-66.6666666666667,4,2,10,70,0,0
170480,-66.6666666666667,4,2,30,70,0,0
170563,-66.6666666666667,4,2,20,70,0,0
170647,-86.9565217391304,4,2,108,70,0,0
170731,-86.9565217391304,4,2,1,70,0,0
170815,-86.9565217391304,4,2,12,70,0,0
170899,-86.9565217391304,4,2,175,70,0,0
170982,-86.9565217391304,4,2,117,70,0,0
171066,-86.9565217391304,4,2,2,70,0,0
171150,-86.9565217391304,4,2,175,70,0,0
171234,-86.9565217391304,4,2,212,70,0,0
171318,-86.9565217391304,4,2,164,70,0,0
171401,-86.9565217391304,4,2,210,70,0,0
171485,-86.9565217391304,4,2,175,70,0,0
171569,-86.9565217391304,4,2,12,70,0,0
171653,-86.9565217391304,4,2,154,70,0,0
171737,-86.9565217391304,4,2,160,70,0,0
171820,-86.9565217391304,4,2,20,70,0,0
171904,-86.9565217391304,4,2,30,70,0,0
171988,-86.9565217391304,4,2,60,70,0,0
172072,-86.9565217391304,4,2,107,70,0,0
172156,-86.9565217391304,4,2,213,70,0,0
172239,-86.9565217391304,4,2,112,70,0,0
172323,-86.9565217391304,4,2,214,70,0,0
172407,-86.9565217391304,4,2,1,70,0,0
172658,-86.9565217391304,4,2,215,70,0,0
172742,-86.9565217391304,4,2,1,70,0,0
172994,-86.9565217391304,4,2,186,70,0,0
173077,-86.9565217391304,4,2,19,70,0,0
173161,-86.9565217391304,4,2,67,70,0,0
173245,-86.9565217391304,4,2,27,70,0,0
173329,-86.9565217391304,4,2,150,70,0,0
173413,-86.9565217391304,4,2,160,70,0,0
173496,-86.9565217391304,4,2,12,70,0,0
173580,-86.9565217391304,4,2,216,70,0,0
173664,-86.9565217391304,4,2,145,70,0,0
173748,-86.9565217391304,4,2,2,70,0,0
173832,-86.9565217391304,4,2,217,70,0,0
173915,-86.9565217391304,4,2,218,70,0,0
173999,-86.9565217391304,4,2,219,70,0,0
174083,-86.9565217391304,4,2,163,70,0,0
174167,-86.9565217391304,4,2,217,70,0,0
174251,-86.9565217391304,4,2,12,70,0,0
174334,-86.9565217391304,4,2,145,70,0,0
174418,-86.9565217391304,4,2,203,70,0,0
174502,-86.9565217391304,4,2,109,70,0,0
174586,-86.9565217391304,4,2,30,70,0,0
174670,-86.9565217391304,4,2,40,70,0,0
174753,-86.9565217391304,4,2,205,70,0,0
174837,-86.9565217391304,4,2,220,70,0,0
174921,-86.9565217391304,4,2,112,70,0,0
175005,-86.9565217391304,4,2,221,70,0,0
175089,-86.9565217391304,4,2,1,70,0,0
175340,-86.9565217391304,4,2,222,70,0,0
175424,-86.9565217391304,4,2,1,70,0,0
175675,-86.9565217391304,4,2,166,70,0,0
175759,-86.9565217391304,4,2,10,70,0,0
175843,-86.9565217391304,4,2,55,70,0,0
175927,-86.9565217391304,4,2,30,70,0,0
176010,-86.9565217391304,4,2,99,70,0,0
176094,-86.9565217391304,4,2,15,70,0,0
176178,-86.9565217391304,4,2,56,70,0,0
176262,-86.9565217391304,4,2,12,70,0,0
176346,-86.9565217391304,4,2,99,70,0,0
176429,-86.9565217391304,4,2,15,70,0,0
176513,-86.9565217391304,4,2,12,70,0,0
176597,-86.9565217391304,4,2,174,70,0,0
176681,-86.9565217391304,4,2,164,70,0,0
176765,-86.9565217391304,4,2,161,70,0,0
176848,-86.9565217391304,4,2,12,70,0,0
176932,-86.9565217391304,4,2,58,70,0,0
177016,-86.9565217391304,4,2,99,70,0,0
177100,-86.9565217391304,4,2,19,70,0,0
177183,-86.9565217391304,4,2,55,70,0,0
177267,-86.9565217391304,4,2,30,70,0,0
177351,-86.9565217391304,4,2,60,70,0,0
177435,-86.9565217391304,4,2,19,70,0,0
177519,-86.9565217391304,4,2,55,70,0,0
177602,-86.9565217391304,4,2,22,70,0,0
177686,-86.9565217391304,4,2,166,70,0,0
177770,-86.9565217391304,4,2,1,70,0,0
178021,-86.9565217391304,4,2,223,70,0,0
178106,-86.9565217391304,4,2,1,70,0,0
178357,-86.9565217391304,4,2,224,70,0,0
178440,-86.9565217391304,4,2,18,70,0,0
178524,-86.9565217391304,4,2,55,70,0,0
178608,-86.9565217391304,4,2,30,70,0,0
178692,-86.9565217391304,4,2,114,70,0,0
178776,-86.9565217391304,4,2,1,70,0,0
178859,-86.9565217391304,4,2,56,70,0,0
178943,-86.9565217391304,4,2,20,70,0,0
179027,-86.9565217391304,4,2,144,70,0,0
179111,-86.9565217391304,4,2,2,70,0,0
179195,-86.9565217391304,4,2,216,70,0,0
179278,-86.9565217391304,4,2,174,70,0,0
179362,-86.9565217391304,4,2,225,70,0,0
179446,-86.9565217391304,4,2,226,70,0,0
179530,-86.9565217391304,4,2,56,70,0,0
179614,-86.9565217391304,4,2,20,70,0,0
179697,-86.9565217391304,4,2,114,70,0,0
179781,-86.9565217391304,4,2,19,70,0,0
179865,-86.9565217391304,4,2,55,70,0,0
179949,-86.9565217391304,4,2,213,70,0,0
180033,-86.9565217391304,4,2,166,70,0,0
180116,-86.9565217391304,4,2,227,70,0,0
180200,-86.9565217391304,4,2,228,70,0,0
180284,-86.9565217391304,4,2,229,70,0,0
180368,-86.9565217391304,4,2,230,70,0,0
180452,-86.9565217391304,4,2,1,70,0,0
180703,-86.9565217391304,4,2,231,70,0,0
180787,-86.9565217391304,4,2,1,70,0,0
181038,-86.9565217391304,4,2,159,70,0,0
181122,-86.9565217391304,4,2,18,70,0,0
181206,-86.9565217391304,4,2,55,70,0,0
181290,-86.9565217391304,4,2,23,70,0,0
181373,-86.9565217391304,4,2,36,70,0,0
181457,-86.9565217391304,4,2,5,70,0,0
181541,-86.9565217391304,4,2,20,70,0,0
181625,-86.9565217391304,4,2,58,70,0,0
181709,-86.9565217391304,4,2,117,70,0,0
181792,-86.9565217391304,4,2,15,70,0,0
181876,-86.9565217391304,4,2,76,70,0,0
181960,-86.9565217391304,4,2,218,70,0,0
182044,-86.9565217391304,4,2,164,70,0,0
182128,-86.9565217391304,4,2,163,70,0,0
182211,-86.9565217391304,4,2,76,70,0,0
182295,-86.9565217391304,4,2,56,70,0,0
182379,-86.9565217391304,4,2,117,70,0,0
182463,-86.9565217391304,4,2,8,70,0,0
182547,-86.9565217391304,4,2,20,70,0,0
182630,-86.9565217391304,4,2,23,70,0,0
182714,-86.9565217391304,4,2,36,70,0,0
182798,-86.9565217391304,4,2,10,70,0,0
182882,-86.9565217391304,4,2,213,70,0,0
182966,-86.9565217391304,4,2,232,70,0,0
183049,-86.9565217391304,4,2,159,70,0,0
183133,-86.9565217391304,4,2,1,70,0,0
183385,-86.9565217391304,4,2,233,70,0,0
183469,-86.9565217391304,4,2,1,70,0,0
183720,-86.9565217391304,4,2,146,70,0,0
183804,-86.9565217391304,4,2,25,70,0,0
183887,-86.9565217391304,4,2,16,70,0,0
183971,-86.9565217391304,4,2,30,70,0,0
184055,-86.9565217391304,4,2,99,70,0,0
184139,-86.9565217391304,4,2,160,70,0,0
184223,-86.9565217391304,4,2,56,70,0,0
184306,-86.9565217391304,4,2,12,70,0,0
184390,-86.9565217391304,4,2,145,70,0,0
184474,-86.9565217391304,4,2,2,70,0,0
184558,-86.9565217391304,4,2,59,70,0,0
184642,-86.9565217391304,4,2,212,70,0,0
184725,-86.9565217391304,4,2,155,70,0,0
184809,-86.9565217391304,4,2,161,70,0,0
184893,-86.9565217391304,4,2,12,70,0,0
184977,-86.9565217391304,4,2,27,70,0,0
185061,-86.9565217391304,4,2,117,70,0,0
185144,-86.9565217391304,4,2,7,70,0,0
185228,-86.9565217391304,4,2,30,70,0,0
185312,-86.9565217391304,4,2,16,70,0,0
185396,-86.9565217391304,4,2,35,70,0,0
185480,-86.9565217391304,4,2,25,70,0,0
185563,-86.9565217391304,4,2,112,70,0,0
185647,-86.9565217391304,4,2,234,70,0,0
185731,-86.9565217391304,4,2,221,70,0,0
185815,-86.9565217391304,4,2,1,70,0,0
186066,-86.9565217391304,4,2,235,70,0,0
186150,-86.9565217391304,4,2,1,70,0,0
186401,-86.9565217391304,4,2,51,70,0,0
186485,-86.9565217391304,4,2,18,70,0,0
186569,-86.9565217391304,4,2,22,70,0,0
186653,-86.9565217391304,4,2,23,70,0,0
186737,-86.9565217391304,4,2,60,70,0,0
186820,-86.9565217391304,4,2,5,70,0,0
186904,-86.9565217391304,4,2,11,70,0,0
186988,-86.9565217391304,4,2,20,70,0,0
187072,-86.9565217391304,4,2,79,70,0,0
187156,-86.9565217391304,4,2,1,70,0,0
187239,-86.9565217391304,4,2,58,70,0,0
187323,-86.9565217391304,4,2,236,70,0,0
187407,-86.9565217391304,4,2,154,70,0,0
187491,-86.9565217391304,4,2,1,70,0,0
187575,-86.9565217391304,4,2,23,70,0,0
187658,-86.9565217391304,4,2,20,70,0,0
187742,-86.9565217391304,4,2,79,70,0,0
187826,-86.9565217391304,4,2,10,70,0,0
187910,-86.9565217391304,4,2,213,70,0,0
187994,-86.9565217391304,4,2,33,70,0,0
188077,-86.9565217391304,4,2,51,70,0,0
188161,-86.9565217391304,4,2,18,70,0,0
188245,-86.9565217391304,4,2,232,70,0,0
188329,-86.9565217391304,4,2,237,70,0,0
188413,-86.9565217391304,4,2,238,70,0,0
188497,-86.9565217391304,4,2,1,70,0,0
188748,-86.9565217391304,4,2,239,70,0,0
188832,-86.9565217391304,4,2,1,70,0,0
189083,-86.9565217391304,4,2,166,70,0,0
189167,-86.9565217391304,4,2,107,70,0,0
189251,-86.9565217391304,4,2,10,70,0,0
189334,-86.9565217391304,4,2,26,70,0,0
189418,-86.9565217391304,4,2,40,70,0,0
189502,-86.9565217391304,4,2,26,70,0,0
189586,-86.9565217391304,4,2,7,70,0,0
189670,-86.9565217391304,4,2,160,70,0,0
189753,-86.9565217391304,4,2,99,70,0,0
189837,-86.9565217391304,4,2,160,70,0,0
189921,-86.9565217391304,4,2,15,70,0,0
190005,-86.9565217391304,4,2,8,70,0,0
190089,-86.9565217391304,4,2,240,70,0,0
190172,-86.9565217391304,4,2,8,70,0,0
190256,-86.9565217391304,4,2,27,70,0,0
190340,-86.9565217391304,4,2,7,70,0,0
190424,-86.9565217391304,4,2,241,70,0,0
190508,-86.9565217391304,4,2,160,70,0,0
190591,-86.9565217391304,4,2,11,70,0,0
190675,-86.9565217391304,4,2,26,70,0,0
190759,-86.9565217391304,4,2,111,70,0,0
190843,-86.9565217391304,4,2,26,70,0,0
190927,-86.9565217391304,4,2,16,70,0,0
191011,-86.9565217391304,4,2,25,70,0,0
191052,-86.9565217391304,4,2,1,70,0,0
191094,-86.9565217391304,4,2,242,70,0,0
191178,-86.9565217391304,4,2,25,70,0,0
191262,-86.9565217391304,4,2,36,70,0,0
191346,-86.9565217391304,4,2,7,70,0,0
191429,-86.9565217391304,4,2,243,70,0,0
191597,-86.9565217391304,4,2,65,70,0,0
191765,-86.9565217391304,4,2,15,70,0,0
191932,-86.9565217391304,4,2,244,70,0,0
192267,-86.9565217391304,4,2,189,70,0,0
192435,-86.9565217391304,4,2,15,70,0,0
192603,-86.9565217391304,4,2,203,70,0,0
192770,-86.9565217391304,4,2,243,70,0,0
192938,-86.9565217391304,4,2,150,70,0,0
193105,-86.9565217391304,4,2,61,70,0,0
193273,-86.9565217391304,4,2,245,70,0,0
193608,-86.9565217391304,4,2,150,70,0,0
193776,-86.9565217391304,4,2,246,70,0,0
193943,-86.9565217391304,4,2,65,70,0,0
194111,-86.9565217391304,4,2,243,70,0,0
194278,-86.9565217391304,4,2,5,70,0,0
194446,-86.9565217391304,4,2,15,70,0,0
194614,-86.9565217391304,4,2,162,70,0,0
194949,-86.9565217391304,4,2,186,70,0,0
195116,-86.9565217391304,4,2,247,70,0,0
195284,-86.9565217391304,4,2,205,70,0,0
195452,-86.9565217391304,4,2,248,70,0,0
195620,-86.9565217391304,4,2,1,70,0,0
195787,-86.9565217391304,4,2,92,70,0,0
195954,-86.9565217391304,4,2,249,70,0,0
196122,-86.9565217391304,4,2,205,70,0,0
196290,-86.9565217391304,4,2,150,70,0,0
196457,-86.9565217391304,4,2,250,70,0,0
196625,-86.9565217391304,4,2,10,70,0,0
196792,-86.9565217391304,4,2,136,70,0,0
196960,-86.9565217391304,4,2,26,70,0,0
197128,-86.9565217391304,4,2,70,70,0,0
197295,-86.9565217391304,4,2,251,70,0,0
197630,-86.9565217391304,4,2,166,70,0,0
197798,-86.9565217391304,4,2,70,70,0,0
197966,-86.9565217391304,4,2,7,70,0,0
198133,-86.9565217391304,4,2,252,70,0,0
198301,-86.9565217391304,4,2,36,70,0,0
198385,-86.9565217391304,4,2,4,70,0,0
198468,-86.9565217391304,4,2,147,70,0,0
198636,-86.9565217391304,4,2,253,70,0,0
198971,-86.9565217391304,4,2,36,70,0,0
199139,-86.9565217391304,4,2,254,70,0,0
199306,-86.9565217391304,4,2,25,70,0,0
199474,-86.9565217391304,4,2,183,70,0,0
199642,-86.9565217391304,4,2,7,70,0,0
199809,-86.9565217391304,4,2,61,70,0,0
199977,-86.9565217391304,4,2,255,70,0,0
200312,-86.9565217391304,4,2,99,70,0,0
200480,-86.9565217391304,4,2,133,70,0,0
200647,-86.9565217391304,4,2,7,70,0,0
200815,-86.9565217391304,4,2,256,70,0,0
200982,-86.9565217391304,4,2,154,70,0,0
201066,-86.9565217391304,4,2,1,70,0,0
201150,-86.9565217391304,4,2,147,70,0,0
201234,-86.9565217391304,4,2,1,70,0,0
201318,-86.9565217391304,4,2,184,70,0,0
201485,-86.9565217391304,4,2,15,70,0,0
201653,-86.9565217391304,4,2,99,70,0,0
201737,-86.9565217391304,4,2,1,70,0,0
201820,-86.9565217391304,4,2,154,70,0,0
201988,-86.9565217391304,4,2,10,70,0,0
202156,-86.9565217391304,4,2,49,70,0,0
202323,-86.9565217391304,4,2,10,70,0,0
202491,-86.9565217391304,4,2,65,70,0,0
202658,-86.9565217391304,4,2,257,70,0,0
202994,-86.9565217391304,4,2,51,70,0,0
203161,-86.9565217391304,4,2,258,70,0,0
203329,-86.9565217391304,4,2,205,70,0,0
203496,-86.9565217391304,4,2,51,70,0,0
203664,-86.9565217391304,4,2,60,70,0,0
203832,-86.9565217391304,4,2,203,70,0,0
203999,-86.9565217391304,4,2,259,70,0,0
204334,-86.9565217391304,4,2,60,70,0,0
204502,-86.9565217391304,4,2,260,70,0,0
204670,-86.9565217391304,4,2,65,70,0,0
204837,-86.9565217391304,4,2,136,70,0,0
205005,-86.9565217391304,4,2,26,70,0,0
205172,-86.9565217391304,4,2,70,70,0,0
205340,-86.9565217391304,4,2,261,70,0,0
205675,-86.9565217391304,4,2,36,70,0,0
205843,-86.9565217391304,4,2,70,70,0,0
206010,-86.9565217391304,4,2,85,70,0,0
206178,-86.9565217391304,4,2,166,70,0,0
206346,-86.9565217391304,4,2,36,70,0,0
206513,-86.9565217391304,4,2,70,70,0,0
206681,-86.9565217391304,4,2,134,70,0,0
207016,-86.9565217391304,4,2,188,70,0,0
207184,-86.9565217391304,4,2,262,70,0,0
207351,-86.9565217391304,4,2,25,70,0,0
207519,-76.9230769230769,4,2,263,70,0,1
207686,-76.9230769230769,4,2,65,70,0,1
207854,-76.9230769230769,4,2,203,70,0,1
208022,-76.9230769230769,4,2,187,70,0,1
208189,-76.9230769230769,4,2,15,70,0,1
208357,-76.9230769230769,4,2,184,70,0,1
208524,-76.9230769230769,4,2,264,70,0,1
208692,-76.9230769230769,4,2,164,70,0,1
208860,-76.9230769230769,4,2,167,70,0,1
209027,-76.9230769230769,4,2,79,70,0,1
209195,-76.9230769230769,4,2,128,70,0,1
209362,-76.9230769230769,4,2,187,70,0,1
209530,-76.9230769230769,4,2,15,70,0,1
209698,-76.9230769230769,4,2,162,70,0,1
209865,-76.9230769230769,4,2,163,70,0,1
210033,-76.9230769230769,4,2,265,70,0,1
210201,-76.9230769230769,4,2,266,70,0,1
210368,-76.9230769230769,4,2,267,70,0,1
210703,-86.9565217391304,4,2,85,70,0,1
210871,-86.9565217391304,4,2,267,70,0,1
211206,-86.9565217391304,4,2,268,70,0,1
211373,-86.9565217391304,4,2,267,70,0,1
211457,-86.9565217391304,4,2,1,70,0,1
211541,-86.9565217391304,4,2,194,70,0,1
211709,-86.9565217391304,4,2,269,70,0,1
211876,-86.9565217391304,4,2,188,70,0,1
212044,-86.9565217391304,4,2,270,70,0,1
212212,-66.6666666666667,4,2,70,70,0,1
212379,-66.6666666666667,4,2,271,70,0,1
212547,-66.6666666666667,4,2,272,70,0,1
212714,-66.6666666666667,4,2,1,70,0,1
212882,-66.6666666666667,4,2,273,70,0,0
214055,-66.6666666666667,4,2,274,50,0,0
214139,-66.6666666666667,4,2,275,50,0,0
214223,-66.6666666666667,4,2,276,50,0,0
214558,-66.6666666666667,4,2,9,50,0,0
214893,-66.6666666666667,4,2,277,50,0,0
215228,-66.6666666666667,4,2,278,50,0,0
215563,-66.6666666666667,4,2,279,50,0,0
215731,-66.6666666666667,4,2,15,50,0,0
215899,-66.6666666666667,4,2,280,50,0,0
216066,-66.6666666666667,4,2,281,50,0,0
216401,-66.6666666666667,4,2,282,50,0,0
216569,-66.6666666666667,4,2,58,50,0,0
216737,-66.6666666666667,4,2,282,50,0,0
216904,-66.6666666666667,4,2,5,50,0,0
217072,-66.6666666666667,4,2,15,50,0,0
217239,-66.6666666666667,4,2,161,50,0,0
217407,-66.6666666666667,4,2,58,50,0,0
217575,-66.6666666666667,4,2,282,50,0,0
217742,-66.6666666666667,4,2,5,50,0,0
217910,-66.6666666666667,4,2,283,50,0,0
218245,-66.6666666666667,4,2,279,50,0,0
218413,-66.6666666666667,4,2,160,50,0,0
218580,-66.6666666666667,4,2,284,50,0,0
218748,-66.6666666666667,4,2,285,50,0,0
219083,-66.6666666666667,4,2,286,50,0,0
219251,-66.6666666666667,4,2,56,50,0,0
219418,-66.6666666666667,4,2,287,50,0,0
219586,-66.6666666666667,4,2,5,50,0,0
219753,-66.6666666666667,4,2,160,50,0,0
219921,-66.6666666666667,4,2,8,50,0,0
220089,-66.6666666666667,4,2,76,50,0,0
220256,-66.6666666666667,4,2,287,50,0,0
220424,-66.6666666666667,4,2,15,50,0,0
220591,-66.6666666666667,4,2,288,50,0,0
220759,-66.6666666666667,4,2,15,50,0,0
220927,-66.6666666666667,4,2,289,50,0,0
221094,-66.6666666666667,4,2,160,50,0,0
221262,-66.6666666666667,4,2,284,50,0,0
221429,-66.6666666666667,4,2,290,50,0,0
221765,-66.6666666666667,4,2,19,50,0,0
221932,-66.6666666666667,4,2,27,50,0,0
222100,-66.6666666666667,4,2,161,50,0,0
222267,-66.6666666666667,4,2,291,50,0,0
222435,-66.6666666666667,4,2,2,50,0,0
222603,-66.6666666666667,4,2,292,50,0,0
222770,-66.6666666666667,4,2,293,50,0,0
223105,-66.6666666666667,4,2,294,50,0,0
223273,-66.6666666666667,4,2,67,50,0,0
223441,-66.6666666666667,4,2,295,50,0,0
223608,-66.6666666666667,4,2,1,50,0,0
223776,-66.6666666666667,4,2,2,50,0,0
223943,-66.6666666666667,4,2,296,50,0,0
224111,-66.6666666666667,4,2,297,50,0,0
224446,-66.6666666666667,4,2,298,50,0,0
224614,-66.6666666666667,4,2,299,50,0,0
224781,-66.6666666666667,4,2,12,50,0,0
224949,-66.6666666666667,4,2,1,50,0,0
225284,-66.6666666666667,4,2,7,50,0,0
225452,-66.6666666666667,4,2,1,50,0,0
225619,-66.6666666666667,4,2,58,50,0,0
225955,-66.6666666666667,4,2,59,50,0,0
226290,-66.6666666666667,4,2,300,50,0,0
226457,-66.6666666666667,4,2,10,50,0,0
226625,-133.333333333333,4,2,301,50,0,0
226793,-133.333333333333,4,2,302,50,0,0
226960,-133.333333333333,4,2,1,50,0,0
227128,-133.333333333333,4,2,58,50,0,0
227463,-133.333333333333,4,2,6,50,0,0
227630,-133.333333333333,4,2,303,50,0,0
227798,-133.333333333333,4,2,10,50,0,0
227966,-133.333333333333,4,2,17,50,0,0
228133,-133.333333333333,4,2,20,50,0,0
228301,-133.333333333333,4,2,304,50,0,0
228636,-133.333333333333,4,2,9,50,0,0
228971,-133.333333333333,4,2,305,50,0,0
229139,-133.333333333333,4,2,107,50,0,0
229306,-133.333333333333,4,2,306,50,0,0
229474,-133.333333333333,4,2,307,50,0,0
229641,-133.333333333333,4,2,1,50,0,0
229809,-133.333333333333,4,2,12,50,0,0
230144,-133.333333333333,4,2,14,50,0,0
230312,-133.333333333333,4,2,303,50,0,0
230480,-133.333333333333,4,2,107,50,0,0
230647,-133.333333333333,4,2,26,50,0,0
230815,-133.333333333333,4,2,23,50,0,0
230982,-133.333333333333,4,2,308,50,0,0
231318,-133.333333333333,4,2,76,50,0,0
231653,-133.333333333333,4,2,309,50,0,0
231820,-133.333333333333,4,2,107,50,0,0
231988,-133.333333333333,4,2,310,50,0,0
232156,-133.333333333333,4,2,311,50,0,0
232323,-133.333333333333,4,2,1,50,0,0
232491,-133.333333333333,4,2,59,50,0,0
232826,-133.333333333333,4,2,312,50,0,0
232994,-133.333333333333,4,2,313,50,0,0
233161,-133.333333333333,4,2,19,50,0,0
233329,-133.333333333333,4,2,314,50,0,0
233496,-133.333333333333,4,2,27,50,0,0
233664,-133.333333333333,4,2,315,50,0,0
233999,-133.333333333333,4,2,58,50,0,0
234334,-133.333333333333,4,2,1,50,0,0
234837,-133.333333333333,4,2,1,20,0,0
236011,-133.333333333333,4,2,316,50,0,0
236346,-133.333333333333,4,2,317,50,0,0
236681,-133.333333333333,4,2,318,60,0,0
237016,-80,4,2,319,70,0,1
237184,-80,4,2,21,70,0,1
237351,-80,4,2,320,70,0,1
237519,-80,4,2,321,70,0,1
237854,-80,4,2,322,70,0,1
238022,-80,4,2,323,70,0,1
238189,-80,4,2,324,70,0,1
238357,-80,4,2,238,70,0,1
238524,-80,4,2,51,70,0,1
238692,-80,4,2,325,70,0,1
238860,-80,4,2,326,70,0,1
239027,-80,4,2,327,70,0,1
239195,-80,4,2,51,70,0,1
239362,-80,4,2,328,70,0,1
239698,-80,4,2,329,70,0,1
239865,-80,4,2,26,70,0,1
240033,-80,4,2,330,70,0,1
240200,-80,4,2,331,70,0,1
240536,-80,4,2,332,70,0,1
240703,-80,4,2,15,70,0,1
240871,-80,4,2,333,70,0,1
241038,-80,4,2,334,70,0,1
241206,-80,4,2,36,70,0,1
241374,-80,4,2,128,70,0,1
241541,-80,4,2,335,70,0,1
241709,-80,4,2,294,70,0,1
241876,-80,4,2,36,70,0,1
242044,-80,4,2,336,70,0,1
242212,-80,4,2,26,70,0,1
242379,-80,4,2,337,70,0,1
242547,-80,4,2,107,70,0,1
242714,-80,4,2,338,70,0,1
242882,-80,4,2,339,70,0,1
243217,-80,4,2,40,70,0,1
243385,-80,4,2,19,70,0,1
243552,-80,4,2,340,70,0,1
243720,-80,4,2,341,70,0,1
243888,-80,4,2,40,70,0,1
244055,-80,4,2,342,70,0,1
244223,-80,4,2,343,70,0,1
244558,-80,4,2,344,70,0,1
244726,-80,4,2,2,70,0,1
244893,-80,4,2,345,70,0,1
245061,-80,4,2,116,70,0,1
245228,-80,4,2,19,70,0,1
245396,-80,4,2,346,70,0,1
245563,-80,4,2,347,70,0,1
245899,-80,4,2,348,70,0,1
246066,-80,4,2,349,70,0,1
246401,-80,4,2,350,70,0,1
246569,-80,4,2,35,70,0,1
246737,-80,4,2,351,70,0,1
246904,-80,4,2,335,70,0,1
247072,-80,4,2,327,5,0,1
247239,-80,4,2,108,70,0,1
247323,-80,4,2,1,70,0,1
247407,-80,4,2,352,70,0,1
247742,-80,4,2,353,70,0,1
247910,-80,4,2,21,70,0,1
248077,-80,4,2,320,70,0,1
248245,-80,4,2,354,70,0,1
248580,-80,4,2,355,70,0,1
248748,-80,4,2,323,70,0,1
248915,-80,4,2,356,70,0,1
249083,-80,4,2,238,70,0,1
249251,-80,4,2,51,70,0,1
249418,-80,4,2,325,70,0,1
249586,-80,4,2,79,70,0,1
249753,-80,4,2,330,70,0,1
249921,-80,4,2,51,70,0,1
250089,-80,4,2,357,70,0,1
250424,-80,4,2,358,70,0,1
250591,-80,4,2,26,70,0,1
250759,-80,4,2,330,70,0,1
250927,-80,4,2,359,70,0,1
251094,-80,4,2,21,70,0,1
251262,-80,4,2,360,70,0,1
251429,-80,4,2,128,70,0,1
251597,-80,4,2,361,70,0,1
251765,-80,4,2,51,70,0,1
251932,-80,4,2,36,70,0,1
252100,-80,4,2,128,70,0,1
252267,-80,4,2,154,70,0,1
252435,-80,4,2,294,70,0,1
252603,-80,4,2,36,70,0,1
252770,-80,4,2,362,70,0,1
252938,-80,4,2,26,70,0,1
253105,-80,4,2,363,70,0,1
253273,-80,4,2,107,70,0,1
253441,-80,4,2,364,70,0,1
253608,-80,4,2,365,70,0,1
253943,-80,4,2,366,70,0,1
254111,-80,4,2,19,70,0,1
254279,-80,4,2,367,70,0,1
254446,-80,4,2,368,70,0,1
254614,-80,4,2,40,70,0,1
254781,-80,4,2,369,70,0,1
254949,-80,4,2,370,70,0,1
255117,-80,4,2,371,70,0,1
255284,-80,4,2,108,70,0,1
255452,-80,4,2,372,70,0,1
255619,-80,4,2,107,70,0,1
255787,-80,4,2,373,70,0,1
255955,-80,4,2,19,70,0,1
256122,-80,4,2,374,70,0,1
256290,-80,4,2,375,70,0,1
256625,-80,4,2,376,70,0,1
256793,-80,4,2,296,70,0,1
257128,-80,4,2,377,70,0,1
257295,-80,4,2,378,70,0,1
257463,-80,4,2,379,70,0,1
257631,-80,4,2,380,70,0,1
257798,-80,4,2,15,70,0,1
257966,-80,4,2,381,70,0,1
258050,-80,4,2,1,70,0,1
258133,-80,4,2,382,70,0,1
258469,-80,4,2,383,70,0,1
258636,-80,4,2,18,70,0,1
258804,-80,4,2,384,70,0,1
258971,-80,4,2,385,70,0,1
259139,-80,4,2,262,70,0,1
259307,-80,4,2,386,70,0,1
259474,-71.4285714285714,4,2,262,70,0,1
259642,-71.4285714285714,4,2,385,70,0,1
259809,-71.4285714285714,4,2,208,70,0,1
259977,-71.4285714285714,4,2,387,70,0,1
260145,-71.4285714285714,4,2,388,70,0,1
260312,-71.4285714285714,4,2,387,70,0,1
260480,-71.4285714285714,4,2,389,70,0,1
260647,-71.4285714285714,4,2,390,70,0,1
260815,-71.4285714285714,4,2,391,70,0,1
260982,-71.4285714285714,4,2,392,70,0,1
261150,-71.4285714285714,4,2,393,70,0,1
261318,-71.4285714285714,4,2,394,70,0,1
261485,-71.4285714285714,4,2,395,70,0,1
261653,-71.4285714285714,4,2,356,70,0,1
261820,-71.4285714285714,4,2,394,70,0,1
261988,-71.4285714285714,4,2,326,70,0,1
262156,-71.4285714285714,4,2,396,70,0,1
262323,-71.4285714285714,4,2,1,70,0,1
262491,-71.4285714285714,4,2,397,70,0,1
263497,-71.4285714285714,4,2,397,70,0,1
263664,-71.4285714285714,4,2,166,70,0,1
263748,-71.4285714285714,4,2,1,70,0,1
263832,-86.9565217391304,4,2,167,70,0,0
263999,-86.9565217391304,4,2,108,70,0,0
264167,-86.9565217391304,4,2,154,70,0,0
264334,-86.9565217391304,4,2,168,70,0,0
264502,-86.9565217391304,4,2,35,70,0,0
264670,-86.9565217391304,4,2,108,70,0,0
264837,-86.9565217391304,4,2,4,70,0,0
265005,-86.9565217391304,4,2,35,70,0,0
265089,-86.9565217391304,4,2,1,70,0,0
265172,-86.9565217391304,4,2,44,70,0,0
265340,-86.9565217391304,4,2,60,70,0,0
265424,-86.9565217391304,4,2,1,70,0,0
265508,-86.9565217391304,4,2,100,70,0,0
265675,-86.9565217391304,4,2,48,70,0,0
265843,-86.9565217391304,4,2,68,70,0,0
266010,-86.9565217391304,4,2,108,70,0,0
266178,-86.9565217391304,4,2,169,70,0,0
266346,-86.9565217391304,4,2,60,70,0,0
266513,-86.9565217391304,4,2,170,70,0,0
266681,-86.9565217391304,4,2,36,70,0,0
266848,-86.9565217391304,4,2,145,70,0,0
267016,-86.9565217391304,4,2,171,70,0,0
267184,-86.9565217391304,4,2,166,70,0,0
267351,-86.9565217391304,4,2,36,70,0,0
267519,-86.9565217391304,4,2,29,70,0,0
267686,-86.9565217391304,4,2,99,70,0,0
267854,-86.9565217391304,4,2,172,70,0,0
268022,-86.9565217391304,4,2,99,70,0,0
268189,-86.9565217391304,4,2,4,70,0,0
268357,-86.9565217391304,4,2,88,70,0,0
268524,-86.9565217391304,4,2,173,70,0,0
268692,-86.9565217391304,4,2,154,70,0,0
268860,-86.9565217391304,4,2,88,70,0,0
269027,-86.9565217391304,4,2,99,70,0,0
269111,-86.9565217391304,4,2,1,70,0,0
269195,-86.9565217391304,4,2,398,70,0,0
269362,-86.9565217391304,4,2,399,70,0,0
269530,-86.9565217391304,4,2,400,70,0,0
269698,-86.9565217391304,4,2,247,70,0,0
269865,-86.9565217391304,4,2,117,70,0,0
270033,-86.9565217391304,4,2,8,70,0,0
270200,-86.9565217391304,4,2,162,70,0,0
270368,-86.9565217391304,4,2,401,70,0,0
270452,-86.9565217391304,4,2,1,70,0,0
270536,-86.9565217391304,4,2,402,70,0,0
270703,-86.9565217391304,4,2,403,70,0,0
270871,-100,4,2,404,70,0,0
271038,-100,4,2,405,70,0,0
271206,-100,4,2,145,70,0,0
271374,-100,4,2,12,70,0,0
271541,-100,4,2,174,70,0,0
271709,-100,4,2,27,70,0,0
271876,-100,4,2,406,70,0,0
272044,-100,4,2,407,70,0,0
272212,-74.0740740740741,4,2,408,70,0,0
272379,-74.0740740740741,4,2,409,70,0,0
272547,-74.0740740740741,4,2,58,70,0,0
272714,-74.0740740740741,4,2,76,70,0,0
272882,-74.0740740740741,4,2,175,70,0,0
273050,-74.0740740740741,4,2,176,70,0,0
273217,-66.6666666666667,4,2,410,70,0,0
273385,-66.6666666666667,4,2,73,70,0,0
273552,-66.6666666666667,4,2,173,70,0,0
273720,-66.6666666666667,4,2,411,70,0,0
273888,-86.9565217391304,4,2,144,70,0,0
274055,-86.9565217391304,4,2,153,70,0,0
274223,-86.9565217391304,4,2,412,70,0,0
274390,-86.9565217391304,4,2,1,70,0,0
274474,-86.9565217391304,4,2,1,70,0,0
274558,-151.515151515152,4,2,413,70,0,0
274642,-151.515151515152,4,2,413,70,0,0
275207,-188.679245283019,4,2,1,65,0,0
275878,-188.679245283019,4,2,1,60,0,0
276548,-188.679245283019,4,2,1,55,0,0
277219,-188.679245283019,4,2,1,50,0,0
277931,-188.679245283019,4,2,1,40,0,0
278559,-188.679245283019,4,2,1,30,0,0
279230,-188.679245283019,4,2,1,15,0,0
279921,-151.515151515152,4,2,1,5,0,0

[Colours]
Combo1 : 200,139,220
Combo2 : 240,128,128
Combo3 : 255,232,136
Combo4 : 240,145,194

[HitObjects]
256,191,11765,5,6,2:2:0:0:
445,384,12100,5,2,2:2:0:0:
445,384,12268,2,0,L|434:317,1,56.4506271457673,2|2,2:2|2:3,0:0:0:0:
354,325,12603,2,0,P|378:265|428:241,1,112.565629291535,2|2,2:2|2:2,0:0:0:0:
512,126,13106,2,0,L|501:59,2,56.2828146457673,10|2|2,2:2|2:2|2:2,0:0:0:0:
488,203,13608,2,0,P|414:194|323:150,1,169.016256437302,2|2,2:2|2:2,0:0:0:0:
256,191,14446,5,10,2:2:0:0:
67,0,14782,5,2,2:2:0:0:
67,0,14949,2,0,L|78:67,1,56.4506271457673,2|2,2:2|2:3,0:0:0:0:
133,129,15284,2,0,P|79:149|54:210,1,112.565629291535,2|2,2:2|2:2,0:0:0:0:
2,271,15787,2,0,P|74:285|202:379,1,225.131258583069,10|2,2:2|2:2,0:0:0:0:
196,371,17128,6,0,P|203:324|221:273,1,82.7942525177003,14|2,2:2|2:2,0:0:0:0:
288,262,17463,1,2,2:2:0:0:
116,368,17631,6,0,P|131:284|160:220,1,123.94525377655,10|0,2:2|0:0,0:0:0:0:
149,243,17966,1,2,2:2:0:0:
46,129,18133,6,0,L|31:38,1,82.7942525177003,10|2,2:2|2:2,0:0:0:0:
285,182,18469,6,0,P|332:175|383:157,1,82.7942525177003,14|2,2:2|2:2,0:0:0:0:
394,90,18804,1,2,2:2:0:0:
288,262,18971,6,0,P|372:247|436:218,1,124.43750377655,10|0,2:2|0:0,0:0:0:0:
413,229,19307,1,2,2:2:0:0:
407,8,19474,6,0,L|392:97,1,82.7942525177003,10|2,2:2|2:2,0:0:0:0:
506,352,19809,2,0,P|464:259|373:223,1,165.096255035401,14|2,2:2|2:2,0:0:0:0:
335,209,20312,1,10,2:2:0:0:
207,259,20480,2,0,P|196:299|198:351,1,82.7942525177003,2|2,2:2|2:2,0:0:0:0:
257,194,20815,5,10,2:2:0:0:
274,311,20983,2,0,P|304:337|341:348,1,67.7407479400635,2|2,2:2|2:2,0:0:0:0:
324,246,21318,5,10,2:2:0:0:
343,266,21485,2,0,P|375:258|406:237,1,56.4506271457673,2|2,2:2|2:2,0:0:0:0:
418,67,21821,6,0,L|404:201,1,97.8477455368044,10|2,2:2|2:2,0:0:0:0:
198,310,22156,2,0,L|212:176,1,97.8477455368044,10|0,2:2|1:0,0:0:0:0:
188,135,22491,6,0,P|177:106|9:23,1,225.13125,10|0,2:2|0:0,0:0:0:0:
16,21,23832,1,2,2:2:0:0:
44,100,23999,5,0,0:0:0:0:
58,98,24083,1,0,0:0:0:0:
73,96,24167,1,2,2:2:0:0:
88,93,24251,1,2,2:2:0:0:
102,88,24335,1,10,2:2:0:0:
116,82,24418,1,2,2:2:0:0:
129,76,24502,1,2,2:2:0:0:
142,68,24586,1,2,2:2:0:0:
154,59,24670,1,6,2:2:0:0:
166,49,24754,1,2,2:2:0:0:
176,38,24837,2,0,L|181:10,3,18.7795833333333,2|2|2|2,2:2|2:2|2:2|2:2,0:0:0:0:
184,12,25173,6,0,P|218:22|242:37,1,52.6872483978272,10|2,2:2|2:2,0:0:0:0:
271,99,25508,1,2,2:2:0:0:
348,114,25675,2,0,P|366:62|373:12,1,105.061246795654,2|2,2:2|2:2,0:0:0:0:
372,12,26178,1,2,2:2:0:0:
512,219,26513,1,2,2:2:0:0:
436,197,26681,2,0,P|425:235|425:256,1,52.6872483978272,2|2,2:2|2:2,0:0:0:0:
368,377,27016,2,0,P|364:320|349:274,1,105.061246795654,2|2,2:2|2:2,0:0:0:0:
272,266,27519,1,2,2:2:0:0:
184,350,27687,5,2,2:2:0:0:
184,350,27854,2,0,L|121:339,1,52.6872483978272,2|2,2:2|2:2,0:0:0:0:
56,361,28189,5,2,2:2:0:0:
76,283,28357,2,0,L|61:219,1,52.6872483978272,2|2,2:2|2:3,0:0:0:0:
0,158,28692,2,0,P|25:96|60:67,1,105.061246795654,2|2,2:2|2:2,0:0:0:0:
123,34,29195,5,2,2:2:0:0:
167,170,29530,1,2,2:2:0:0:
196,74,29865,5,2,2:2:0:0:
191,94,30201,1,2,2:2:0:0:
246,154,30536,6,0,P|297:172|361:176,1,105.061246795654,2|2,2:2|2:2,0:0:0:0:
447,98,31039,2,0,P|412:110|394:133,1,52.6872483978272,2|2,2:2|2:3,0:0:0:0:
423,196,31374,1,2,2:2:0:0:
500,196,31541,2,0,P|510:168|510:141,1,52.6872483978272,2|2,2:2|2:2,0:0:0:0:
368,255,31876,2,0,P|375:311|396:365,1,105.061246795654,2|2,2:2|2:2,0:0:0:0:
502,332,32379,2,0,P|471:311|434:305,1,52.6872483978272,2|2,2:2|2:3,0:0:0:0:
307,358,32714,1,2,2:2:0:0:
307,358,32882,2,0,P|276:379|239:385,1,52.6872483978272,2|2,2:2|2:2,0:0:0:0:
152,289,33217,6,0,P|89:270|27:275,1,105.061246795654,2|2,2:2|2:2,0:0:0:0:
38,352,33720,2,0,P|101:371|163:366,1,105.061246795654,2|2,2:2|2:2,0:0:0:0:
230,268,34223,2,0,L|217:203,1,52.6872483978272,2|2,2:2|2:2,0:0:0:0:
96,188,34558,5,2,2:2:0:0:
106,114,35228,1,2,2:2:0:0:
19,14,35899,6,0,P|89:22|134:49,1,105.061246795654,2|2,2:2|2:2,0:0:0:0:
185,86,36402,2,0,P|198:56|199:28,1,52.6872483978272,2|2,2:2|2:3,0:0:0:0:
111,117,36737,1,2,2:2:0:0:
125,197,36904,2,0,P|155:210|184:212,1,52.6872483978272,2|2,2:2|2:2,0:0:0:0:
295,172,37240,2,0,P|324:238|327:289,1,105.061246795654,2|2,2:2|2:2,0:0:0:0:
207,310,37742,2,0,P|178:244|175:193,1,105.061246795654,2|2,2:2|2:2,0:0:0:0:
221,146,38245,1,2,2:2:0:0:
389,358,38580,6,0,P|392:328|405:296,1,52.6872483978272,2|2,2:2|2:2,0:0:0:0:
473,263,38916,1,2,2:2:0:0:
473,263,39083,2,0,P|422:232|362:224,1,105.061246795654,2|2,2:2|2:2,0:0:0:0:
310,180,39586,2,0,P|298:146|297:111,1,52.6872483978272,2|2,2:2|2:2,0:0:0:0:
341,21,39921,2,0,P|353:55|354:90,1,52.6872483978272,2|2,2:2|2:2,0:0:0:0:
296,129,40256,2,0,L|173:114,2,105.061246795654,2|2|2,2:2|2:2|2:2,0:0:0:0:
472,2,41262,6,0,P|449:60|445:125,1,105.061246795654,2|2,2:2|2:2,0:0:0:0:
376,144,41765,1,2,2:2:0:0:
376,144,41932,2,0,P|386:190|400:217,1,52.6872483978272,2|2,2:2|2:2,0:0:0:0:
512,324,42268,1,2,2:2:0:0:
512,324,42603,2,0,P|468:278|409:265,1,105.061246795654,2|2,2:2|2:2,0:0:0:0:
349,265,43106,2,0,L|339:331,2,52.5306233978272,2|2|2,2:2|2:2|2:2,0:0:0:0:
292,207,43608,1,2,2:2:0:0:
65,327,43944,1,2,2:2:0:0:
65,327,44279,6,0,P|99:302|133:291,1,60.214,2|2,2:2|2:2,0:0:0:0:
207,276,44614,1,2,2:2:0:0:
281,216,44782,2,0,P|303:165|309:134,1,60.214,2|2,2:2|2:2,0:0:0:0:
321,67,45117,1,10,2:2:0:0:
406,31,45452,5,2,2:2:0:0:
321,67,45620,1,2,2:2:0:0:
304,160,45787,2,0,P|294:189|281:216,1,60.214,2|2,2:2|2:2,0:0:0:0:
207,276,46122,1,2,2:2:0:0:
115,295,46290,2,0,P|88:308|65:327,1,60.214,2|2,2:2|2:2,0:0:0:0:
310,375,46625,6,0,P|271:362|244:339,1,71.5041230974198,10|2,2:2|2:2,0:0:0:0:
207,276,46960,1,2,2:2:0:0:
207,276,47128,1,2,2:2:0:0:
74,279,47295,6,0,P|68:299|64:326,1,48.9238727684022,2|2,2:2|2:2,0:0:0:0:
310,375,47631,6,0,P|271:362|244:339,1,71.5041230974198,2|2,2:2|2:2,0:0:0:0:
169,203,47966,6,0,L|182:110,1,71.5041230974198,2|2,2:2|2:2,0:0:0:0:
147,60,48301,1,2,2:2:0:0:
99,124,48469,2,0,L|86:217,1,71.5041230974198,2|2,2:2|2:2,0:0:0:0:
40,260,48804,1,2,2:2:0:0:
9,185,48971,2,0,L|22:92,1,71.5041230974198,2|2,2:2|2:2,0:0:0:0:
109,34,49307,6,0,P|136:18|165:12,1,48.9238727684022,6|2,2:2|2:2,0:0:0:0:
225,49,49642,1,2,2:2:0:0:
249,158,49809,6,0,P|280:174|315:179,1,71.5041230974198,2|2,2:2|2:2,0:0:0:0:
109,34,50145,6,0,P|136:18|165:12,1,48.9238727684022,2|2,2:2|2:2,0:0:0:0:
225,49,50480,1,2,2:2:0:0:
315,179,50647,6,0,L|413:192,1,79.0308725967408,2|2,2:2|2:2,0:0:0:0:
465,152,50983,1,2,2:2:0:0:
384,270,51150,2,0,L|286:257,1,79.0308725967408,2|2,2:2|2:2,0:0:0:0:
239,211,51485,1,2,2:2:0:0:
299,339,51653,2,0,L|397:352,1,79.0308725967408,2|2,2:2|2:2,0:0:0:0:
81,360,51988,6,0,P|105:309|209:273,1,142.58312119484,10|2,2:2|2:2,0:0:0:0:
256,292,52491,1,2,2:2:0:0:
200,349,52659,1,2,2:2:0:0:
411,181,52994,6,0,L|527:167,1,90.3209972534181,2|2,2:2|2:2,0:0:0:0:
200,349,53329,6,0,P|179:313|179:275,1,71.5041230974198,2|2,2:2|2:2,0:0:0:0:
221,217,53664,2,0,P|231:176|233:128,1,71.5041230974198,2|2,2:2|2:2,0:0:0:0:
162,105,53999,1,2,2:2:0:0:
411,181,54335,6,0,L|527:167,1,90.3209972534181,2|2,2:2|2:2,0:0:0:0:
162,105,54670,6,0,P|203:43|288:18,1,142.58312119484,6|2,2:2|2:2,0:0:0:0:
336,53,55173,2,0,P|339:87|354:132,1,71.5041230974198,2|2,2:2|1:3,0:0:0:0:
411,181,55508,6,0,L|527:167,1,90.3209972534181,2|2,2:2|2:2,0:0:0:0:
500,170,55843,1,2,2:2:0:0:
478,345,56011,6,0,P|429:279|366:256,1,142.58312119484,2|2,2:2|2:2,0:0:0:0:
279,289,56513,1,2,2:2:0:0:
279,289,56597,1,0,0:0:0:0:
279,289,56681,2,0,L|268:368,1,71.5041230974198,0|2,1:0|2:2,0:0:0:0:
189,347,57016,6,0,L|200:270,1,67.6064979400635,10|0,2:2|0:0,0:0:0:0:
200,272,57351,6,0,P|134:305|28:311,1,165.096255035401,6|10,2:2|2:2,0:0:0:0:
8,176,57854,2,0,P|82:140|163:134,1,165.096255035401,2|2,2:2|2:2,0:0:0:0:
241,180,58357,5,10,2:2:0:0:
218,65,58525,1,2,2:2:0:0:
297,109,58692,6,0,P|346:127|395:119,1,82.7942525177003,2|10,2:2|2:2,0:0:0:0:
375,125,58944,1,4,2:3:0:0:
375,125,59027,1,2,2:2:0:0:
392,46,59195,2,0,P|343:28|294:36,1,82.7942525177003,2|0,2:2|0:0,0:0:0:0:
140,143,59530,5,2,2:2:0:0:
214,114,59698,2,0,L|196:25,1,82.7942525177003,10|2,2:2|2:2,0:0:0:0:
264,315,60033,6,0,P|264:231|306:122,1,180.104994506836,6|10,2:2|2:2,0:0:0:0:
458,172,60536,2,0,P|458:256|416:365,1,180.104994506836,2|2,2:2|2:2,0:0:0:0:
427,346,60955,1,0,1:0:0:0:
427,346,61039,1,10,2:2:0:0:
502,308,61206,5,2,2:2:0:0:
345,332,61374,5,10,2:2:0:0:
341,309,61457,1,8,1:3:0:0:
338,287,61541,1,6,2:2:0:0:
335,265,61625,1,0,1:0:0:0:
332,242,61709,1,2,2:2:0:0:
176,255,61876,6,0,L|163:160,1,90.3209972534181,10|0,2:2|0:0,0:0:0:0:
163,165,62212,1,2,2:2:0:0:
12,171,62379,6,0,L|-1:76,1,90.3209972534181,10|2,2:2|2:2,0:0:0:0:
0,81,62631,1,0,1:0:0:0:
0,81,62714,1,10,2:2:0:0:
108,2,62882,1,0,1:0:0:0:
170,118,63050,1,2,2:2:0:0:
206,46,63217,2,0,P|268:37|331:67,1,101.611125386238,10|2,2:2|2:2,0:0:0:0:
342,118,63552,1,2,2:2:0:0:
404,2,63720,1,10,2:2:0:0:
512,81,63888,6,0,L|488:346,1,225.131258583069,6|10,2:2|2:2,0:0:0:0:
491,305,64390,1,10,2:2:0:0:
491,305,64726,5,8,2:2:0:0:
492,311,64809,1,8,2:3:0:0:
493,318,64893,1,4,2:3:0:0:
494,325,64977,1,0,1:0:0:0:
495,332,65061,2,0,L|427:321,1,52.6872483978272,8|0,2:2|3:0,0:0:0:0:
305,330,65396,6,0,B|351:319|351:319|389:250|389:250|452:236,1,172.600628290176,14|10,2:2|2:2,0:0:0:0:
512,143,65899,2,0,P|490:101|451:82,1,86.5576266450882,2|0,2:2|0:0,0:0:0:0:
312,107,66234,1,2,2:2:0:0:
350,178,66402,2,0,L|446:157,1,86.5576266450882,10|2,2:2|2:2,0:0:0:0:
235,12,66737,6,0,B|192:32|192:32|172:171,1,172.600628290176,2|10,2:2|2:2,0:0:0:0:
97,125,67240,1,2,2:2:0:0:
97,125,67323,1,0,0:0:0:0:
97,125,67407,2,0,L|112:22,1,86.5576266450882,0|2,0:0|2:2,0:0:0:0:
249,188,67742,2,0,L|234:291,1,86.5576266450882,10|2,2:2|2:2,0:0:0:0:
43,383,68078,6,0,P|79:307|172:269,1,172.600628290176,6|10,2:2|2:2,0:0:0:0:
256,352,68580,2,0,B|365:338,1,86.5576266450882,2|0,2:2|0:0,0:0:0:0:
479,265,68916,1,2,2:2:0:0:
436,334,69083,2,0,P|401:287|402:228,1,86.5576266450882,10|2,2:2|2:2,0:0:0:0:
396,260,69335,1,0,0:0:0:0:
396,260,69418,5,2,2:2:0:0:
405,178,69586,2,0,L|515:167,1,86.5576266450882,2|10,2:2|2:2,0:0:0:0:
470,18,69921,2,0,L|384:26,1,86.5576266450882,2|2,2:2|2:2,0:0:0:0:
361,107,70256,5,2,2:2:0:0:
512,89,70424,1,10,2:2:0:0:
214,217,70759,6,0,B|261:198|261:198|283:59,1,172.600628290176,6|10,2:2|2:2,0:0:0:0:
122,32,71262,2,0,L|27:51,1,86.5576266450882,2|0,2:2|0:0,0:0:0:0:
182,91,71597,1,2,2:2:0:0:
182,91,71765,2,0,P|205:40|201:-3,1,86.5576266450882,10|2,2:2|2:2,0:0:0:0:
37,48,72100,5,2,2:2:0:0:
58,129,72268,2,0,L|80:223,1,86.5576266450882,2|10,2:2|2:2,0:0:0:0:
105,329,72603,2,0,L|116:378,2,43.2788133225441,2|0|0,2:2|0:0|0:0,0:0:0:0:
33,283,72938,1,2,2:2:0:0:
149,257,73106,2,0,P|192:267|224:300,1,86.5576266450882,10|2,2:2|2:2,0:0:0:0:
224,302,73357,1,0,0:0:0:0:
227,308,73441,6,0,P|317:292|391:243,1,172.600628290176,2|10,2:2|2:2,0:0:0:0:
431,92,73944,2,0,L|443:-11,1,86.5576266450882,2|0,2:2|0:0,0:0:0:0:
345,21,74279,5,2,2:2:0:0:
420,174,74446,2,0,L|523:162,1,86.5576266450882,10|2,2:2|2:2,0:0:0:0:
357,276,74782,5,2,2:2:0:0:
340,157,74949,5,2,2:2:0:0:
301,177,75033,1,0,0:0:0:0:
283,212,75117,2,0,L|275:290,1,43.5361258225441,10|0,2:2|0:0,0:0:0:0:
357,276,75284,5,2,2:2:0:0:
357,276,75620,6,0,L|365:198,1,43.5361258225441,2|0,2:2|1:0,0:0:0:0:
232,130,75787,2,0,L|242:27,1,86.5576266450882,10|2,2:2|2:2,0:0:0:0:
243,50,76039,1,0,0:0:0:0:
246,56,76122,6,0,B|200:67|200:67|162:136|162:136|99:150,1,172.600628290176,10|10,2:2|2:2,0:0:0:0:
44,14,76625,2,0,P|84:29|115:89,1,86.5576266450882,2|0,2:2|0:0,0:0:0:0:
95,225,76960,1,2,2:2:0:0:
24,181,77128,2,0,L|37:87,1,86.5576266450882,10|2,2:2|2:2,0:0:0:0:
170,265,77463,6,0,P|123:343|36:370,1,172.600628290176,2|10,2:2|2:2,0:0:0:0:
27,290,77966,1,2,2:2:0:0:
27,290,78050,1,0,0:0:0:0:
27,290,78133,2,0,P|62:289|114:326,1,86.5576266450882,0|2,0:0|2:2,0:0:0:0:
201,383,78469,2,0,L|308:366,1,86.5576266450882,10|2,2:2|2:2,0:0:0:0:
417,312,78804,6,0,L|426:224,1,86.5576266450882,6|2,2:2|2:2,0:0:0:0:
501,188,79139,1,10,2:2:0:0:
387,151,79307,2,0,B|345:178|345:178|334:300,1,172.600628290176,2|2,2:2|2:2,0:0:0:0:
462,114,79809,2,0,L|449:17,1,86.5576266450882,10|2,2:2|2:2,0:0:0:0:
450,28,80061,1,0,0:0:0:0:
450,28,80145,5,2,2:2:0:0:
370,13,80312,1,2,2:2:0:0:
326,84,80480,1,10,2:2:0:0:
245,68,80647,2,0,P|224:105|227:148,1,86.5576266450882,2|2,2:2|2:2,0:0:0:0:
339,223,80983,1,2,2:2:0:0:
305,299,81150,2,0,L|190:286,1,86.5576266450882,10|2,2:2|2:2,0:0:0:0:
29,349,81485,6,0,P|95:328|136:283,1,129.579127467632,6|0,2:2|0:0,0:0:0:0:
137,278,81821,2,0,P|122:234|118:184,1,86.5576266450882,10|2,2:2|2:2,0:0:0:0:
244,132,82156,2,0,P|278:106|306:73,1,86.5576266450882,0|2,0:0|2:2,0:0:0:0:
40,30,82491,6,0,P|85:39|130:60,1,86.5576266450882,10|2,2:2|2:2,0:0:0:0:
163,126,82826,1,2,2:2:0:0:
163,126,83161,6,0,L|274:113,1,86.5576266450882,10|2,2:2|2:2,0:0:0:0:
291,45,83497,1,0,0:0:0:0:
315,166,83664,1,2,2:2:0:0:
315,166,83832,2,0,L|426:153,1,86.5576266450882,10|2,2:2|2:2,0:0:0:0:
512,127,84167,6,0,P|459:48|382:31,1,172.600628290176,2|10,2:2|2:2,0:0:0:0:
305,80,84670,1,2,2:2:0:0:
305,80,84754,1,0,0:0:0:0:
305,80,84837,2,0,L|316:181,1,86.5576266450882,0|2,0:0|2:2,0:0:0:0:
323,250,85173,2,0,P|299:286|261:303,1,86.5576266450882,10|2,2:2|2:2,0:0:0:0:
126,254,85508,5,2,2:2:0:0:
127,243,85592,1,0,0:0:0:0:
129,232,85675,1,2,2:2:0:0:
131,222,85759,1,0,0:0:0:0:
133,211,85843,1,10,2:2:0:0:
151,131,86011,2,0,P|127:95|89:77,1,86.5576266450882,2|2,2:2|2:2,0:0:0:0:
6,173,86346,5,2,2:2:0:0:
38,164,86430,1,0,1:0:0:0:
72,157,86513,1,10,2:2:0:0:
151,131,86681,1,2,2:2:0:0:
151,131,86849,2,0,L|162:38,1,86.5576266450882,10|2,2:2|2:2,0:0:0:0:
336,0,87184,5,10,2:2:0:0:
363,117,87351,1,2,2:2:0:0:
244,142,87519,1,10,2:2:0:0:
219,26,87687,1,2,2:2:0:0:
363,117,87854,2,0,L|386:216,1,94.084375,10|2,2:2|2:2,0:0:0:0:
306,334,88189,1,10,2:2:0:0:
283,231,88357,1,2,2:2:0:0:
384,208,88525,1,10,2:2:0:0:
407,311,88692,1,2,2:2:0:0:
407,311,88776,1,0,0:0:0:0:
407,311,88860,2,0,L|517:318,1,94.084375,10|2,2:2|2:2,0:0:0:0:
158,377,89195,6,0,P|173:322|218:285,1,94.084375,10|2,2:2|2:2,0:0:0:0:
200,303,89446,1,0,0:0:0:0:
202,310,89530,6,0,L|82:290,1,112.901254291535,10|2,2:2|2:2,0:0:0:0:
15,245,89865,1,2,2:2:0:0:
203,219,90033,2,0,L|83:199,1,112.901254291535,10|2,2:2|2:2,0:0:0:0:
11,154,90368,1,2,2:2:0:0:
203,127,90536,2,0,L|83:107,1,112.901254291535,10|2,2:2|2:2,0:0:0:0:
13,63,90871,5,6,2:2:0:0:
256,192,90955,12,0,91876,0:0:0:0:
316,140,92044,5,2,2:2:0:0:
316,140,92128,1,0,1:0:0:0:
316,140,92212,2,0,P|321:90|351:30,1,86.5576266450882,14|2,2:2|2:2,0:0:0:0:
409,23,92547,1,2,2:2:0:0:
512,96,92714,2,0,P|506:145|477:206,1,86.5576266450882,10|2,2:2|2:2,0:0:0:0:
419,213,93050,1,2,2:2:0:0:
316,140,93217,6,0,L|205:125,1,86.5576266450882,10|2,2:2|2:2,0:0:0:0:
157,259,93552,6,0,P|162:308|192:369,1,86.5576266450882,14|2,2:2|2:2,0:0:0:0:
291,359,93888,1,2,2:2:0:0:
353,303,94055,2,0,P|347:253|318:193,1,86.5576266450882,10|2,2:2|2:2,0:0:0:0:
220,206,94390,1,2,2:2:0:0:
157,259,94558,6,0,L|46:244,1,86.5576266450882,10|2,2:2|2:2,0:0:0:0:
0,49,94893,6,0,P|30:17|88:-4,1,86.5576266450882,14|2,2:2|2:2,0:0:0:0:
159,117,95228,1,2,2:2:0:0:
57,168,95396,6,0,P|59:124|90:70,1,86.5576266450882,10|2,2:2|2:2,0:0:0:0:
147,34,95731,1,2,2:2:0:0:
230,63,95899,2,0,L|343:48,1,86.5576266450882,10|2,2:2|2:2,0:0:0:0:
512,159,96234,6,0,P|482:127|424:106,1,86.5576266450882,14|2,2:2|2:2,0:0:0:0:
365,144,96569,1,2,1:2:0:0:
455,278,96737,6,0,P|452:234|421:180,1,86.5576266450882,10|2,2:2|2:2,0:0:0:0:
353,227,97072,1,2,2:2:0:0:
282,173,97240,2,0,L|169:158,1,86.5576266450882,10|2,2:2|2:2,0:0:0:0:
76,344,97575,5,10,2:2:0:0:
133,221,97910,5,2,2:2:0:0:
12,175,98245,5,2,2:2:0:0:
63,54,98580,5,2,2:2:0:0:
95,137,98916,5,10,2:2:0:0:
12,175,99083,1,2,2:2:0:0:
47,259,99251,2,0,L|142:266,1,75.2675,2|2,2:2|2:2,0:0:0:0:
203,274,99586,2,0,P|226:319|229:353,1,75.2675,2|2,2:2|2:2,0:0:0:0:
311,349,99921,2,0,L|406:356,1,75.2675,2|2,2:2|2:2,0:0:0:0:
467,359,100256,5,10,2:2:0:0:
467,359,100592,2,0,P|458:307|415:245,1,101.611125386238,2|2,2:2|2:2,0:0:0:0:
477,150,100927,2,0,P|431:123|356:116,1,101.611125386238,2|2,2:2|2:2,0:0:0:0:
329,0,101262,2,0,P|279:17|225:71,1,101.611125386238,2|2,2:2|2:2,0:0:0:0:
498,22,101597,5,10,2:2:0:0:
468,100,101765,5,2,2:2:0:0:
454,98,101849,1,0,0:0:0:0:
439,96,101932,1,2,2:2:0:0:
424,93,102016,1,2,2:2:0:0:
410,88,102100,1,2,2:2:0:0:
396,82,102184,1,2,2:2:0:0:
383,76,102268,1,2,2:2:0:0:
370,68,102351,1,2,2:2:0:0:
358,59,102435,1,2,2:2:0:0:
346,49,102519,1,2,2:2:0:0:
336,38,102603,2,0,L|329:-5,3,37.5591666666667,2|2|2|2,2:2|2:2|2:2|2:2,0:0:0:0:
323,10,102938,6,0,L|234:2,1,67.7407479400635,10|2,2:2|2:2,0:0:0:0:
181,34,103273,5,2,2:2:0:0:
248,82,103441,2,0,L|335:90,1,67.7407479400635,2|0,2:2|1:0,0:0:0:0:
324,163,103776,5,2,2:2:0:0:
310,168,103944,2,0,L|222:161,1,67.7407479400635,2|2,2:2|2:2,0:0:0:0:
107,187,104279,6,0,P|67:234|64:269,1,67.7407479400635,2|2,2:2|2:2,0:0:0:0:
98,307,104614,1,2,2:2:0:0:
172,321,104782,2,0,P|212:274|214:239,1,67.7407479400635,2|0,2:2|1:0,0:0:0:0:
213,271,105284,6,0,P|244:274|285:292,1,67.7407479400635,2|2,2:2|2:2,0:0:0:0:
358,369,105620,6,0,P|397:335|432:327,1,67.7407479400635,2|2,2:2|2:2,0:0:0:0:
487,302,105955,5,2,2:2:0:0:
482,289,106122,2,0,P|443:255|408:247,1,67.7407479400635,2|0,2:2|1:0,0:0:0:0:
361,295,106457,5,2,2:2:0:0:
357,213,106625,2,0,P|396:176|431:168,1,67.7407479400635,2|2,2:2|2:2,0:0:0:0:
503,94,106960,6,0,L|491:14,1,67.7407479400635,2|2,2:2|2:2,0:0:0:0:
493,28,107295,1,2,2:2:0:0:
425,107,107631,6,0,L|412:26,1,67.7407479400635,2|2,2:2|2:2,0:0:0:0:
415,41,107966,1,2,2:2:0:0:
298,24,108133,5,2,2:2:0:0:
276,141,108301,6,0,P|229:167|187:169,1,67.7407479400635,2|2,2:2|2:2,0:0:0:0:
44,106,108636,5,2,2:2:0:0:
107,64,108804,2,0,P|151:91|173:127,1,67.7407479400635,2|0,2:2|1:0,0:0:0:0:
141,260,109139,5,2,2:2:0:0:
130,253,109307,2,0,P|130:198|150:163,1,67.7407479400635,2|2,2:2|2:2,0:0:0:0:
276,141,109642,6,0,L|300:306,1,135.078745880127,2|2,2:2|2:2,0:0:0:0:
374,263,110145,2,0,L|350:104,1,135.078745880127,2|2,2:2|2:2,0:0:0:0:
305,65,110647,1,2,2:2:0:0:
509,12,110983,6,0,L|501:97,1,67.7407479400635,2|2,2:2|2:2,0:0:0:0:
428,119,111318,5,2,2:2:0:0:
438,128,111485,2,0,L|430:208,1,67.7407479400635,2|0,2:2|1:0,0:0:0:0:
314,199,111821,5,2,2:2:0:0:
371,253,111988,2,0,L|364:333,1,67.7407479400635,2|2,2:2|2:2,0:0:0:0:
246,376,112323,5,2,2:2:0:0:
199,312,112491,1,2,2:2:0:0:
274,336,112659,1,2,2:2:0:0:
199,360,112826,1,2,2:2:0:0:
246,297,112994,1,2,2:2:0:0:
246,297,113329,2,0,L|229:183,1,90.3209972534181,10|2,2:2|2:2,0:0:0:0:
204,69,113664,6,0,P|181:40|139:23,1,67.7407479400635,6|2,2:2|2:2,0:0:0:0:
12,80,113999,6,0,B|40:115|40:115|155:100,1,135.078745880127,10|0,2:2|1:0,0:0:0:0:
204,69,114502,6,0,P|180:37|136:24,1,67.7407479400635,2|2,2:2|2:2,0:0:0:0:
110,189,114837,6,0,L|85:344,1,135.078745880127,10|2,2:2|2:2,0:0:0:0:
165,351,115340,5,10,2:2:0:0:
165,351,115508,2,0,L|179:257,1,67.7407479400635,2|0,2:2|1:0,0:0:0:0:
192,173,115843,1,2,2:2:0:0:
110,189,116011,6,0,L|86:337,1,135.078745880127,10|6,2:2|2:2,0:0:0:0:
165,351,116513,1,2,2:2:0:0:
234,300,116681,6,0,B|271:306|271:306|305:358|305:358|355:369,1,135.078745880127,10|0,2:2|1:0,0:0:0:0:
423,367,117184,6,0,P|402:311|377:290,1,67.7407479400635,2|2,2:2|2:2,0:0:0:0:
234,300,117519,6,0,B|271:306|271:306|305:358|305:358|355:369,1,135.078745880127,10|2,2:2|2:2,0:0:0:0:
397,306,118022,6,0,L|409:222,1,67.7407479400635,10|2,2:2|2:2,0:0:0:0:
366,167,118357,2,0,P|348:135|347:92,1,67.7407479400635,2|2,2:2|2:2,0:0:0:0:
428,112,118692,1,10,2:2:0:0:
325,243,119027,6,0,L|173:221,1,135.078745880127,10|10,2:2|2:2,0:0:0:0:
127,179,119530,1,2,2:2:0:0:
167,112,119698,2,0,L|149:23,1,67.7407479400635,2|2,2:2|2:2,0:0:0:0:
222,0,120033,6,0,P|281:11|342:84,1,135.078745880127,10|2,2:2|2:2,0:0:0:0:
167,112,120536,6,0,L|151:27,1,67.7407479400635,2|10,2:2|2:2,0:0:0:0:
76,63,120871,2,0,L|92:146,1,67.7407479400635,2|2,2:2|2:2,0:0:0:0:
152,256,121206,1,2,2:2:0:0:
152,256,121374,2,0,P|118:284|68:290,1,67.7407479400635,10|2,2:2|2:2,0:0:0:0:
17,197,121709,2,0,L|106:215,1,67.7407479400635,6|2,2:2|2:2,0:0:0:0:
209,335,122044,6,0,P|244:280|255:247,1,79.0308725967408,10|2,2:2|2:2,0:0:0:0:
267,167,122379,2,0,P|306:127|347:113,1,79.0308725967408,10|2,2:2|2:2,0:0:0:0:
423,103,122714,2,0,P|439:57|438:9,1,79.0308725967408,10|2,2:2|2:2,0:0:0:0:
352,0,123217,5,2,2:2:0:0:
440,27,123385,2,0,P|437:66|423:103,1,79.0308725967408,14|2,2:2|2:2,0:0:0:0:
326,117,123720,2,0,P|292:136|267:167,1,79.0308725967408,10|10,2:2|2:2,0:0:0:0:
248,267,124055,2,0,P|232:303|209:335,1,79.0308725967408,6|2,2:2|2:2,0:0:0:0:
210,340,124307,1,0,0:0:0:0:
211,346,124390,6,0,P|140:321|111:322,1,71.5041230974198,10|2,2:2|2:2,0:0:0:0:
71,350,124726,1,2,2:2:0:0:
71,350,124893,1,2,2:2:0:0:
31,249,125061,6,0,P|54:236|86:232,1,48.9238727684022,2|2,2:2|2:2,0:0:0:0:
211,346,125396,6,0,P|140:321|111:322,1,71.5041230974198,2|2,2:2|2:2,0:0:0:0:
129,172,125731,6,0,L|116:79,1,71.5041230974198,2|2,2:2|2:2,0:0:0:0:
151,29,126066,1,2,2:2:0:0:
199,93,126234,2,0,L|212:186,1,71.5041230974198,2|2,2:2|2:2,0:0:0:0:
258,229,126569,1,2,2:2:0:0:
289,154,126737,2,0,L|276:61,1,71.0789980974198,2|2,2:2|2:2,0:0:0:0:
386,38,127072,6,0,P|420:42|451:57,1,48.9238727684022,6|2,2:2|2:2,0:0:0:0:
498,99,127407,1,2,2:2:0:0:
374,181,127575,6,0,P|403:139|435:121,1,71.5041230974198,2|2,2:2|2:2,0:0:0:0:
386,38,127910,6,0,P|420:42|451:57,1,48.9238727684022,2|2,2:2|2:2,0:0:0:0:
498,99,128245,1,2,2:2:0:0:
484,185,128413,6,0,L|500:277,1,71.5041230974198,2|2,2:2|2:2,0:0:0:0:
391,345,128748,1,2,2:2:0:0:
417,269,128916,2,0,L|404:188,1,71.5041230974198,2|2,2:2|2:2,0:0:0:0:
271,155,129251,1,2,2:2:0:0:
327,214,129418,2,0,L|339:294,1,71.5041230974198,2|2,2:2|2:2,0:0:0:0:
132,107,129754,6,0,P|165:57|247:28,1,142.58312119484,10|2,2:2|2:2,0:0:0:0:
301,80,130256,1,2,2:2:0:0:
271,155,130424,1,2,2:2:0:0:
482,296,130759,6,0,L|466:195,1,90.3209972534181,2|2,2:2|2:2,0:0:0:0:
271,155,131094,6,0,P|245:192|242:219,1,71.5041230974198,2|2,2:2|2:2,0:0:0:0:
297,279,131430,2,0,L|395:292,1,71.5041230974198,2|2,2:2|2:2,0:0:0:0:
228,356,131765,2,0,L|130:369,1,71.5041230974198,2|2,2:2|2:2,0:0:0:0:
482,296,132100,6,0,L|466:195,1,90.3209972534181,2|2,2:2|2:2,0:0:0:0:
157,365,132435,6,0,P|214:288|280:277,1,142.58312119484,6|2,2:2|2:2,0:0:0:0:
332,302,132938,2,0,P|381:317|427:315,1,71.5041230974198,2|2,2:2|1:3,0:0:0:0:
482,296,133273,6,0,L|466:195,1,90.3209972534181,2|2,2:2|2:2,0:0:0:0:
467,207,133608,1,2,2:2:0:0:
492,45,133776,6,0,P|426:89|408:170,1,142.58312119484,2|2,2:2|2:2,0:0:0:0:
308,259,134279,1,2,2:2:0:0:
308,259,134363,1,0,0:0:0:0:
308,259,134446,2,0,L|225:247,1,71.5041230974198,0|2,1:0|2:2,0:0:0:0:
250,169,134782,6,0,L|332:182,1,67.6064979400635,10|0,2:2|0:0,0:0:0:0:
323,175,135117,6,0,P|327:129|274:18,1,165.096255035401,6|10,2:2|2:2,0:0:0:0:
140,64,135620,2,0,P|142:145|183:215,1,165.096255035401,2|2,2:2|2:2,0:0:0:0:
271,259,136122,5,10,2:2:0:0:
235,135,136290,1,2,2:2:0:0:
323,175,136457,6,0,P|361:189|433:177,1,82.7942525177003,6|10,2:2|2:2,0:0:0:0:
402,188,136709,1,4,2:3:0:0:
402,188,136793,1,2,2:2:0:0:
417,105,136960,2,0,P|379:91|307:103,1,82.7942525177003,2|0,2:2|0:0,0:0:0:0:
172,193,137295,5,2,2:2:0:0:
69,164,137463,2,0,L|90:67,1,82.7942525177003,10|2,2:2|2:2,0:0:0:0:
10,253,137798,2,0,P|103:195|192:197,1,180.104994506836,10|10,2:2|2:2,0:0:0:0:
220,318,138301,2,0,P|127:376|38:374,1,180.104994506836,2|2,2:2|2:2,0:0:0:0:
58,378,138720,1,0,1:0:0:0:
58,378,138804,1,10,2:2:0:0:
88,190,138971,1,2,2:2:0:0:
0,317,139139,5,10,2:2:0:0:
4,294,139223,1,8,1:3:0:0:
7,272,139307,1,6,2:2:0:0:
10,250,139390,1,0,1:0:0:0:
13,227,139474,1,2,2:2:0:0:
169,240,139642,6,0,L|182:145,1,89.7839972534181,10|0,2:2|0:0,0:0:0:0:
182,150,139977,1,2,2:2:0:0:
333,156,140145,6,0,L|346:61,1,89.7839972534181,10|2,2:2|2:2,0:0:0:0:
345,66,140396,1,0,1:0:0:0:
345,66,140480,1,10,2:2:0:0:
507,101,140647,1,0,1:0:0:0:
434,45,140815,1,2,2:2:0:0:
306,148,140983,2,0,P|247:159|188:133,1,101.611125386238,10|2,2:2|2:2,0:0:0:0:
78,45,141318,1,2,2:2:0:0:
5,101,141485,1,10,2:2:0:0:
166,65,141653,6,0,L|219:311,1,225.131258583069,6|10,2:2|2:2,0:0:0:0:
214,285,142156,5,10,2:2:0:0:
167,221,142323,1,2,2:2:0:0:
161,201,142407,1,0,0:0:0:0:
162,180,142491,1,10,2:2:0:0:
182,103,142659,1,6,2:2:0:0:
179,82,142742,1,2,2:2:0:0:
166,65,142826,2,0,L|113:56,3,43.1930424892108,10|2|2|2,2:2|2:2|2:2|2:2,0:0:0:0:
127,48,143161,6,0,B|83:57|83:57|48:130|48:130|-20:149,1,172.600628290176,14|10,2:2|2:2,0:0:0:0:
144,134,143664,2,0,L|251:147,1,86.5576266450882,2|0,2:2|0:0,0:0:0:0:
380,106,143999,1,2,2:2:0:0:
345,26,144167,2,0,P|309:54|294:108,1,86.5576266450882,10|2,2:2|2:2,0:0:0:0:
445,269,144502,6,0,P|384:200|283:176,1,172.600628290176,2|10,2:2|2:2,0:0:0:0:
192,240,145005,1,2,2:2:0:0:
192,240,145089,1,0,0:0:0:0:
192,240,145173,2,0,L|89:226,1,86.5576266450882,0|2,0:0|2:2,0:0:0:0:
300,338,145508,2,0,L|276:252,1,86.5576266450882,10|2,2:2|2:2,0:0:0:0:
139,97,145843,6,0,P|42:165|23:223,1,172.600628290176,6|10,2:2|2:2,0:0:0:0:
96,328,146346,2,0,B|154:317|154:317|170:279,1,86.5576266450882,2|0,2:2|0:0,0:0:0:0:
191,212,146681,1,2,2:2:0:0:
109,228,146849,2,0,L|21:211,1,86.5576266450882,10|2,2:2|2:2,0:0:0:0:
69,14,147184,5,2,2:2:0:0:
147,38,147351,2,0,P|167:67|167:130,1,86.5576266450882,2|10,2:2|2:2,0:0:0:0:
39,155,147687,2,0,P|18:125|18:62,1,86.5576266450882,2|2,2:2|2:2,0:0:0:0:
69,14,148022,5,2,2:2:0:0:
119,181,148189,1,10,2:2:0:0:
413,37,148525,6,0,B|366:58|366:58|356:190,1,172.600628290176,6|10,2:2|2:2,0:0:0:0:
446,284,149027,2,0,P|493:264|519:215,1,86.5576266450882,2|0,2:2|0:0,0:0:0:0:
446,114,149363,1,2,2:2:0:0:
446,114,149530,2,0,L|435:220,1,86.5576266450882,10|2,2:2|2:2,0:0:0:0:
483,360,149865,5,2,2:2:0:0:
365,303,150033,2,0,L|271:321,1,86.5576266450882,2|10,2:2|2:2,0:0:0:0:
141,353,150368,2,0,L|88:363,2,43.2788133225441,2|0|0,2:2|0:0|0:0,0:0:0:0:
220,377,150703,1,2,2:2:0:0:
202,297,150871,1,10,2:2:0:0:
264,236,151039,1,2,2:2:0:0:
264,236,151122,1,0,0:0:0:0:
264,236,151206,6,0,P|298:137|298:64,1,172.600628290176,2|10,2:2|2:2,0:0:0:0:
116,38,151709,2,0,P|82:137|82:210,1,172.600628290176,2|2,2:2|2:2,0:0:0:0:
280,319,152212,2,0,L|367:304,1,86.5576266450882,10|2,2:2|2:2,0:0:0:0:
487,282,152547,5,2,2:2:0:0:
507,160,152714,5,2,2:2:0:0:
462,163,152798,1,0,0:0:0:0:
428,198,152882,2,0,P|418:227|417:252,1,43.5361258225441,10|0,2:2|0:0,0:0:0:0:
487,282,153050,5,2,2:2:0:0:
487,282,153385,6,0,P|497:253|498:228,1,43.5361258225441,2|0,2:2|1:0,0:0:0:0:
390,119,153552,2,0,P|372:70|370:34,1,86.5576266450882,10|2,2:2|2:2,0:0:0:0:
372,42,153804,1,0,0:0:0:0:
375,48,153888,6,0,B|331:57|331:57|296:130|296:130|228:149,1,172.600628290176,10|10,2:2|2:2,0:0:0:0:
82,112,154390,2,0,P|116:56|162:41,1,86.5576266450882,2|0,2:2|0:0,0:0:0:0:
237,59,154726,1,2,2:2:0:0:
251,142,154893,2,0,L|164:128,1,86.5576266450882,10|2,2:2|2:2,0:0:0:0:
0,229,155228,6,0,P|28:292|135:343,1,172.600628290176,2|10,2:2|2:2,0:0:0:0:
200,331,155731,1,2,2:2:0:0:
200,331,155815,1,0,0:0:0:0:
200,331,155899,2,0,L|301:316,1,86.5576266450882,0|2,0:0|2:2,0:0:0:0:
414,188,156234,2,0,P|457:227|467:285,1,86.5576266450882,10|2,2:2|2:2,0:0:0:0:
366,353,156569,6,0,L|385:250,1,86.5576266450882,6|2,2:2|2:2,0:0:0:0:
343,138,156904,1,10,2:2:0:0:
366,55,157072,2,0,B|482:37|482:37|508:85,1,172.600628290176,2|2,2:2|2:2,0:0:0:0:
283,75,157575,2,0,L|166:52,1,86.5576266450882,10|2,2:2|2:2,0:0:0:0:
198,58,157826,1,0,0:0:0:0:
198,58,157910,5,2,2:2:0:0:
131,114,158078,1,2,2:2:0:0:
47,88,158245,1,10,2:2:0:0:
131,114,158413,2,0,L|152:209,1,86.5576266450882,2|2,2:2|2:2,0:0:0:0:
147,362,158748,1,2,2:2:0:0:
230,340,158916,2,0,L|209:245,1,86.5576266450882,10|2,2:2|2:2,0:0:0:0:
383,161,159251,6,0,P|445:170|503:212,1,129.579127467632,6|0,2:2|0:0,0:0:0:0:
500,216,159586,2,0,P|480:270|477:307,1,86.5576266450882,10|2,2:2|2:2,0:0:0:0:
382,160,159921,2,0,P|366:120|361:78,1,86.5576266450882,0|2,0:0|2:2,0:0:0:0:
185,25,160256,6,0,P|211:59|244:86,1,86.5576266450882,10|2,2:2|2:2,0:0:0:0:
375,0,160592,1,2,2:2:0:0:
375,0,160927,6,0,P|314:13|291:39,1,86.5576266450882,10|2,2:2|2:2,0:0:0:0:
325,106,161262,1,0,0:0:0:0:
216,165,161430,1,2,2:2:0:0:
216,165,161597,2,0,P|155:152|132:126,1,86.5576266450882,10|2,2:2|2:2,0:0:0:0:
35,36,161932,6,0,L|72:231,1,172.600628290176,2|10,2:2|2:2,0:0:0:0:
89,326,162435,1,2,2:2:0:0:
89,326,162519,1,0,0:0:0:0:
89,326,162603,2,0,P|30:292|13:255,1,86.5576266450882,0|2,0:0|2:2,0:0:0:0:
67,205,162938,2,0,L|164:185,1,86.5576266450882,10|2,2:2|2:2,0:0:0:0:
256,84,163273,5,2,2:2:0:0:
239,88,163357,1,0,0:0:0:0:
224,96,163441,1,2,2:2:0:0:
211,108,163525,1,0,0:0:0:0:
201,122,163608,1,10,2:2:0:0:
234,197,163776,2,0,L|331:217,1,86.5576266450882,2|2,2:2|2:2,0:0:0:0:
220,279,164111,5,2,2:2:0:0:
262,287,164195,1,0,1:0:0:0:
304,296,164279,1,10,2:2:0:0:
383,268,164446,1,2,2:2:0:0:
383,268,164614,2,0,P|414:307|412:366,1,86.5576266450882,10|2,2:2|2:2,0:0:0:0:
295,379,164949,5,10,2:2:0:0:
318,214,165117,1,2,2:2:0:0:
172,276,165284,1,10,2:2:0:0:
295,379,165452,1,2,2:2:0:0:
318,214,165620,2,0,L|337:99,1,94.084375,10|2,2:2|2:2,0:0:0:0:
399,26,165955,1,10,2:2:0:0:
449,139,166122,1,2,2:2:0:0:
333,121,166290,1,10,2:2:0:0:
399,26,166457,1,2,2:2:0:0:
399,26,166541,1,0,0:0:0:0:
399,26,166625,2,0,L|282:42,1,94.084375,10|2,2:2|2:2,0:0:0:0:
177,219,166960,6,0,P|137:196|113:148,1,94.084375,10|2,2:2|2:2,0:0:0:0:
118,161,167212,1,0,0:0:0:0:
119,167,167295,6,0,L|139:47,1,112.901254291535,10|2,2:2|2:2,0:0:0:0:
211,0,167631,1,2,2:2:0:0:
206,200,167798,2,0,L|226:80,1,112.901254291535,10|2,2:2|2:2,0:0:0:0:
297,33,168133,1,2,2:2:0:0:
295,233,168301,2,0,L|315:113,1,109.137878318787,10|2,2:2|2:2,0:0:0:0:
384,66,168636,5,6,2:2:0:0:
423,138,168804,2,0,L|538:127,1,90.3209972534181,10|2,2:2|2:2,0:0:0:0:
512,129,169139,1,2,2:2:0:0:
457,264,169307,5,10,2:2:0:0:
441,258,169390,1,4,3:3:0:0:
427,249,169474,1,6,2:2:0:0:
416,236,169558,1,4,3:3:0:0:
409,220,169642,2,0,L|384:375,1,112.901254291535,14|2,2:2|2:2,0:0:0:0:
173,370,169977,5,14,2:2:0:0:
153,364,170061,1,0,2:0:0:0:
139,351,170145,1,2,2:3:0:0:
132,332,170228,1,2,2:3:0:0:
135,313,170312,1,2,2:2:0:0:
146,297,170396,1,2,2:2:0:0:
164,288,170480,1,2,2:2:0:0:
184,288,170564,1,2,2:2:0:0:
201,297,170647,2,0,P|228:314|246:339,3,43.1930424892108,2|2|2|2,2:2|2:2|2:2|2:2,0:0:0:0:
240,329,170983,6,0,L|257:221,1,86.5576266450882,2|2,2:2|2:2,0:0:0:0:
294,215,171234,1,2,2:2:0:0:
336,236,171318,2,0,L|442:225,1,86.5576266450882,14|2,2:2|2:2,0:0:0:0:
297,128,171653,1,2,2:2:0:0:
224,169,171821,2,0,L|118:158,2,86.3003141450882,2|2|2,2:2|2:2|2:2,0:0:0:0:
302,45,172323,1,2,2:2:0:0:
512,145,172659,5,6,2:2:0:0:
506,135,172742,1,0,2:0:0:0:
499,127,172826,1,2,2:3:0:0:
491,120,172910,1,2,2:3:0:0:
483,113,172994,1,2,2:2:0:0:
473,109,173078,1,2,2:2:0:0:
462,106,173161,1,2,2:2:0:0:
452,104,173245,1,2,2:2:0:0:
442,104,173329,2,0,L|382:117,3,43.1930424892108,2|2|2|2,2:2|2:2|2:2|2:2,0:0:0:0:
391,117,173664,6,0,L|293:103,1,86.5576266450882,2|2,2:2|2:2,0:0:0:0:
261,122,173916,1,2,2:2:0:0:
222,95,173999,2,0,L|200:12,1,86.5576266450882,14|2,2:2|2:2,0:0:0:0:
84,128,174335,1,2,2:2:0:0:
120,201,174502,2,0,L|98:284,2,86.3003141450882,2|2|2,2:2|2:2|2:2,0:0:0:0:
199,173,175005,1,2,2:2:0:0:
7,326,175340,5,6,2:2:0:0:
4,307,175424,1,0,2:0:0:0:
8,290,175508,1,2,2:3:0:0:
18,275,175592,1,2,2:3:0:0:
33,264,175675,1,2,2:2:0:0:
51,260,175759,1,2,2:2:0:0:
69,262,175843,1,2,2:2:0:0:
85,270,175927,1,2,2:2:0:0:
97,284,176011,2,0,L|110:341,3,43.1930424892108,2|2|2|2,2:2|2:2|2:2|2:2,0:0:0:0:
110,333,176346,6,0,P|149:354|207:352,1,86.5576266450882,2|2,2:2|2:2,0:0:0:0:
225,320,176597,1,2,2:2:0:0:
270,309,176681,2,0,P|300:346|310:424,1,86.5576266450882,14|2,2:2|2:2,0:0:0:0:
230,234,177016,1,2,2:2:0:0:
243,152,177184,2,0,P|256:111|284:78,2,86.3003141450882,2|2|2,2:2|2:2|2:2,0:0:0:0:
148,249,177687,1,2,2:2:0:0:
400,363,178022,5,6,2:2:0:0:
402,352,178106,1,0,2:0:0:0:
405,341,178189,1,2,2:3:0:0:
409,332,178273,1,2,2:3:0:0:
415,322,178357,1,2,2:2:0:0:
421,314,178441,1,2,2:2:0:0:
429,306,178525,1,2,2:2:0:0:
437,299,178608,1,2,2:2:0:0:
446,294,178692,2,0,L|516:307,3,43.1930424892108,2|2|2|2,2:2|2:2|2:2|2:2,0:0:0:0:
497,303,179027,6,0,P|472:250|468:207,1,86.5576266450882,2|2,2:2|2:2,0:0:0:0:
498,185,179279,1,2,2:2:0:0:
484,139,179363,2,0,P|432:109|387:105,1,86.5576266450882,14|2,2:2|2:2,0:0:0:0:
337,148,179698,1,2,2:2:0:0:
283,48,179865,2,0,P|226:68|194:100,1,86.5576266450882,2|2,2:2|2:2,0:0:0:0:
207,85,180201,1,2,2:2:0:0:
55,122,180368,2,0,P|29:77|33:36,1,86.5576266450882,2|2,2:2|2:3,0:0:0:0:
35,50,180620,1,2,2:3:0:0:
38,57,180703,6,0,L|144:73,1,86.5576266450882,10|2,2:2|2:3,0:0:0:0:
207,85,181039,2,0,L|190:185,1,86.5576266450882,2|2,2:2|2:2,0:0:0:0:
176,256,181374,2,0,L|282:272,1,86.5576266450882,2|2,2:2|2:2,0:0:0:0:
458,315,181709,5,2,2:2:0:0:
433,281,181793,1,2,2:2:0:0:
409,248,181876,1,2,2:2:0:0:
374,268,181960,1,2,2:2:0:0:
344,284,182044,2,0,L|327:384,1,86.5576266450882,14|2,2:2|2:2,0:0:0:0:
246,353,182379,5,2,2:2:0:0:
246,353,182547,2,0,L|263:253,1,86.5576266450882,2|2,2:2|2:2,0:0:0:0:
176,251,182882,1,2,2:2:0:0:
176,251,183050,2,0,L|159:351,1,86.5576266450882,2|2,2:2|2:3,0:0:0:0:
512,217,183385,6,0,L|406:238,1,86.5576266450882,6|2,2:2|2:3,0:0:0:0:
343,248,183720,2,0,L|324:148,1,87.0722516450882,2|2,2:2|2:2,0:0:0:0:
314,77,184055,2,0,L|208:98,1,87.0722516450882,2|2,2:2|2:2,0:0:0:0:
51,56,184390,1,2,2:2:0:0:
129,33,184558,5,2,2:2:0:0:
135,77,184642,1,2,2:2:0:0:
109,114,184726,2,0,L|93:214,1,86.5576266450882,14|2,2:2|2:2,0:0:0:0:
210,283,185061,6,0,P|203:240|176:208,1,86.5576266450882,2|2,2:2|2:2,0:0:0:0:
50,312,185396,1,2,2:2:0:0:
57,304,185480,1,2,2:2:0:0:
66,297,185564,1,2,2:2:0:0:
74,291,185647,1,2,2:2:0:0:
84,286,185731,1,2,2:2:0:0:
94,282,185815,1,0,2:0:0:0:
104,279,185899,1,2,2:3:0:0:
115,277,185983,1,2,2:3:0:0:
125,276,186066,5,6,2:2:0:0:
188,329,186234,1,2,2:3:0:0:
258,290,186402,2,0,L|271:200,1,86.5576266450882,2|2,2:2|2:2,0:0:0:0:
285,122,186737,2,0,L|375:135,1,86.5576266450882,2|2,2:2|2:2,0:0:0:0:
512,53,187072,1,2,2:2:0:0:
444,0,187240,5,2,2:2:0:0:
404,16,187323,1,2,2:2:0:0:
391,54,187407,1,14,2:2:0:0:
452,111,187575,2,0,P|471:165|474:212,1,86.5576266450882,2|2,2:2|2:2,0:0:0:0:
435,271,187910,5,2,2:2:0:0:
435,271,187994,1,2,2:2:0:0:
435,271,188078,2,0,L|335:255,1,86.5576266450882,2|2,2:2|2:2,0:0:0:0:
266,270,188413,2,0,P|237:315|229:364,1,86.5576266450882,2|2,2:2|2:3,0:0:0:0:
229,346,188664,1,2,1:3:0:0:
229,346,188748,5,6,2:2:0:0:
151,371,188916,1,0,3:0:0:0:
91,317,189083,1,2,2:2:0:0:
167,291,189251,2,0,L|179:232,2,43.2788133225441,2|2|2,2:2|2:2|2:2,0:0:0:0:
89,140,189586,2,0,L|106:56,1,86.5576266450882,2|2,2:2|2:2,0:0:0:0:
167,167,189921,5,2,2:2:0:0:
192,162,190005,1,2,2:2:0:0:
218,158,190089,1,14,2:2:0:0:
243,154,190173,1,2,2:2:0:0:
269,150,190256,1,2,2:2:0:0:
294,146,190340,1,2,2:2:0:0:
320,141,190424,1,2,2:2:0:0:
345,137,190508,1,2,2:2:0:0:
371,133,190592,1,2,2:2:0:0:
396,129,190675,1,2,2:2:0:0:
422,125,190759,1,10,2:2:0:0:
446,224,190927,5,2,2:2:0:0:
359,247,191094,5,2,2:2:0:0:
376,325,191262,5,6,2:2:0:0:
376,325,191430,6,0,P|324:268|228:244,1,172.600628290176,14|10,2:2|2:2,0:0:0:0:
191,314,191932,2,0,P|158:351|89:359,1,86.5576266450882,2|0,2:2|0:0,0:0:0:0:
0,327,192268,1,2,2:2:0:0:
31,252,192435,2,0,L|136:284,1,86.5576266450882,10|2,2:2|2:2,0:0:0:0:
113,277,192687,1,0,0:0:0:0:
113,277,192770,5,2,2:2:0:0:
217,164,192938,2,0,L|199:53,1,86.5576266450882,2|10,2:2|2:2,0:0:0:0:
123,43,193273,2,0,P|77:60|49:112,1,86.5576266450882,2|0,2:2|0:0,0:0:0:0:
132,127,193608,1,2,2:2:0:0:
203,78,193776,2,0,L|293:91,1,86.5576266450882,10|2,2:2|2:2,0:0:0:0:
290,96,194027,1,0,0:0:0:0:
293,102,194111,6,0,B|339:91|339:91|377:22|377:22|440:8,1,172.600628290176,2|10,2:2|2:2,0:0:0:0:
434,96,194614,2,0,L|447:195,1,86.5576266450882,2|0,2:2|0:0,0:0:0:0:
485,312,194949,1,2,2:2:0:0:
485,312,195117,2,0,P|455:247|349:207,1,172.600628290176,10|2,2:2|2:2,0:0:0:0:
290,194,195620,5,0,1:0:0:0:
281,275,195787,1,10,2:2:0:0:
272,355,195955,1,2,2:2:0:0:
362,284,196122,5,2,2:2:0:0:
281,275,196290,1,2,2:2:0:0:
201,266,196457,1,10,2:2:0:0:
97,341,196625,5,2,2:2:0:0:
97,341,196709,1,0,0:0:0:0:
97,341,196793,2,0,B|45:325|45:325|30:204,1,172.600628290176,6|10,2:2|2:2,0:0:0:0:
111,174,197295,2,0,L|121:270,1,86.5576266450882,2|0,2:2|0:0,0:0:0:0:
201,266,197631,1,2,2:2:0:0:
280,244,197798,2,0,L|270:148,1,86.5576266450882,10|2,2:2|2:2,0:0:0:0:
272,164,198050,1,0,0:0:0:0:
273,170,198133,6,0,B|354:153|354:153|385:190,1,129.579127467632,2|2,2:2|1:2,0:0:0:0:
388,195,198469,2,0,B|443:201|443:201|469:167,1,86.5576266450882,10|2,2:2|2:2,0:0:0:0:
450,362,198804,2,0,B|432:281|432:281|361:273,1,129.579127467632
380,278,199139,2,0,B|373:332|373:332|325:343,1,86.5576266450882,10|2,2:2|2:2,0:0:0:0:
144,269,199474,6,0,P|55:290|-3:368,2,172.600628290176,2|10|0,2:2|2:2|0:0,0:0:0:0:
224,294,200312,1,2,2:2:0:0:
208,211,200480,2,0,L|231:114,1,86.5576266450882,10|2,2:2|2:2,0:0:0:0:
40,105,200815,2,0,L|63:8,1,86.5576266450882,2|2,2:2|2:2,0:0:0:0:
59,21,201066,1,0,3:0:0:0:
59,21,201150,1,10,2:2:0:0:
144,36,201318,1,2,2:2:0:0:
393,145,201653,5,2,2:2:0:0:
393,145,201737,1,0,1:0:0:0:
393,145,201821,2,0,L|490:134,1,86.5576266450882,10|2,2:2|2:2,0:0:0:0:
505,56,202156,5,10,2:2:0:0:
342,76,202323,2,0,P|310:130|311:173,1,86.5576266450882,2|10,2:2|2:2,0:0:0:0:
256,219,202659,1,2,2:2:0:0:
339,231,202826,2,0,P|371:285|370:328,1,86.5576266450882,0|2,0:0|2:2,0:0:0:0:
190,368,203161,5,10,2:2:0:0:
267,384,203329,2,0,L|286:293,1,86.5576266450882,2|2,2:2|2:2,0:0:0:0:
448,207,203664,1,2,2:2:0:0:
339,231,203832,1,10,2:2:0:0:
339,231,203999,2,0,L|320:140,1,86.5576266450882,2|0,2:2|0:0,0:0:0:0:
298,65,204335,5,2,2:2:0:0:
298,65,204418,1,0,0:0:0:0:
298,65,204502,2,0,P|246:35|209:32,1,86.5576266450882,10|2,2:2|2:2,0:0:0:0:
22,116,204837,5,6,2:2:0:0:
98,205,205005,2,0,L|187:195,1,86.5576266450882,2|10,2:2|2:2,0:0:0:0:
266,210,205340,1,2,2:2:0:0:
215,278,205508,2,0,L|126:288,1,86.5576266450882,0|2,0:0|2:2,0:0:0:0:
71,354,205843,5,10,2:2:0:0:
46,270,206011,2,0,P|79:216|108:200,1,86.5576266450882,2|2,2:2|2:2,0:0:0:0:
183,195,206346,1,2,2:2:0:0:
249,75,206513,1,10,2:2:0:0:
249,75,206681,2,0,P|216:21|187:5,1,86.5576266450882,2|0,2:2|0:0,0:0:0:0:
31,39,207016,5,2,2:2:0:0:
31,39,207100,1,0,0:0:0:0:
31,39,207184,2,0,L|138:23,1,86.5576266450882,10|2,2:2|2:2,0:0:0:0:
323,156,207519,6,0,L|346:47,1,97.8477455368044,6|2,2:2|2:2,0:0:0:0:
206,134,207854,2,0,L|229:25,1,97.8477455368044,10|2,2:2|2:2,0:0:0:0:
360,317,208189,2,0,L|383:208,1,97.8477455368044,10|2,2:2|2:2,0:0:0:0:
115,273,208525,2,0,L|138:164,1,97.8477455368044,10|2,2:2|2:2,0:0:0:0:
137,183,208776,1,0,0:0:0:0:
139,189,208860,6,0,L|11:208,1,97.8477455368044,14|2,2:2|2:2,0:0:0:0:
166,349,209195,2,0,L|38:368,1,97.8477455368044,10|2,2:2|2:2,0:0:0:0:
269,211,209530,2,0,L|141:230,1,97.8477455368044,10|2,2:2|2:2,0:0:0:0:
283,287,209865,2,0,L|155:306,1,97.8477455368044,10|2,2:2|2:2,0:0:0:0:
186,301,210117,1,0,0:0:0:0:
186,301,210201,5,14,2:2:0:0:
109,272,210368,1,2,2:2:0:0:
83,196,210536,1,2,2:2:0:0:
115,122,210703,2,0,P|128:84|130:11,1,86.5576266450882,10|2,2:2|2:2,0:0:0:0:
132,38,211039,1,2,2:2:0:0:
242,179,211206,5,10,2:2:0:0:
242,179,211318,2,0,L|318:170,1,57.8766260967255
348,109,211541,1,2,2:2:0:0:
348,109,211653,2,0,L|424:100,1,57.8766260967255
451,37,211876,1,2,2:2:0:0:
451,37,211988,2,0,L|527:28,1,57.8766260967255
187,156,212212,6,0,L|299:172,1,112.901254291535,10|2,2:2|2:2,0:0:0:0:
331,247,212463,1,0,0:0:0:0:
331,247,212547,2,0,L|443:263,1,112.901254291535,10|0,2:2|1:0,0:0:0:0:
481,335,212882,1,6,2:2:0:0:
256,192,212966,12,2,214223,2:2:0:0:
386,114,226290,5,6,2:2:0:0:
386,114,226625,2,0,L|378:48,1,56.4506271457673,2|2,2:2|2:2,0:0:0:0:
301,124,226960,1,2,3:1:0:0:
301,124,227295,2,0,L|293:58,1,56.4506271457673,0|2,0:0|2:2,0:0:0:0:
218,30,227631,2,0,P|169:31|108:58,1,112.565629291535,10|2,2:2|2:2,0:0:0:0:
56,118,228133,1,2,2:2:0:0:
56,118,228301,1,2,2:2:0:0:
30,40,228636,5,2,2:2:0:0:
46,271,228971,5,10,2:2:0:0:
46,271,229307,2,0,L|36:205,1,56.1150021457673,2|2,2:2|2:2,0:0:0:0:
131,258,229642,1,2,3:1:0:0:
131,258,229977,2,0,L|121:192,1,56.4506271457673,0|2,0:0|2:2,0:0:0:0:
229,310,230312,2,0,P|220:341|217:381,2,56.2828146457673,10|2|2,2:2|2:2|2:2,0:0:0:0:
298,264,230815,1,2,2:2:0:0:
368,310,230983,1,2,2:2:0:0:
436,265,231318,5,2,2:2:0:0:
472,33,231653,5,10,2:2:0:0:
472,33,231988,2,0,L|404:40,1,56.4506271457673,2|2,2:2|2:2,0:0:0:0:
367,107,232323,1,2,3:1:0:0:
367,107,232659,2,0,L|299:114,1,56.4506271457673,0|2,0:0|2:2,0:0:0:0:
228,190,232994,5,10,2:2:0:0:
162,140,233161,1,2,2:2:0:0:
81,142,233329,2,0,P|87:71|108:14,1,112.565629291535,2|2,2:2|2:2,0:0:0:0:
422,237,233999,2,0,P|416:308|395:365,1,112.565629291535,2|4,2:2|2:2,0:0:0:0:
373,70,237016,6,0,B|412:57|426:36|426:36|402:163,1,187.609375,14|10,2:2|2:2,0:0:0:0:
288,296,237519,2,0,P|256:236|257:200,1,94.084375,2|0,2:2|0:0,0:0:0:0:
319,155,237854,1,2,2:2:0:0:
403,157,238022,2,0,P|435:217|434:253,1,94.084375,10|2,2:2|2:2,0:0:0:0:
201,250,238357,6,0,L|225:61,1,187.609375,2|10,2:2|2:2,0:0:0:0:
154,17,238860,1,2,2:2:0:0:
154,17,238944,1,0,0:0:0:0:
154,17,239027,2,0,P|101:28|71:69,1,94.084375,2|2,2:2|2:2,0:0:0:0:
13,211,239363,2,0,L|32:311,1,94.084375,10|0,2:2|0:0,0:0:0:0:
110,334,239698,6,0,P|176:328|259:223,1,187.609375,6|10,2:2|2:2,0:0:0:0:
175,217,240201,2,0,L|74:192,1,94.084375,2|0,2:2|0:0,0:0:0:0:
337,261,240536,1,2,2:2:0:0:
337,261,240703,2,0,P|337:214|311:177,1,94.084375,10|2,2:2|2:2,0:0:0:0:
310,176,240955,1,0,0:0:0:0:
310,176,241039,5,2,2:2:0:0:
256,105,241206,2,0,B|264:48|264:48|301:28,1,94.084375,2|10,2:2|2:2,0:0:0:0:
494,180,241541,2,0,B|447:176|447:176|384:104|384:104|319:95,1,187.609375,2|2,2:2|2:2,0:0:0:0:
222,186,242044,2,0,L|104:205,1,94.084375,10|2,2:2|2:2,0:0:0:0:
131,207,242295,1,0,0:0:0:0:
132,213,242379,6,0,P|41:109|44:50,1,187.609375,6|10,2:2|2:2,0:0:0:0:
185,42,242882,2,0,L|160:141,1,94.084375,2|0,2:2|0:0,0:0:0:0:
132,213,243217,1,2,2:2:0:0:
261,318,243385,2,0,P|235:259|203:240,1,94.084375,10|2,2:2|2:2,0:0:0:0:
84,313,243720,5,2,2:2:0:0:
84,313,243888,2,0,L|196:322,1,94.084375,2|10,2:2|2:2,0:0:0:0:
386,186,244223,2,0,B|440:208|440:208|457:344,1,187.609375,2|2,2:2|2:2,0:0:0:0:
374,363,244726,2,0,L|363:261,1,94.084375,8|2,2:2|2:2,0:0:0:0:
366,276,244977,1,0,0:0:0:0:
368,282,245061,6,0,P|426:187|503:166,1,187.609375,2|10,2:2|2:2,0:0:0:0:
346,145,245564,2,0,L|247:128,1,94.084375,2|0,2:2|0:0,0:0:0:0:
403,80,245899,5,2,2:2:0:0:
224,47,246066,2,0,P|174:101|171:137,1,94.084375,10|0,2:2|0:0,0:0:0:0:
137,305,246402,5,2,2:2:0:0:
145,261,246485,1,0,0:0:0:0:
150,218,246569,1,2,2:2:0:0:
127,179,246653,1,0,0:0:0:0:
83,158,246737,1,10,2:2:0:0:
61,283,246904,5,2,2:2:0:0:
61,283,247240,6,0,L|73:207,1,47.321875,2|0,2:2|1:0,0:0:0:0:
207,154,247407,2,0,L|189:50,1,94.084375,10|0,2:2|0:0,0:0:0:0:
192,69,247659,1,0,0:0:0:0:
195,75,247742,6,0,B|242:79|242:79|298:154|298:154|371:165,1,187.609375,10|10,2:2|2:2,0:0:0:0:
477,130,248245,2,0,P|460:84|389:51,1,94.084375,2|0,2:2|0:0,0:0:0:0:
346,78,248580,1,2,2:2:0:0:
343,245,248748,2,0,L|443:231,1,94.084375,10|2,2:2|2:2,0:0:0:0:
501,352,249083,6,0,B|469:308|469:308|321:331,1,187.609375,2|10,2:2|2:2,0:0:0:0:
141,364,249586,1,2,2:2:0:0:
141,364,249670,1,0,0:0:0:0:
141,364,249754,2,0,P|96:323|85:271,1,94.084375,2|2,2:2|2:2,0:0:0:0:
105,210,250089,2,0,L|120:112,1,94.084375,10|0,2:2|0:0,0:0:0:0:
265,27,250424,6,0,P|362:51|412:137,1,187.609375,6|10,2:2|2:2,0:0:0:0:
469,179,250927,2,0,P|494:127|468:65,1,94.084375,2|2,2:2|2:2,0:0:0:0:
427,39,251262,1,2,2:2:0:0:
349,59,251430,2,0,P|324:111|350:173,1,94.084375,10|2,2:2|2:2,0:0:0:0:
329,144,251681,1,0,0:0:0:0:
329,144,251765,5,2,2:2:0:0:
381,304,251932,2,0,L|507:315,1,94.084375,2|10,2:2|2:2,0:0:0:0:
378,220,252268,2,0,B|332:228|332:228|276:303|276:303|203:314,1,187.609375,2|2,2:2|2:2,0:0:0:0:
101,258,252770,2,0,P|70:300|68:350,1,94.084375,10|2,2:2|2:2,0:0:0:0:
149,324,253106,6,0,L|134:165,1,140.846875,6|0,2:2|0:0,0:0:0:0:
136,176,253441,2,0,L|247:193,1,94.084375,10|2,2:2|2:2,0:0:0:0:
345,41,253776,2,0,L|274:128,1,94.084375,0|2,0:0|2:2,0:0:0:0:
355,287,254111,6,0,L|314:182,1,94.084375,10|2,2:2|2:2,0:0:0:0:
469,107,254446,1,2,2:2:0:0:
469,107,254782,6,0,P|423:116|385:143,1,94.084375,10|2,2:2|2:2,0:0:0:0:
403,224,255117,1,2,2:2:0:0:
272,127,255284,1,2,2:2:0:0:
272,127,255452,2,0,P|243:163|230:208,1,94.084375,10|2,2:2|2:2,0:0:0:0:
159,354,255787,6,0,B|32:336|32:336|7:250,1,187.609375,2|10,2:2|2:2,0:0:0:0:
40,115,256290,2,0,L|54:13,1,94.084375,2|0,2:2|0:0,0:0:0:0:
27,197,256625,1,2,2:2:0:0:
27,197,256709,1,0,0:0:0:0:
27,197,256793,2,0,P|85:186|113:157,1,94.084375,10|0,2:2|0:0,0:0:0:0:
158,87,257128,5,2,2:2:0:0:
192,82,257212,1,0,0:0:0:0:
226,90,257295,1,2,2:2:0:0:
255,109,257379,1,0,0:0:0:0:
275,138,257463,1,10,2:2:0:0:
206,262,257631,2,0,L|192:160,1,94.084375,2|2,2:2|2:2,0:0:0:0:
346,185,257966,5,2,2:2:0:0:
359,155,258050,1,0,1:0:0:0:
359,122,258133,1,10,2:2:0:0:
333,42,258301,1,0,0:0:0:0:
333,42,258469,2,0,P|384:43|435:82,1,94.084375,10|2,2:2|2:2,0:0:0:0:
478,196,258804,5,10,2:2:0:0:
335,233,258971,1,2,2:2:0:0:
370,380,259139,1,10,2:2:0:0:
512,349,259307,1,2,2:2:0:0:
335,233,259474,2,0,L|203:215,1,105.374496795654,10|2,2:2|2:2,0:0:0:0:
44,116,259809,1,10,2:2:0:0:
187,72,259977,1,2,2:2:0:0:
230,218,260145,1,10,2:2:0:0:
85,255,260312,1,2,2:2:0:0:
85,255,260396,1,0,0:0:0:0:
85,255,260480,2,0,L|71:365,1,105.374496795654,10|2,2:2|2:2,0:0:0:0:
103,106,260815,6,0,L|117:-4,1,105.374496795654,10|2,2:2|2:2,0:0:0:0:
116,1,261066,1,0,0:0:0:0:
116,1,261150,5,10,2:2:0:0:
183,166,261318,1,2,2:2:0:0:
8,143,261485,1,2,2:2:0:0:
197,63,261653,1,10,2:2:0:0:
87,204,261821,1,2,2:2:0:0:
20,38,261988,1,2,2:2:0:0:
103,106,262156,5,10,2:2:0:0:
183,94,262323,1,0,1:0:0:0:
183,94,262407,1,0,1:0:0:0:
183,94,262491,1,6,2:2:0:0:
256,192,262575,12,0,263497,0:0:0:0:
196,140,263664,5,2,2:2:0:0:
196,140,263748,1,0,1:0:0:0:
196,140,263832,2,0,P|191:90|161:30,1,86.5576266450882,14|2,2:2|2:2,0:0:0:0:
103,23,264167,1,2,2:2:0:0:
0,96,264335,2,0,P|6:145|35:206,1,86.0430016450882,10|2,2:2|2:2,0:0:0:0:
93,213,264670,1,2,2:2:0:0:
196,140,264837,6,0,L|307:125,1,86.5576266450882,10|2,2:2|2:2,0:0:0:0:
355,259,265173,6,0,P|350:308|320:369,1,86.0430016450882,14|2,2:2|2:2,0:0:0:0:
221,359,265508,1,2,2:2:0:0:
159,303,265675,2,0,P|165:253|194:193,1,86.5576266450882,10|2,2:2|2:2,0:0:0:0:
292,206,266011,1,2,2:2:0:0:
355,259,266178,6,0,L|466:244,1,86.5576266450882,10|2,2:2|2:2,0:0:0:0:
512,49,266513,6,0,P|482:17|424:-4,1,86.5576266450882,14|2,2:2|2:2,0:0:0:0:
353,117,266849,1,2,2:2:0:0:
455,168,267016,6,0,P|453:124|422:70,1,86.5576266450882,10|2,2:2|2:2,0:0:0:0:
365,34,267351,1,2,2:2:0:0:
282,63,267519,2,0,L|169:48,1,86.5576266450882,10|2,2:2|2:2,0:0:0:0:
0,159,267854,6,0,P|30:127|88:106,1,86.5576266450882,14|2,2:2|2:2,0:0:0:0:
147,144,268189,1,2,1:2:0:0:
57,278,268357,6,0,P|60:234|91:180,1,86.5576266450882,10|2,2:2|2:2,0:0:0:0:
159,227,268692,1,2,2:2:0:0:
230,173,268860,2,0,L|343:158,1,86.5576266450882,10|2,2:2|2:2,0:0:0:0:
436,344,269195,5,10,2:2:0:0:
379,221,269530,5,2,2:2:0:0:
500,175,269865,5,2,2:2:0:0:
449,54,270201,5,2,2:2:0:0:
417,137,270536,5,10,2:2:0:0:
500,175,270703,1,2,2:2:0:0:
465,259,270871,2,0,L|370:266,1,75.2675,2|2,2:2|2:2,0:0:0:0:
309,274,271206,2,0,P|286:319|283:353,1,75.2675,2|2,2:2|2:2,0:0:0:0:
201,349,271541,2,0,L|106:356,1,75.2675,2|2,2:2|2:2,0:0:0:0:
45,359,271876,5,10,2:2:0:0:
45,359,272212,2,0,P|54:307|97:245,1,101.611125386238,2|2,2:2|2:2,0:0:0:0:
35,150,272547,2,0,P|81:123|156:116,1,101.611125386238,2|2,2:2|2:2,0:0:0:0:
183,0,272882,2,0,P|233:17|287:71,1,101.611125386238,2|2,2:2|2:2,0:0:0:0:
441,87,273217,6,0,P|354:99|304:131,1,112.901254291535,14|10,2:2|2:2,0:0:0:0:
128,114,273552,2,0,P|97:173|90:226,1,112.901254291535,10|10,2:2|2:2,0:0:0:0:
226,294,273888,6,0,L|213:197,1,86.5576266450882,10|10,2:2|2:2,0:0:0:0:
272,146,274223,1,6,2:2:0:0:
130,78,274390,5,0,1:0:0:0:
130,78,274474,1,0,0:0:0:0:
130,78,274558,2,0,B|72:147|289:266|256:-24|244:-56|101:-49|50:-18|13:10|-30:112|43:179|114:211|151:294|108:337|57:358|57:358|7:308|31:197|119:231|169:261|215:207|215:207|195:250|225:283|211:330|211:330|231:301|276:304|300:278|300:278|326:330|320:379|320:379|325:323|357:293|425:307|429:356|395:390|507:396|515:343,1,1584.03794516602,6|8,2:2|2:1,0:0:0:0:
