osu file format v14

[General]
AudioFilename: audio.mp3
AudioLeadIn: 0
PreviewTime: 64352
Countdown: 0
SampleSet: Soft
StackLeniency: 0.7
Mode: 2
LetterboxInBreaks: 0
WidescreenStoryboard: 1

[Editor]
Bookmarks: 47862
DistanceSpacing: 1.3
BeatDivisor: 4
GridSize: 32
TimelineZoom: 2.2

[Metadata]
Title:Rinne
TitleUnicode:輪廻
Artist:Yamamoto Mineko
ArtistUnicode:山本美禰子
Creator:Riana
Version:Platter
Source:さくら、もゆ。-as the Night's, Reincarnation-
Tags:Japanese Sakura Moyu 2nd Opening op2 Favorite Eroge Complete Album みねこ Visual Novel VN Original Soundtrack video game 石倉誉之 小高光太郎 Ishikura Takayuki Odaka Kotaro garden
BeatmapID:2929204
BeatmapSetID:1385482

[Difficulty]
HPDrainRate:5
CircleSize:3.5
OverallDifficulty:8
ApproachRate:8
SliderMultiplier:1.8
SliderTickRate:2

[Events]
//Background and Video events
0,0,"kuro_rain.jpg",0,0
//Break Periods
//Storyboard Layer 0 (Background)
//Storyboard Layer 1 (Fail)
//Storyboard Layer 2 (Pass)
//Storyboard Layer 3 (Foreground)
//Storyboard Layer 4 (Overlay)
//Storyboard Sound Samples

[TimingPoints]
1084,335.195530726257,4,2,1,40,1,0
11810,-100,4,2,1,50,0,0
14407,-100,4,2,1,5,0,0
14491,-100,4,2,1,50,0,0
16502,-100,4,2,1,60,0,0
17173,-100,4,2,1,65,0,0
22536,-100,4,2,1,60,0,0
23541,-100,4,2,1,20,0,0
23709,-100,4,2,1,40,0,0
24379,-100,4,2,1,50,0,0
24882,-100,4,2,0,60,0,0
25217,-100,4,2,1,50,0,0
46670,-100,4,2,1,55,0,0
57396,-100,4,2,1,60,0,0
62759,-100,4,2,1,65,0,0
64184,-100,4,2,1,5,0,0
64268,-100,4,2,1,65,0,0
65441,-100,4,2,1,75,0,0
65692,-100,4,2,1,5,0,1
65776,-100,4,2,1,75,0,1
68374,-100,4,2,1,5,0,1
68458,-100,4,2,1,75,0,1
71055,-100,4,2,1,5,0,1
71139,-100,4,2,1,75,0,1
76418,-100,4,2,1,5,0,1
76502,-100,4,2,1,75,0,1
79100,-100,4,2,1,5,0,1
79184,-100,4,2,1,75,0,1
81782,-100,4,2,1,5,0,1
81865,-100,4,2,1,75,0,1
84463,-100,4,2,1,5,0,1
84547,-100,4,2,1,75,0,1
90916,-100,4,2,1,75,0,0
92256,-100,4,2,1,65,0,0
97620,-100,4,2,1,60,0,0
100301,-100,4,2,1,65,0,0
100553,-100,4,2,1,5,0,0
100636,-100,4,2,1,65,0,0
103067,-100,4,2,1,30,0,0
105664,-100,4,2,1,20,0,0
107005,-100,4,2,1,10,0,0
108346,-100,4,2,1,5,0,0

[Colours]
Combo1 : 233,213,255
Combo2 : 255,236,170
Combo3 : 170,255,242
Combo4 : 213,224,255

[HitObjects]
251,255,1084,6,0,L|100:128,1,180,2|0,0:0|0:0,0:0:0:0:
188,90,1586,1,2,0:0:0:0:
359,97,1921,1,2,0:0:0:0:
97,139,2257,1,2,0:0:0:0:
261,255,2592,5,2,0:0:0:0:
338,248,2759,1,0,0:0:0:0:
414,237,2927,1,2,0:0:0:0:
414,237,3430,1,2,0:0:0:0:
161,276,3765,6,0,P|90:270|72:149,1,180,2|2,0:0|0:0,0:0:0:0:
152,171,4268,2,0,P|228:149|248:55,1,180,2|2,0:0|0:0,0:0:0:0:
76,48,4938,1,2,0:0:0:0:
152,171,5106,6,0,L|239:230,1,90,0|2,0:0|0:0,0:0:0:0:
226,221,5441,2,0,L|134:283,1,90,2|0,0:0|0:0,0:0:0:0:
231,350,5776,2,0,L|318:301,2,90,2|0|2,0:0|0:0|0:0,0:0:0:0:
472,317,6447,6,0,L|325:194,1,180,2|2,0:0|0:0,0:0:0:0:
244,185,6949,1,2,0:0:0:0:
411,94,7452,2,0,L|409:198,1,90,2|0,0:0|0:0,0:0:0:0:
243,272,7787,5,2,0:0:0:0:
75,255,8123,1,2,0:0:0:0:
163,287,8290,2,0,P|227:265|155:232,1,180,2|0,0:0|0:0,0:0:0:0:
75,255,8793,1,2,0:0:0:0:
245,203,9128,6,0,P|309:181|237:148,1,180,2|2,0:0|0:0,0:0:0:0:
166,172,9631,1,2,0:0:0:0:
19,176,9966,1,2,0:0:0:0:
166,172,10301,5,2,0:0:0:0:
314,207,10637,1,2,0:0:0:0:
451,228,10972,1,2,0:0:0:0:
452,308,11307,1,2,0:0:0:0:
388,312,11475,1,2,0:0:0:0:
115,237,11810,6,0,P|137:146|218:125,1,180,10|0,0:0|0:0,0:0:0:0:
277,163,12313,2,0,L|275:278,1,90,2|0,0:0|0:0,0:0:0:0:
196,311,12648,2,0,L|97:296,1,90,2|0,0:0|0:0,0:0:0:0:
274,345,12983,6,0,L|370:341,1,90,2|0,0:0|0:0,0:0:0:0:
271,249,13318,1,2,0:3:0:0:
201,207,13486,1,2,0:3:0:0:
217,168,13570,1,2,0:3:0:0:
275,160,13653,1,2,0:3:0:0:
371,124,13821,1,2,0:3:0:0:
443,63,13989,1,2,0:3:0:0:
409,22,14072,1,2,0:3:0:0:
363,4,14156,2,0,L|266:11,1,90,2|0,0:0|0:0,0:0:0:0:
110,134,14491,6,0,L|208:129,1,90,2|0,0:0|0:0,0:0:0:0:
278,92,14827,1,2,0:0:0:0:
194,42,14994,1,2,0:0:0:0:
359,90,15329,1,2,0:0:0:0:
193,225,15665,1,2,0:0:0:0:
104,192,15832,6,0,P|76:159|114:156,1,90,0|2,0:0|0:3,0:0:0:0:
186,140,16167,1,2,0:3:0:0:
223,135,16251,1,2,0:3:0:0:
264,127,16335,1,2,0:3:0:0:
430,128,16502,2,0,P|489:257|409:346,1,270,2|0,0:0|3:0,0:0:0:0:
180,222,17173,6,0,P|172:133|268:114,1,180,4|8,1:2|0:0,0:0:0:0:
407,119,17676,2,0,L|503:130,2,90,0|8|8,1:0|0:0|0:0,0:0:0:0:
335,224,18178,2,0,L|228:219,1,90,2|8,1:2|0:0,0:0:0:0:
80,63,18514,6,0,L|13:135,1,90,4|8,1:2|0:0,0:0:0:0:
12,166,18849,2,0,L|86:264,1,90,10|0,0:0|1:0,0:0:0:0:
137,259,19184,2,0,L|243:250,1,90,10|8,0:0|0:0,0:0:0:0:
394,280,19519,2,0,L|304:322,1,90,2|8,1:2|0:0,0:0:0:0:
71,288,19854,6,0,P|65:203|167:183,1,180,4|8,1:2|0:0,0:0:0:0:
308,196,20357,1,2,1:2:0:0:
389,172,20525,2,0,L|391:58,1,90,10|8,0:0|0:0,0:0:0:0:
225,46,20860,2,0,L|109:39,1,90,0|8,1:0|0:0,0:0:0:0:
65,75,21195,5,8,0:0:0:0:
136,137,21363,2,0,L|252:130,2,90,0|8|8,1:0|0:0|0:0,0:0:0:0:
310,255,21866,2,0,L|422:240,1,90,2|0,1:2|0:0,0:0:0:0:
229,180,22201,2,0,L|140:159,1,90,2|0,1:2|0:0,0:0:0:0:
398,43,22536,6,0,B|499:139|380:334|164:95|73:258|143:359,1,540,12|0,0:0|0:0,0:0:0:0:
442,300,23877,5,2,0:0:0:0:
282,296,24212,1,0,0:0:0:0:
282,296,24380,1,10,0:3:0:0:
107,284,24715,1,6,0:3:0:0:
107,284,24882,1,4,0:3:0:0:
373,287,25218,6,0,P|442:298|484:181,2,180,12|0|0,0:0|0:0|0:0,0:0:0:0:
204,214,26223,1,2,0:0:0:0:
126,207,26391,1,0,0:0:0:0:
289,238,26558,6,0,P|350:226|365:113,1,180,2|0,0:0|0:0,0:0:0:0:
282,111,27061,2,0,L|279:11,1,90,2|0,0:0|0:0,0:0:0:0:
452,128,27564,1,2,0:0:0:0:
372,125,27732,1,8,0:0:0:0:
206,195,27899,6,0,P|215:258|330:295,1,180,10|0,0:0|0:0,0:0:0:0:
397,274,28402,2,0,L|397:171,1,90,2|0,0:0|0:0,0:0:0:0:
323,142,28737,2,0,L|323:39,1,90,2|0,0:0|0:0,0:0:0:0:
400,27,29072,1,0,0:0:0:0:
472,57,29240,6,0,P|453:126|343:156,1,180,2|0,0:0|0:0,0:0:0:0:
283,182,29743,1,8,0:0:0:0:
114,217,29910,2,0,P|30:194|0:113,1,180,2|0,0:0|0:0,0:0:0:0:
100,105,30413,1,8,0:0:0:0:
262,136,30581,6,0,P|345:116|320:22,1,180,10|0,0:0|0:0,0:0:0:0:
179,38,31251,2,0,L|99:95,1,90
110,222,31586,2,0,L|192:284,1,90,2|0,0:0|0:0,0:0:0:0:
349,336,31921,6,0,P|412:297|342:253,1,180,2|0,0:0|0:0,0:0:0:0:
271,251,32424,2,0,L|274:151,1,90,2|0,0:0|0:0,0:0:0:0:
116,84,32927,1,2,0:0:0:0:
38,97,33095,1,8,0:0:0:0:
205,161,33262,6,0,P|196:224|81:261,1,180,10|0,0:0|0:0,0:0:0:0:
19,233,33765,2,0,L|19:130,1,90,2|0,0:0|0:0,0:0:0:0:
62,69,34100,2,0,L|195:59,1,90,2|0,0:0|0:0,0:0:0:0:
408,116,34603,6,0,L|493:58,1,90,2|0,0:0|0:0,0:0:0:0:
483,167,34938,2,0,L|409:117,1,90,2|8,0:0|0:0,0:0:0:0:
319,111,35273,2,0,L|234:53,1,90,2|8,0:0|0:0,0:0:0:0:
245,161,35609,2,0,L|319:110,1,90,2|0,0:0|0:0,0:0:0:0:
494,180,35944,6,0,P|465:275|385:306,1,180,10|0,0:0|0:0,0:0:0:0:
252,290,36614,2,0,L|343:224,1,90
396,214,36949,1,2,0:0:0:0:
396,154,37117,1,0,0:0:0:0:
226,218,37285,6,0,P|165:206|150:93,1,180,10|0,0:0|0:0,0:0:0:0:
235,89,37787,2,0,L|238:-11,1,90,2|0,0:0|0:0,0:0:0:0:
81,125,38290,1,2,0:0:0:0:
159,138,38458,1,0,0:0:0:0:
329,176,38625,6,0,P|320:239|205:276,1,180,10|0,0:0|0:0,0:0:0:0:
139,257,39128,2,0,L|139:154,1,90,2|0,0:0|0:0,0:0:0:0:
226,175,39463,2,0,L|425:189,1,180,2|8,0:0|0:0,0:0:0:0:
238,186,39966,6,0,P|154:163|124:82,1,180,10|0,0:0|0:0,0:0:0:0:
218,81,40469,1,8,0:0:0:0:
309,177,40637,2,0,P|290:246|180:276,1,180,10|10,0:0|0:0,0:0:0:0:
109,281,41139,1,0,0:0:0:0:
292,335,41307,6,0,P|374:304|375:200,1,180,10|0,0:0|0:0,0:0:0:0:
231,155,41977,1,2,0:0:0:0:
155,163,42145,1,0,0:0:0:0:
81,177,42313,2,0,L|85:282,1,90,2|0,0:0|0:0,0:0:0:0:
255,293,42648,6,0,P|316:249|325:150,1,180,10|0,0:0|0:0,0:0:0:0:
239,156,43151,2,0,L|129:124,1,90,2|0,0:0|0:0,0:0:0:0:
259,110,43486,2,0,L|375:88,1,90,0|2,0:0|0:0,0:0:0:0:
89,215,43989,6,0,P|26:178|95:143,1,180,10|8,0:0|0:0,0:0:0:0:
168,204,44491,1,0,0:0:0:0:
255,201,44659,1,10,0:0:0:0:
341,191,44827,1,0,0:0:0:0:
255,201,44994,1,10,0:0:0:0:
490,242,45162,6,0,L|493:118,1,90,4|8,1:2|0:0,0:0:0:0:
331,192,45497,1,2,0:0:0:0:
254,209,45665,1,10,0:0:0:0:
236,246,45832,1,2,1:2:0:0:
252,276,46000,1,12,0:3:0:0:
332,280,46167,1,8,0:3:0:0:
410,266,46335,2,0,L|497:183,1,90,4|4,0:3|0:3,0:0:0:0:
246,105,46670,6,0,L|50:124,2,180,12|8|8,0:0|0:0|0:0,0:0:0:0:
413,127,47676,2,0,L|406:241,1,90,10|0,0:0|0:0,0:0:0:0:
247,258,48011,6,0,P|186:191|270:180,1,180,10|8,0:0|0:0,0:0:0:0:
325,154,48514,2,0,P|376:84|302:76,1,180,2|0,0:0|0:0,0:0:0:0:
227,35,49016,2,0,L|109:76,1,90,10|0,0:0|0:0,0:0:0:0:
305,150,49352,6,0,P|366:198|303:245,1,180,10|8,0:0|0:0,0:0:0:0:
213,259,49854,2,0,L|23:249,1,180,2|2,0:0|0:0,0:0:0:0:
121,255,50357,1,8,0:0:0:0:
213,259,50525,1,0,0:0:0:0:
386,228,50692,6,0,P|371:150|253:130,1,180,10|8,0:0|0:0,0:0:0:0:
193,127,51195,2,0,P|201:48|319:28,1,180,2|0,0:0|0:0,0:0:0:0:
375,71,51698,2,0,L|490:119,1,90,10|0,0:0|0:0,0:0:0:0:
223,211,52033,6,0,L|22:168,1,180,10|8,0:0|0:0,0:0:0:0:
35,240,52536,2,0,L|209:284,1,180,2|0,0:0|0:0,0:0:0:0:
210,246,53206,1,0,0:0:0:0:
382,242,53374,6,0,P|447:205|383:166,1,180,10|8,0:0|0:0,0:0:0:0:
208,212,54044,2,0,L|213:335,1,90,10|0,0:0|0:0,0:0:0:0:
301,223,54380,2,0,L|402:206,1,90,10|0,0:0|0:0,0:0:0:0:
224,40,54715,6,0,L|117:2,1,90,10|0,0:0|0:0,0:0:0:0:
60,66,55050,1,8,0:0:0:0:
136,109,55218,2,0,L|239:145,2,90,2|8|0,0:0|0:0|0:0,0:0:0:0:
49,99,55720,2,0,L|58:194,1,90,10|0,0:0|0:0,0:0:0:0:
229,354,56056,6,0,P|278:288|207:222,1,180,10|8,0:0|3:0,3:0:0:0:
36,264,56726,2,0,L|45:154,1,90,10|8,0:0|0:0,0:0:0:0:
120,173,57061,1,2,1:2:0:0:
195,170,57229,1,8,0:0:0:0:
427,167,57396,6,0,L|422:67,1,90,12|0,0:0|0:0,0:0:0:0:
247,74,57732,1,0,1:0:0:0:
162,90,57899,2,0,P|200:179|282:171,1,180,10|8,0:0|0:0,0:0:0:0:
99,267,58402,2,0,L|99:151,1,90,0|2,1:0|0:0,0:0:0:0:
341,187,58737,5,12,0:0:0:0:
419,218,58905,2,0,L|417:337,1,90,0|8,1:0|0:0,0:0:0:0:
245,329,59240,2,0,P|162:302|151:217,1,180,10|8,0:0|0:0,0:0:0:0:
326,185,59743,1,0,1:0:0:0:
406,182,59910,1,2,0:0:0:0:
167,123,60078,6,0,L|166:221,1,90,12|0,0:0|0:0,0:0:0:0:
330,300,60413,1,0,1:0:0:0:
248,300,60581,2,0,L|55:292,1,180,10|8,0:0|0:0,0:0:0:0:
136,278,61084,1,0,1:0:0:0:
215,278,61251,1,2,0:0:0:0:
448,190,61419,6,0,L|497:181,2,45,12|0|8,0:0|1:0|0:0,0:0:0:0:
372,168,61754,1,10,0:0:0:0:
205,172,61921,2,0,L|84:196,1,90,12|0,0:0|0:0,0:0:0:0:
173,341,62257,2,0,L|288:356,1,90,10|0,0:0|1:0,0:0:0:0:
329,367,62592,1,10,0:0:0:0:
98,212,62759,5,4,1:2:0:0:
19,220,62927,1,10,0:0:0:0:
98,212,63095,1,10,0:0:0:0:
268,199,63262,1,4,1:2:0:0:
343,213,63430,1,10,0:0:0:0:
268,199,63597,1,10,0:0:0:0:
106,122,63765,1,4,1:2:0:0:
28,118,63933,1,14,0:0:0:0:
268,270,64268,5,2,1:2:0:0:
344,267,64435,1,2,1:2:0:0:
207,183,64771,2,0,L|334:182,1,90,2|8,1:2|0:0,0:0:0:0:
385,181,65106,1,2,1:2:0:0:
129,39,65441,6,0,L|231:32,1,90,12|0,0:0|0:0,0:0:0:0:
306,29,65776,1,0,1:0:0:0:
476,133,65944,2,0,L|360:140,1,90,10|0,0:0|0:0,0:0:0:0:
304,224,66279,2,0,L|395:211,1,90,10|0,0:0|1:0,0:0:0:0:
295,135,66614,1,0,0:0:0:0:
124,87,66782,6,0,L|15:83,1,90,10|0,0:0|0:0,0:0:0:0:
207,242,67117,2,0,L|297:256,1,90,2|8,1:2|0:0,0:0:0:0:
297,256,67452,1,2,0:0:0:0:
201,237,67620,1,8,0:0:0:0:
370,268,67787,2,0,L|472:265,1,90,2|0,1:2|0:0,0:0:0:0:
207,89,68123,6,0,L|91:82,1,90,10|0,0:0|0:0,0:0:0:0:
36,90,68458,1,0,1:0:0:0:
204,260,68625,2,0,L|329:257,1,90,10|0,0:0|0:0,0:0:0:0:
208,193,68961,1,10,0:0:0:0:
117,209,69128,2,0,L|118:307,1,90,0|0,1:0|0:0,0:0:0:0:
365,338,69463,6,0,L|362:238,1,90,10|0,0:0|0:0,0:0:0:0:
282,246,69799,2,0,L|169:236,1,90,0|8,1:0|0:0,0:0:0:0:
283,162,70134,2,0,L|282:66,1,90,2|8,0:0|0:0,0:0:0:0:
109,77,70469,2,0,L|-16:98,1,90,2|0,1:2|0:0,0:0:0:0:
268,163,70804,6,0,B|383:180,1,90,12|0,0:0|0:0,0:0:0:0:
187,272,71139,1,0,1:0:0:0:
99,321,71307,2,0,L|199:323,1,90,10|0,0:0|0:0,0:0:0:0:
272,244,71642,1,8,0:0:0:0:
183,147,71810,2,0,L|81:142,1,90,0|8,1:0|0:0,0:0:0:0:
262,76,72145,6,0,L|371:89,1,90,10|8,0:0|0:0,0:0:0:0:
260,187,72480,1,0,1:0:0:0:
19,254,72648,2,0,L|67:347,1,90,10|0,0:0|0:0,0:0:0:0:
232,332,72983,1,8,0:0:0:0:
316,329,73151,2,0,L|418:251,1,90,0|0,1:0|0:0,0:0:0:0:
152,229,73486,6,0,L|36:211,1,90,10|0,0:0|0:0,0:0:0:0:
152,229,73821,1,0,1:0:0:0:
313,175,73989,2,0,L|316:48,1,90,10|0,0:0|0:0,0:0:0:0:
227,127,74324,1,10,0:0:0:0:
68,127,74491,2,0,L|68:236,1,90,0|0,1:0|0:0,0:0:0:0:
241,292,74827,6,0,L|335:300,1,90,10|8,0:0|0:0,0:0:0:0:
405,203,75162,2,0,L|535:215,1,90,0|10,1:0|0:0,0:0:0:0:
413,223,75497,2,0,L|307:214,1,90,0|8,0:0|0:0,0:0:0:0:
155,209,75832,2,0,L|56:197,1,90,2|0,1:2|0:0,0:0:0:0:
306,68,76167,6,0,L|424:78,1,90,12|0,0:0|0:0,0:0:0:0:
396,175,76502,1,0,1:0:0:0:
226,213,76670,2,0,L|110:220,1,90,10|0,0:0|0:0,0:0:0:0:
64,298,77005,2,0,L|64:193,1,90,10|0,0:0|1:0,0:0:0:0:
141,209,77340,1,0,0:0:0:0:
307,123,77508,6,0,L|406:127,1,90,10|0,0:0|0:0,0:0:0:0:
228,227,77843,2,0,L|228:329,1,90,2|8,1:2|0:0,0:0:0:0:
302,265,78178,1,2,0:0:0:0:
379,244,78346,1,8,0:0:0:0:
216,143,78514,2,0,L|91:130,1,90,2|0,1:2|0:0,0:0:0:0:
375,75,78849,6,0,L|491:68,1,90,10|0,0:0|0:0,0:0:0:0:
394,180,79184,1,0,1:0:0:0:
316,249,79352,2,0,L|317:146,1,90,10|0,0:0|0:0,0:0:0:0:
482,176,79687,1,10,0:0:0:0:
478,253,79854,1,0,1:0:0:0:
396,277,80022,1,0,0:0:0:0:
151,237,80190,6,0,L|28:255,1,90,10|0,0:0|0:0,0:0:0:0:
151,333,80525,2,0,L|264:323,1,90,0|8,1:0|0:0,0:0:0:0:
408,180,80860,2,0,L|286:172,1,90,2|8,0:0|0:0,0:0:0:0:
142,112,81195,2,0,L|44:113,1,90,2|0,1:2|0:0,0:0:0:0:
301,313,81530,6,0,L|427:320,1,90,12|0,0:0|0:0,0:0:0:0:
339,306,81866,1,0,1:0:0:0:
171,304,82033,2,0,L|173:202,1,90,10|0,0:0|0:0,0:0:0:0:
323,214,82368,1,10,0:0:0:0:
325,142,82536,1,0,1:0:0:0:
84,138,82704,1,10,0:0:0:0:
20,67,82871,6,0,L|129:67,1,90,0|8,0:0|0:0,0:0:0:0:
280,283,83206,2,0,L|391:285,1,90,2|0,1:2|0:0,0:0:0:0:
283,259,83542,2,0,L|183:252,1,90,2|8,0:0|0:0,0:0:0:0:
193,252,83877,2,0,L|296:256,1,90,2|0,1:2|0:0,0:0:0:0:
449,281,84212,6,0,L|391:356,1,90,10|0,0:0|0:0,0:0:0:0:
231,337,84547,1,0,1:0:0:0:
152,258,84715,2,0,L|249:259,1,90,10|0,0:0|0:0,0:0:0:0:
321,241,85050,1,8,0:0:0:0:
487,242,85218,2,0,L|490:114,1,90,2|0,1:2|0:0,0:0:0:0:
327,51,85553,6,0,L|214:58,1,90,10|8,0:0|0:0,0:0:0:0:
155,26,85888,2,0,P|192:127|253:136,1,180,2|8,1:2|0:0,0:0:0:0:
430,232,86391,1,0,1:0:0:0:
351,258,86558,2,0,L|253:265,1,90,2|8,1:2|0:0,0:0:0:0:
30,238,86894,6,0,L|155:234,1,90,14|0,0:2|0:0,0:0:0:0:
282,153,87229,1,2,1:2:0:0:
289,236,87396,2,0,L|199:238,1,90,8|2,0:0|1:2,0:0:0:0:
361,218,87732,1,8,0:0:0:0:
409,216,87815,1,8,0:0:0:0:
361,218,87899,1,2,1:2:0:0:
196,242,88067,1,10,0:0:0:0:
278,249,88234,5,2,1:2:0:0:
358,260,88402,1,8,0:0:0:0:
193,232,88570,1,2,1:2:0:0:
113,225,88737,1,8,0:0:0:0:
69,256,88821,1,8,0:0:0:0:
113,284,88905,1,2,1:2:0:0:
192,279,89072,1,8,0:0:0:0:
358,218,89240,2,0,L|448:256,1,90,2|8,1:2|0:0,0:0:0:0:
195,193,89575,5,4,1:2:0:0:
116,213,89743,1,10,0:0:0:0:
198,198,89910,1,10,0:0:0:0:
362,186,90078,1,4,1:2:0:0:
440,210,90246,1,10,0:0:0:0:
440,275,90413,1,10,0:0:0:0:
280,347,90581,2,0,L|176:350,1,90,4|10,1:2|0:0,0:0:0:0:
444,307,90916,5,6,1:2:0:0:
256,192,91419,12,0,91921,0:0:0:0:
327,87,92257,6,0,L|317:201,1,90,4|8,1:2|0:0,0:0:0:0:
248,259,92592,1,10,0:0:0:0:
87,103,92759,2,0,L|97:217,1,90,2|8,1:2|0:0,0:0:0:0:
173,266,93095,1,8,0:0:0:0:
335,265,93262,2,0,L|342:143,1,90,2|8,1:2|0:0,0:0:0:0:
258,62,93597,6,0,L|257:176,1,90,2|8,1:2|0:0,0:0:0:0:
93,240,93933,2,0,L|192:241,1,90,10|0,0:0|1:0,0:0:0:0:
278,337,94268,2,0,L|179:338,1,90,10|8,0:0|0:0,0:0:0:0:
22,235,94603,2,0,L|121:236,1,90,2|8,1:2|0:0,0:0:0:0:
354,89,94938,6,0,L|344:203,1,90,2|8,1:2|0:0,0:0:0:0:
261,257,95273,1,8,0:0:0:0:
96,246,95441,2,0,L|106:360,1,90,2|8,1:2|0:0,0:0:0:0:
187,340,95776,1,8,0:0:0:0:
352,225,95944,2,0,L|345:343,1,90,2|8,1:2|0:0,0:0:0:0:
112,125,96279,6,0,L|-4:123,1,90,4|8,1:2|0:0,0:0:0:0:
109,207,96614,2,0,L|208:208,1,90,10|0,0:0|1:2,0:0:0:0:
286,291,96949,2,0,L|163:292,1,90,10|8,0:0|0:0,0:0:0:0:
364,337,97285,2,0,L|463:338,1,90,2|8,1:2|0:0,0:0:0:0:
215,263,97620,6,0,L|28:323,3,180,12|8|8|8,0:0|0:0|0:0|0:0,0:0:0:0:
132,329,98793,1,0,0:0:0:0:
308,295,98961,5,10,0:0:0:0:
359,278,99128,1,2,0:0:0:0:
308,295,99296,1,10,0:0:0:0:
228,271,99463,1,2,0:0:0:0:
142,291,99631,1,10,0:0:0:0:
94,276,99799,1,2,0:0:0:0:
142,291,99966,1,10,0:0:0:0:
228,271,100134,1,2,0:0:0:0:
461,235,100301,6,0,L|467:340,1,90,4|0,1:2|0:0,0:0:0:0:
395,325,100637,1,8,0:0:0:0:
230,328,100804,1,0,1:0:0:0:
233,251,100972,1,8,0:0:0:0:
311,250,101139,1,0,1:0:0:0:
467,245,101307,1,0,1:0:0:0:
468,170,101475,1,0,1:0:0:0:
237,153,101642,5,2,1:2:0:0:
156,162,101810,1,0,1:0:0:0:
235,167,101977,1,0,1:0:0:0:
401,314,102145,1,0,1:0:0:0:
446,306,102229,1,0,1:0:0:0:
487,297,102313,2,0,L|383:255,1,90,0|8,1:0|0:0,0:0:0:0:
325,221,102648,2,0,L|224:172,1,90,8|0,0:0|0:0,0:0:0:0:
13,277,102983,5,14,0:0:0:0:
256,192,103318,12,0,108346,0:0:0:0:
