osu file format v14

[General]
AudioFilename: audio.mp3
AudioLeadIn: 0
PreviewTime: 214600
Countdown: 0
SampleSet: Soft
StackLeniency: 0.4
Mode: 0
LetterboxInBreaks: 0
WidescreenStoryboard: 1

[Editor]
DistanceSpacing: 0.3
BeatDivisor: 4
GridSize: 16
TimelineZoom: 1.1

[Metadata]
Title:Rinne
TitleUnicode:輪廻
Artist:Yamamoto Mineko
ArtistUnicode:山本美禰子
Creator:Riana
Version:KeyWee's Insane
Source:さくら、もゆ。 -as the Night's, Reincarnation-
Tags:Sakura Moyu as the Nights Reincarnation Galgame Eroge Visual Novel Opening OP2 op Japanese Video game jpop pop j-pop amamya big data big_data keywee left vn favorite
BeatmapID:4451278
BeatmapSetID:2095911

[Difficulty]
HPDrainRate:5
CircleSize:3.8
OverallDifficulty:8
ApproachRate:9
SliderMultiplier:1.6
SliderTickRate:1

[Events]
//Background and Video events
0,0,"3.jpg",0,0
//Break Periods
//Storyboard Layer 0 (Background)
//Storyboard Layer 1 (Fail)
//Storyboard Layer 2 (Pass)
//Storyboard Layer 3 (Foreground)
//Storyboard Layer 4 (Overlay)
//Storyboard Sound Samples

[TimingPoints]
1081,335.195530726257,4,2,7,50,1,0
1081,-142.857142857143,4,2,7,50,0,0
11807,-125,4,2,7,60,0,0
12142,-125,4,2,7,45,0,0
14488,-125,4,2,7,60,0,0
14824,-125,4,2,7,45,0,0
16499,-111.111111111111,4,2,7,60,0,0
16835,-111.111111111111,4,2,7,5,0,0
17002,-111.111111111111,4,2,7,60,0,0
17170,-83.3333333333333,4,2,7,75,0,0
22030,-83.3333333333333,4,2,7,5,0,0
22198,-83.3333333333333,4,2,7,75,0,0
22365,-83.3333333333333,4,2,7,5,0,0
22533,-111.111111111111,4,2,7,65,0,0
23539,-111.111111111111,4,2,7,65,0,0
23874,-142.857142857143,4,2,7,65,0,0
24879,-200,4,2,7,65,0,0
25215,-142.857142857143,4,2,7,60,0,0
25382,-142.857142857143,4,2,7,5,0,0
25550,-142.857142857143,4,2,7,60,0,0
27812,-142.857142857143,4,2,7,5,0,0
27896,-142.857142857143,4,2,7,60,0,0
28064,-142.857142857143,4,2,7,5,0,0
28231,-142.857142857143,4,2,7,60,0,0
30494,-142.857142857143,4,2,7,5,0,0
30578,-142.857142857143,4,2,7,60,0,0
30745,-142.857142857143,4,2,7,5,0,0
30913,-142.857142857143,4,2,7,60,0,0
33427,-142.857142857143,4,2,7,5,0,0
33594,-142.857142857143,4,2,7,60,0,0
43986,-142.857142857143,4,2,7,65,0,0
46667,-125,4,2,7,70,0,0
57310,-125,4,2,7,5,0,0
57393,-99.9999999999999,4,2,7,75,0,0
57645,-99.9999999999999,4,2,7,5,0,0
57729,-99.9999999999999,4,2,7,75,0,0
58148,-99.9999999999999,4,2,7,5,0,0
58231,-99.9999999999999,4,2,7,75,0,0
58483,-99.9999999999999,4,2,7,5,0,0
58567,-99.9999999999999,4,2,7,75,0,0
58650,-99.9999999999999,4,2,7,5,0,0
58734,-99.9999999999999,4,2,7,75,0,0
59824,-99.9999999999999,4,2,7,5,0,0
59907,-99.9999999999999,4,2,7,75,0,0
59991,-99.9999999999999,4,2,7,5,0,0
60075,-99.9999999999999,4,2,7,80,0,0
60326,-99.9999999999999,4,2,7,5,0,0
60410,-99.9999999999999,4,2,7,80,0,0
60829,-99.9999999999999,4,2,7,5,0,0
60913,-99.9999999999999,4,2,7,80,0,0
62756,-99.9999999999999,4,2,7,90,0,0
65103,-76.9230769230769,4,2,7,90,0,0
65270,-76.9230769230769,4,2,7,5,0,0
65438,-83.3333333333333,4,2,7,90,0,1
65522,-83.3333333333333,4,2,7,85,0,1
65689,-83.3333333333333,4,2,7,5,0,1
65773,-83.3333333333333,4,2,7,85,0,1
68371,-83.3333333333333,4,2,7,5,0,1
68455,-83.3333333333333,4,2,7,85,0,1
71555,-83.3333333333333,4,2,7,5,0,1
71639,-83.3333333333333,4,2,7,85,0,1
75662,-83.3333333333333,4,2,7,85,0,1
75913,-83.3333333333333,4,2,7,5,0,1
75997,-83.3333333333333,4,2,7,85,0,1
76416,-83.3333333333333,4,2,7,5,0,1
76499,-83.3333333333333,4,2,7,85,0,1
79097,-83.3333333333333,4,2,7,5,0,1
79181,-83.3333333333333,4,2,7,85,0,1
84460,-83.3333333333333,4,2,7,5,0,1
84544,-83.3333333333333,4,2,7,85,0,1
85969,-83.3333333333333,4,2,7,5,0,1
86053,-83.3333333333333,4,2,7,85,0,1
86555,-83.3333333333333,4,2,7,85,0,0
86891,-83.3333333333333,4,2,7,85,0,1
87058,-83.3333333333333,4,2,7,5,0,1
87226,-83.3333333333333,4,2,7,90,0,1
89572,-83.3333333333333,4,2,7,95,0,1
90913,-111.111111111111,4,2,7,85,0,0
92086,-111.111111111111,4,2,7,70,0,0
92254,-83.3333333333333,4,2,7,80,0,1
92421,-83.3333333333333,4,2,7,80,0,0
93343,-83.3333333333333,4,2,7,5,0,0
93427,-83.3333333333333,4,2,7,80,0,0
94684,-83.3333333333333,4,2,7,5,0,0
94768,-83.3333333333333,4,2,7,80,0,0
97449,-83.3333333333333,4,2,7,5,0,0
97617,-100,4,2,7,80,0,0
97868,-100,4,2,7,5,0,0
97952,-100,4,2,7,65,0,0
100298,-100,4,2,7,75,0,0
100466,-100,4,2,7,5,0,0
100634,-100,4,2,7,75,0,0
101639,-100,4,2,7,85,0,0
102980,-125,4,2,7,65,0,0
108259,-125,4,2,7,5,0,0
108343,-125,4,2,7,65,0,0
115131,-125,4,2,7,5,0,0
115215,-125,4,2,7,65,0,0
116304,-125,4,2,7,5,0,0
116388,-125,4,2,7,65,0,0
119069,-111.111111111111,4,2,7,65,0,0
119321,-111.111111111111,4,2,7,5,0,0
119405,-111.111111111111,4,2,7,65,0,0
122170,-111.111111111111,4,2,7,5,0,0
122254,-111.111111111111,4,2,7,65,0,0
122337,-111.111111111111,4,2,7,5,0,0
122421,-111.111111111111,4,2,7,65,0,0
122505,-111.111111111111,4,2,7,5,0,0
122589,-111.111111111111,4,2,7,65,0,0
122673,-111.111111111111,4,2,7,5,0,0
122756,-111.111111111111,4,2,7,65,0,0
122840,-111.111111111111,4,2,7,5,0,0
122924,-111.111111111111,4,2,7,65,0,0
123343,-111.111111111111,4,2,7,5,0,0
123427,-111.111111111111,4,2,7,65,0,0
123511,-111.111111111111,4,2,7,5,0,0
123594,-111.111111111111,4,2,7,65,0,0
123762,-111.111111111111,4,2,7,65,0,0
123846,-111.111111111111,4,2,7,5,0,0
123930,-111.111111111111,4,2,7,65,0,0
124013,-111.111111111111,4,2,7,5,0,0
124097,-111.111111111111,4,2,7,65,0,0
124432,-125,4,2,7,65,0,0
135075,-125,4,2,7,5,0,0
135159,-100,4,2,7,75,0,0
135410,-100,4,2,7,5,0,0
135494,-100,4,2,7,75,0,0
135913,-100,4,2,7,5,0,0
135997,-100,4,2,7,75,0,0
136248,-100,4,2,7,5,0,0
136332,-100,4,2,7,75,0,0
136416,-100,4,2,7,5,0,0
136499,-100,4,2,7,75,0,0
137589,-100,4,2,7,5,0,0
137673,-100,4,2,7,75,0,0
137756,-100,4,2,7,5,0,0
137840,-100,4,2,7,85,0,0
138092,-100,4,2,7,5,0,0
138175,-100,4,2,7,85,0,0
138594,-100,4,2,7,5,0,0
138678,-100,4,2,7,85,0,0
140522,-100,4,2,7,90,0,0
142365,-100,4,2,7,80,0,0
142533,-83.3333333333333,4,2,7,80,0,0
143203,-83.3333333333333,4,2,7,85,0,1
143455,-83.3333333333333,4,2,7,5,0,1
143539,-83.3333333333333,4,2,7,85,0,1
146136,-83.3333333333333,4,2,7,5,0,1
146220,-83.3333333333333,4,2,7,85,0,1
149321,-83.3333333333333,4,2,7,5,0,1
149405,-83.3333333333333,4,2,7,85,0,1
153175,-83.3333333333333,4,2,7,90,0,1
153427,-83.3333333333333,4,2,7,85,0,1
153678,-83.3333333333333,4,2,7,5,0,1
153762,-83.3333333333333,4,2,7,85,0,1
154181,-83.3333333333333,4,2,7,5,0,1
154265,-83.3333333333333,4,2,7,85,0,1
156863,-83.3333333333333,4,2,7,5,0,1
156946,-83.3333333333333,4,2,7,85,0,1
162226,-83.3333333333333,4,2,7,5,0,1
162310,-83.3333333333333,4,2,7,85,0,1
163734,-83.3333333333333,4,2,7,5,0,1
163818,-83.3333333333333,4,2,7,85,0,1
164321,-83.3333333333333,4,2,7,85,0,0
164656,-83.3333333333333,4,2,7,85,0,1
164824,-83.3333333333333,4,2,7,5,0,1
164991,-83.3333333333333,4,2,7,90,0,1
167337,-83.3333333333333,4,2,7,95,0,1
168427,-83.3333333333333,4,2,7,5,0,1
168511,-83.3333333333333,4,2,7,95,0,1
168594,-83.3333333333333,4,2,7,5,0,1
168678,-83.3333333333333,4,2,7,95,0,1
168762,-83.3333333333333,4,2,7,5,0,1
168846,-83.3333333333333,4,2,7,95,0,1
168930,-83.3333333333333,4,2,7,5,0,1
169013,-83.3333333333333,4,2,7,85,0,1
169097,-83.3333333333333,4,2,7,5,0,1
169181,-83.3333333333333,4,2,7,85,0,1
169265,-83.3333333333333,4,2,7,5,0,1
169349,-83.3333333333333,4,2,7,85,0,1
169851,-83.3333333333333,4,2,7,5,0,1
170019,-90.9090909090909,4,2,7,80,0,0
190801,-76.9230769230769,4,2,7,80,0,0
191472,-83.3333333333333,4,2,7,80,0,1
191639,-83.3333333333333,4,2,7,80,0,0
192058,-83.3333333333333,4,2,7,5,0,0
192142,-83.3333333333333,4,2,7,80,0,0
197086,-83.3333333333333,4,2,7,5,0,0
197170,-83.3333333333333,4,2,7,80,0,0
207561,-83.3333333333333,4,2,7,85,0,0
210243,-83.3333333333333,4,2,7,90,0,0
212254,-83.3333333333333,4,2,7,95,0,0
212924,-200,4,2,7,95,0,0
215606,-200,4,2,7,55,0,0
225326,-166.666666666667,4,2,7,55,0,0
226332,-142.857142857143,4,2,77,55,0,0
226667,-142.857142857143,4,2,7,55,0,0
234377,-142.857142857143,4,2,7,45,0,0
236053,-250.000000000001,4,2,7,45,0,0
237058,-83.3333333333333,4,2,7,93,0,1
237310,-83.3333333333333,4,2,7,5,0,1
237393,-83.3333333333333,4,2,7,93,0,1
239991,-83.3333333333333,4,2,7,5,0,1
240075,-83.3333333333333,4,2,7,93,0,1
242673,-83.3333333333333,4,2,7,5,0,1
242756,-83.3333333333333,4,2,7,93,0,1
245689,-83.3333333333333,4,2,7,5,0,1
245773,-83.3333333333333,4,2,7,93,0,1
246025,-83.3333333333333,4,2,7,5,0,1
246108,-83.3333333333333,4,2,7,93,0,1
246192,-83.3333333333333,4,2,7,5,0,1
246276,-83.3333333333333,4,2,7,93,0,1
247030,-83.3333333333333,4,2,7,93,0,1
247282,-83.3333333333333,4,2,7,93,0,1
247533,-83.3333333333333,4,2,7,5,0,1
247617,-83.3333333333333,4,2,7,93,0,1
248036,-83.3333333333333,4,2,7,5,0,1
248120,-83.3333333333333,4,2,7,93,0,1
250717,-83.3333333333333,4,2,7,5,0,1
250801,-83.3333333333333,4,2,7,93,0,1
255745,-83.3333333333333,4,2,7,5,0,1
255829,-83.3333333333333,4,2,7,93,0,1
256081,-83.3333333333333,4,2,7,5,0,1
256164,-83.3333333333333,4,2,7,93,0,1
257589,-83.3333333333333,4,2,7,5,0,1
257673,-83.3333333333333,4,2,7,93,0,1
258175,-83.3333333333333,4,2,7,93,0,0
258511,-83.3333333333333,4,2,7,93,0,1
258678,-83.3333333333333,4,2,7,5,0,1
258846,-83.3333333333333,4,2,7,97,0,1
261192,-83.3333333333333,4,2,7,100,0,1
262533,-111.111111111111,4,2,7,100,0,0
263539,-111.111111111111,4,2,7,65,0,0
263706,-111.111111111111,4,2,7,75,0,0
263874,-83.3333333333333,4,2,7,85,0,1
264041,-83.3333333333333,4,2,7,85,0,0
264963,-83.3333333333333,4,2,7,5,0,0
265047,-83.3333333333333,4,2,7,85,0,0
266304,-83.3333333333333,4,2,7,5,0,0
266388,-83.3333333333333,4,2,7,85,0,0
267896,-83.3333333333333,4,2,7,93,0,0
268399,-83.3333333333333,4,2,7,85,0,0
269069,-83.3333333333333,4,2,7,5,0,0
269237,-100,4,2,7,85,0,0
269488,-100,4,2,7,5,0,0
269572,-100,4,2,7,70,0,0
271918,-100,4,2,7,80,0,0
272086,-100,4,2,7,5,0,0
272254,-100,4,2,7,80,0,0
273259,-100,4,2,7,90,0,0
274097,-100,4,2,7,80,0,0
274265,-100,4,2,7,70,0,0
274432,-100,4,2,7,60,0,0
274516,-100,4,2,7,55,0,0
274600,-100,4,2,7,50,0,0
274768,-100,4,2,7,50,0,0
279963,-100,4,2,7,5,0,0

[Colours]
Combo1 : 254,133,133
Combo2 : 249,90,51
Combo3 : 238,184,123
Combo4 : 255,140,36

[HitObjects]
393,87,1081,6,0,L|377:23,2,55.9999982910157,2|0|0,0:0|0:0|0:0,0:0:0:0:
475,133,1583,2,0,P|514:182|486:223,2,111.999996582031,2|2|2,0:0|0:0|0:0,0:0:0:0:
396,219,2421,2,0,L|382:273,2,55.9999982910157,2|0|0,0:0|0:0|0:0,0:0:0:0:
493,218,2924,2,0,L|462:345,1,111.999996582031,2|0,0:0|0:0,0:0:0:0:
358,364,3427,1,2,0:0:0:0:
261,215,3762,5,2,0:0:0:0:
261,215,4097,1,2,0:0:0:0:
181,266,4265,2,0,L|193:332,1,55.9999982910157,2|0,0:0|0:0,0:0:0:0:
110,364,4600,2,0,L|89:242,1,111.999996582031,2|2,0:0|0:0,0:0:0:0:
14,156,5103,2,0,L|23:100,3,55.9999982910157,2|0|0|2,0:0|0:0|0:0|0:0,0:0:0:0:
90,26,5773,2,0,P|149:31|155:89,1,111.999996582031,2|2,0:0|0:0,0:0:0:0:
91,253,6444,6,0,L|146:262,2,55.9999982910157,2|0|0,0:0|0:0|0:0,0:0:0:0:
106,160,6946,2,0,L|242:183,1,111.999996582031,2|0,0:0|0:0,0:0:0:0:
349,64,7449,2,0,P|311:67|298:85,1,55.9999982910157,2|0,0:0|0:0,0:0:0:0:
318,202,7784,2,0,L|291:93,1,111.999996582031,2|2,0:0|0:0,0:0:0:0:
415,181,8287,2,0,L|388:72,1,111.999996582031,2|0,0:0|0:0,0:0:0:0:
460,4,8790,1,2,0:0:0:0:
510,169,9125,6,0,P|520:223|472:256,1,111.999996582031,2|2,0:0|0:0,0:0:0:0:
386,270,9628,2,0,P|375:217|415:182,1,111.999996582031,2|2,0:0|0:0,0:0:0:0:
504,340,10298,2,0,B|461:349|461:349|443:366|443:366|382:378,2,111.999996582031,2|2|2,0:0|0:0|0:0,0:0:0:0:
386,270,11136,1,0,0:0:0:0:
293,384,11304,1,2,0:0:0:0:
293,384,11472,2,0,L|306:329,1,55.9999982910157,2|0,0:0|0:0,0:0:0:0:
266,243,11723,5,0,1:0:0:0:
265,242,11807,2,0,P|241:195|165:223,1,128,4|0,1:0|0:0,0:0:0:0:
174,366,12310,2,0,L|189:302,1,64,2|0,0:0|0:0,0:0:0:0:
99,277,12645,1,2,0:0:0:0:
99,277,12812,1,0,0:0:0:0:
5,243,12980,6,0,L|34:118,1,128,2|2,0:0|0:0,0:0:0:0:
53,32,13399,1,0,0:0:0:0:
53,32,13483,2,0,L|99:25,2,32,0|0|2,0:0|0:0|0:0,0:0:0:0:
125,118,13818,2,0,L|156:113,3,32
170,121,14153,2,0,P|200:128|229:103,1,64,2|0,0:0|0:0,0:0:0:0:
295,7,14488,6,0,P|368:14|371:69,1,128,2|0,0:0|0:0,0:0:0:0:
296,188,14991,2,0,L|311:117,1,64,2|0,0:0|0:0,0:0:0:0:
385,211,15326,2,0,L|400:140,2,64,2|0|2,0:0|0:0|0:0,0:0:0:0:
455,301,15829,5,0,0:0:0:0:
455,301,15997,1,0,0:0:0:0:
473,210,16164,2,0,L|480:177,2,32
361,313,16499,2,0,P|287:352|282:247,1,215.999993408203,2|2,0:0|1:2,0:0:0:0:
389,141,17170,6,0,L|411:35,1,95.9999970703126,12|4,0:1|0:3,0:0:0:0:
368,224,17505,1,0,1:3:0:0:
199,139,17673,6,0,L|93:117,1,95.9999970703126,12|4,0:0|0:3,0:0:0:0:
282,160,18008,1,0,1:0:0:0:
122,244,18175,2,0,P|103:292|188:312,1,143.999995605469,12|0,0:1|1:0,0:0:0:0:
195,315,18511,6,0,P|232:274|206:225,1,95.9999970703126,12|4,0:1|0:3,0:0:0:0:
3,272,18846,2,0,P|-3:226|30:195,1,95.9999970703126,0|8,1:0|0:0,0:0:0:0:
199,139,19181,2,0,L|85:117,1,95.9999970703126,4|0,0:3|1:0,0:0:0:0:
274,31,19516,2,0,L|105:1,1,143.999995605469,12|0,0:1|1:0,0:0:0:0:
108,0,19851,5,12,0:1:0:0:
17,106,20019,1,4,0:3:0:0:
17,106,20187,1,0,1:0:0:0:
277,36,20354,5,12,0:1:0:0:
186,142,20522,1,4,0:3:0:0:
186,142,20690,1,0,1:0:0:0:
442,73,20857,5,12,0:0:0:0:
348,179,21025,2,0,L|361:284,1,95.9999970703126,4|0,0:3|1:0,0:0:0:0:
446,66,21360,5,12,0:0:0:0:
457,167,21527,2,0,L|470:272,1,95.9999970703126,0|0,1:0|1:0,0:0:0:0:
312,382,21863,6,0,P|242:363|258:286,1,143.999995605469,12|0,0:1|0:0,0:0:0:0:
255,283,22198,2,0,L|242:179,1,95.9999970703126,12|0,0:0|0:0,0:0:0:0:
61,9,22533,6,0,P|33:180|164:82,1,431.999986816407,4|0,1:0|0:0,0:0:0:0:
71,96,23706,5,0,0:0:0:0:
75,101,23790,1,0,0:0:0:0:
79,106,23874,2,0,L|40:292,1,167.999994873047,6|10,0:0|0:0,0:0:0:0:
44,270,24712,1,4,0:3:0:0:
144,364,24879,2,0,L|157:297,1,60,2|0,1:3|0:0,0:0:0:0:
160,288,25215,6,0,P|197:252|254:279,1,111.999996582031,4|2,1:0|0:0,0:0:0:0:
341,354,25885,2,0,P|390:372|429:336,1,111.999996582031,2|2,0:0|0:0,0:0:0:0:
429,334,26388,1,0,0:0:0:0:
466,242,26555,2,0,L|448:117,1,111.999996582031,2|0,0:0|0:0,0:0:0:0:
372,257,27058,2,0,L|354:132,1,111.999996582031,2|0,0:0|0:0,0:0:0:0:
442,36,27561,1,2,0:0:0:0:
442,36,27729,1,0,1:0:0:0:
356,146,27896,6,0,P|318:110|346:59,1,111.999996582031,4|2,1:2|0:0,0:0:0:0:
214,0,28399,2,0,P|236:46|198:82,2,111.999996582031
108,8,29237,2,0,L|0:37,1,111.999996582031,2|0,0:0|0:0,0:0:0:0:
0,136,29740,1,0,1:0:0:0:
0,136,29907,2,0,L|118:105,1,111.999996582031,2|0,1:2|0:0,0:0:0:0:
108,107,30410,1,0,1:0:0:0:
201,188,30578,6,0,P|216:243|175:273,1,111.999996582031,4|2,1:0|0:0,0:0:0:0:
28,327,31248,2,0,P|13:272|54:242,1,111.999996582031,2|2,0:0|0:0,0:0:0:0:
51,242,31751,1,0,0:0:0:0:
155,370,31918,2,0,L|265:349,1,111.999996582031,2|0,0:0|0:0,0:0:0:0:
177,272,32421,2,0,L|287:251,1,111.999996582031,2|0,0:0|0:0,0:0:0:0:
269,351,32924,1,0,0:0:0:0:
269,351,33092,1,0,1:0:0:0:
422,225,33259,6,0,P|387:250|407:318,1,111.999996582031,4|2,1:2|0:0,0:0:0:0:
492,359,33762,2,0,P|465:319|397:328,1,111.999996582031
354,195,34265,2,0,P|380:225|421:224,1,83.9999974365235,2|0,0:0|0:0,0:0:0:0:
442,217,34600,2,0,L|457:146,1,55.9999982910157,4|0,0:0|0:0,0:0:0:0:
474,75,34935,2,0,L|489:4,1,55.9999982910157,2|0,0:0|1:2,0:0:0:0:
354,195,35270,2,0,L|365:140,1,55.9999982910157,2|0,0:0|1:2,0:0:0:0:
381,54,35606,2,0,L|392:0,1,55.9999982910157,2|0,0:0|0:0,0:0:0:0:
260,141,35941,6,0,P|215:176|158:134,1,111.999996582031,4|0,1:0|0:0,0:0:0:0:
91,51,36611,2,0,P|40:32|0:66,1,111.999996582031,0|0,0:0|0:1,0:0:0:0:
0,66,37114,1,0,0:0:0:0:
67,149,37282,2,0,L|51:259,1,111.999996582031,6|0,1:2|0:0,0:0:0:0:
156,282,37784,2,0,L|45:266,1,111.999996582031,2|0,0:0|0:0,0:0:0:0:
86,371,38287,1,2,0:2:0:0:
86,371,38455,1,0,0:0:0:0:
253,291,38622,6,0,P|258:335|184:358,1,111.999996582031,6|2,1:2|0:0,0:0:0:0:
156,282,39125,2,0,P|151:238|225:215,2,111.999996582031
333,375,39963,6,0,L|393:361,1,55.9999982910157,6|0,1:2|0:0,0:0:0:0:
442,291,40298,2,0,L|496:278,1,55.9999982910157,0|0,0:0|1:0,0:0:0:0:
355,205,40634,6,0,L|295:191,1,55.9999982910157,2|0,0:0|0:0,0:0:0:0:
246,121,40969,2,0,L|191:108,1,55.9999982910157,2|0,1:2|0:0,0:0:0:0:
329,28,41304,6,0,P|359:85|416:61,1,111.999996582031,4|0,1:2|0:0,0:0:0:0:
495,54,41807,1,2,0:0:0:0:
495,54,41974,2,0,L|511:-7,2,55.9999982910157,0|0|2,0:0|0:0|0:0,0:0:0:0:
495,54,42645,2,0,L|464:180,1,111.999996582031,4|0,1:2|0:0,0:0:0:0:
355,205,43148,2,0,P|347:245|391:286,1,83.9999974365235,2|0,0:0|0:0,0:0:0:0:
382,289,43483,2,0,L|456:273,1,55.9999982910157,2|0,0:0|0:0,0:0:0:0:
321,366,43986,5,4,1:0:0:0:
239,217,44321,1,0,1:0:0:0:
100,340,44656,1,0,1:2:0:0:
33,185,44991,1,0,1:0:0:0:
129,236,45159,5,12,0:0:0:0:
129,236,45494,2,0,L|141:175,2,55.9999982910157,2|0|8,0:1|1:0|0:3,0:0:0:0:
33,185,45997,2,0,P|31:153|60:126,1,55.9999982910157,2|4,1:0|0:3,0:0:0:0:
203,27,46332,2,0,P|153:70|128:53,1,83.9999974365235,4|0,0:3|1:0,0:0:0:0:
129,62,46667,6,0,L|44:32,1,64,4|0,1:0|0:0,0:0:0:0:
142,161,47002,1,0,1:0:0:0:
268,109,47170,2,0,L|408:63,1,128,2|0,0:0|0:0,0:0:0:0:
468,1,47673,1,0,1:0:0:0:
468,1,47840,1,0,0:0:0:0:
423,152,48008,2,0,L|301:191,1,128,4|0,1:2|1:0,0:0:0:0:
426,243,48511,2,0,B|371:262|371:262|339:292|365:339,1,128,2|0,0:0|0:0,0:0:0:0:
458,351,49013,1,2,1:2:0:0:
458,351,49181,1,0,0:0:0:0:
254,275,49349,6,0,P|190:282|171:337,1,128,4|0,1:0|1:0,0:0:0:0:
273,349,49851,2,0,L|255:272,1,64,2|0,0:0|1:0,0:0:0:0:
50,260,50187,2,0,L|80:392,1,128,2|0,0:0|0:0,0:0:0:0:
129,213,50689,2,0,P|99:160|32:176,1,128,6|0,1:2|1:0,0:0:0:0:
202,78,51192,2,0,P|178:131|109:120,1,128,2|0,0:0|0:0,0:0:0:0:
76,41,51695,1,2,1:2:0:0:
76,41,51863,1,0,0:0:0:0:
218,4,52030,6,0,L|197:80,2,64,4|0|0,1:0|0:0|1:0,0:0:0:0:
333,0,52533,1,2,0:0:0:0:
299,124,52701,2,0,L|333:0,1,128,0|0,1:2|1:0,0:0:0:0:
333,0,53203,1,0,0:0:0:0:
469,5,53371,6,0,P|497:36|492:69,1,64,4|0,1:0|0:0,0:0:0:0:
437,126,53706,2,0,P|409:95|414:62,1,64,0|2,1:0|0:0,0:0:0:0:
299,124,54041,6,0,P|271:155|276:188,1,64,0|0,1:2|0:0,0:0:0:0:
331,245,54376,2,0,P|359:214|354:181,1,64,0|0,1:0|0:0,0:0:0:0:
472,346,54712,6,0,L|449:221,1,128,4|0,1:0|1:0,0:0:0:0:
354,370,55215,2,0,L|330:244,1,128,2|2,0:0|0:1,0:0:0:0:
227,362,55717,2,0,L|214:295,1,64,0|2,1:0|0:0,0:0:0:0:
120,174,56053,2,0,P|43:162|76:289,1,256,6|0,1:2|1:0,0:0:0:0:
66,288,56891,1,0,1:0:0:0:
227,362,57058,2,0,L|214:295,1,64,12|0,0:2|1:0,0:0:0:0:
120,174,57393,6,0,L|171:13,1,160,4|8,1:0|0:0,0:0:0:0:
28,61,57896,2,0,L|180:109,1,160,4|0,1:2|1:0,0:0:0:0:
291,39,58399,1,12,0:0:0:0:
291,39,58567,1,2,0:0:0:0:
431,179,58734,6,0,P|477:177|503:130,1,80,4|8,1:0|0:0,0:0:0:0:
512,135,58986,1,8,0:0:0:0:
512,135,59069,2,0,L|504:79,1,40,8|0,0:0|0:0,0:0:0:0:
486,0,59237,1,4,1:0:0:0:
308,142,59572,5,0,1:0:0:0:
396,47,59740,1,12,0:0:0:0:
396,47,59907,1,2,0:0:0:0:
431,179,60075,6,0,L|458:336,1,160,4|8,1:0|0:0,0:0:0:0:
324,277,60578,2,0,L|481:249,1,160,4|0,1:0|1:0,0:0:0:0:
365,369,61081,2,0,L|286:381,1,80,8|0,0:0|1:0,0:0:0:0:
198,205,61416,5,12,0:0:0:0:
314,270,61583,1,8,0:3:0:0:
189,200,61751,1,0,1:0:0:0:
173,380,61918,6,0,P|171:323|189:306,1,80,12|0,0:1|0:0,0:0:0:0:
71,158,62254,2,0,P|88:245|18:278,1,160,0|0,1:0|0:0,0:0:0:0:
24,282,62673,1,0,1:0:0:0:
17,284,62756,5,12,0:1:0:0:
67,379,62924,1,4,0:3:0:0:
178,371,63092,1,0,1:0:0:0:
284,199,63259,5,12,0:1:0:0:
244,292,63427,1,4,0:3:0:0:
133,284,63595,1,0,1:0:0:0:
100,73,63762,5,12,0:0:0:0:
188,206,63930,1,12,0:1:0:0:
196,215,64265,5,8,0:0:0:0:
284,15,64433,1,12,0:0:0:0:
284,15,64768,5,8,0:0:0:0:
244,13,64851,1,8,0:3:0:0:
213,37,64935,1,4,0:3:0:0:
205,76,65019,1,0,1:0:0:0:
223,110,65103,2,0,L|381:82,1,155.999992858887,12|0,0:0|0:0,0:0:0:0:
420,14,65438,6,0,P|372:57|393:103,1,95.9999970703126,4|0,1:0|0:0,0:0:0:0:
471,201,65773,1,8,0:0:0:0:
492,97,65941,2,0,L|460:207,1,95.9999970703126,0|0,1:0|0:0,0:0:0:0:
323,276,66276,2,0,P|297:338|400:363,1,191.999994140625,0|0,1:0|1:0,0:0:0:0:
465,189,66779,2,0,L|433:299,1,95.9999970703126,2|0,1:2|1:0,0:0:0:0:
269,369,67114,6,0,P|219:361|205:317,1,95.9999970703126,8|2,0:0|1:2,0:0:0:0:
69,331,67449,2,0,P|59:281|95:253,1,95.9999970703126,0|0,0:0|1:0,0:0:0:0:
24,144,67784,2,0,P|67:117|106:142,1,95.9999970703126,10|0,0:1|0:0,0:0:0:0:
204,322,68120,6,0,B|219:243|219:243|209:208|209:208|224:132,1,191.999994140625,4|8,1:0|0:0,0:0:0:0:
126,35,68622,2,0,P|132:120|248:108,1,191.999994140625,0|2,1:0|1:2,0:0:0:0:
368,46,69125,1,8,0:0:0:0:
252,12,69293,1,0,0:0:0:0:
343,157,69460,6,0,L|369:41,1,95.9999970703126,4|2,1:2|1:2,0:0:0:0:
456,181,69796,1,8,0:0:0:0:
323,251,69963,1,2,1:2:0:0:
483,352,70131,2,0,P|437:297|371:330,1,143.999995605469
307,365,70466,2,0,P|249:365|233:322,1,95.9999970703126,12|0,0:2|1:0,0:0:0:0:
109,199,70801,6,0,P|41:196|43:302,1,191.999994140625,4|8,1:0|0:0,0:0:0:0:
144,384,71304,1,0,1:0:0:0:
144,384,71472,2,0,L|127:286,1,95.9999970703126,0|0,0:0|1:0,0:0:0:0:
0,189,71807,2,0,P|-3:133|92:106,1,143.999995605469,8|0,0:0|0:0,0:0:0:0:
76,98,72142,6,0,P|130:107|162:51,1,95.9999970703126,2|0,1:2|1:0,0:0:0:0:
203,3,72477,1,8,0:0:0:0:
319,109,72645,2,0,P|373:118|405:62,1,95.9999970703126,2|0,1:2|0:0,0:0:0:0:
190,182,72980,2,0,P|153:210|108:198,1,95.9999970703126,0|12,1:0|0:0,0:0:0:0:
245,339,73315,1,0,1:0:0:0:
150,369,73483,6,0,L|191:176,1,191.999994140625,4|8,1:0|0:0,0:0:0:0:
245,339,73986,2,0,L|263:244,1,95.9999970703126,2|0,1:2|0:0,0:0:0:0:
435,232,74321,1,0,1:1:0:0:
422,371,74488,2,0,P|366:360|379:266,1,143.999995605469,10|0,0:2|0:0,0:0:0:0:
435,232,74824,6,0,P|472:187|459:151,1,95.9999970703126,4|0,1:2|0:0,0:0:0:0:
288,40,75159,1,10,0:0:0:0:
371,159,75326,1,12,0:1:0:0:
437,22,75494,1,0,0:0:0:0:
437,22,75662,1,2,1:2:0:0:
260,138,75829,2,0,P|182:146|162:73,1,143.999995605469,12|2,0:0|1:2,0:0:0:0:
213,11,76164,6,0,P|253:2|287:58,1,95.9999970703126,4|0,1:0|0:0,0:0:0:0:
175,185,76499,1,8,0:0:0:0:
50,61,76667,2,0,P|89:39|147:130,1,143.999995605469,0|0,1:0|0:0,0:0:0:0:
72,167,77002,2,0,P|35:180|1:124,1,95.9999970703126,0|8,1:0|0:0,0:0:0:0:
175,185,77337,2,0,P|118:184|88:302,1,191.999994140625,0|0,0:0|2:0,0:0:0:0:
256,374,77840,6,0,P|202:337|167:359,1,95.9999970703126,8|2,0:0|1:2,0:0:0:0:
343,285,78175,2,0,P|336:219|297:207,1,95.9999970703126,0|0,0:0|1:0,0:0:0:0:
459,357,78511,2,0,P|504:310|489:271,1,95.9999970703126,8|0,0:1|0:0,0:0:0:0:
401,23,78846,6,0,B|419:93|419:93|410:125|410:125|432:208,1,191.999994140625,4|8,1:0|0:0,0:0:0:0:
400,13,79349,2,0,P|489:26|510:114,1,191.999994140625,0|0,1:0|1:0,0:0:0:0:
320,93,79851,2,0,L|298:0,1,95.9999970703126,8|0,0:0|0:0,0:0:0:0:
135,162,80187,2,0,P|76:161|69:74,1,143.999995605469,4|0,1:2|0:0,0:0:0:0:
121,25,80522,1,8,0:0:0:0:
121,25,80689,1,2,1:2:0:0:
237,233,80857,2,0,L|204:84,1,143.999995605469
135,162,81192,2,0,L|154:266,1,95.9999970703126,12|0,0:0|1:0,0:0:0:0:
352,266,81527,6,0,P|314:249|234:347,1,191.999994140625,4|8,1:0|0:1,0:0:0:0:
33,177,82030,2,0,P|71:160|151:258,1,191.999994140625,0|2,1:0|1:2,0:0:0:0:
120,372,82533,1,12,0:0:0:0:
0,290,82701,1,2,0:2:0:0:
118,67,82868,6,0,L|135:162,1,95.9999970703126,4|0,1:0|0:0,0:0:0:0:
233,345,83203,6,0,P|285:316|275:266,1,95.9999970703126,8|0,0:0|1:0,0:0:0:0:
439,316,83539,2,0,P|429:257|379:249,1,95.9999970703126,0|0,0:0|1:0,0:0:0:0:
511,119,83874,2,0,P|452:107|428:152,1,95.9999970703126,8|0,0:0|0:0,0:0:0:0:
309,185,84209,6,0,B|332:104|332:104|327:73|327:73|352:-24,1,191.999994140625,4|8,1:2|0:1,0:0:0:0:
211,187,84712,2,0,B|233:112|233:112|228:81|228:81|253:-16,1,191.999994140625,0|2,1:0|1:2,0:0:0:0:
309,185,85215,2,0,P|289:253|242:257,1,95.9999970703126,8|0,0:0|0:0,0:0:0:0:
137,113,85550,5,6,1:2:0:0:
137,113,85717,1,2,0:0:0:0:
116,214,85885,1,10,0:0:0:0:
211,187,86053,1,0,1:0:0:0:
65,32,86220,1,0,1:0:0:0:
35,120,86388,5,8,0:0:0:0:
40,128,86472,1,8,0:0:0:0:
44,136,86555,2,0,L|31:186,1,47.9999985351563,4|4,0:3|0:3,0:0:0:0:
12,280,86723,2,0,L|0:326,1,47.9999985351563,4|0,0:3|1:0,0:0:0:0:
187,285,86891,6,0,P|183:359|74:340,1,191.999994140625,4|12,1:0|0:0,0:0:0:0:
85,361,87393,1,0,1:0:0:0:
211,187,87561,5,12,0:0:0:0:
187,285,87729,1,0,1:0:0:0:
44,136,87896,5,12,0:0:0:0:
12,280,88064,1,0,1:0:0:0:
211,187,88231,6,0,L|311:158,1,95.9999970703126,12|0,0:1|1:0,0:0:0:0:
111,215,88567,5,12,0:0:0:0:
295,368,88734,1,0,1:0:0:0:
300,360,88818,1,0,1:0:0:0:
305,352,88902,5,12,0:0:0:0:
380,206,89069,1,0,1:0:0:0:
400,357,89237,5,12,0:1:0:0:
280,261,89405,1,0,1:0:0:0:
442,125,89572,6,0,L|407:-6,1,95.9999970703126,14|4,0:1|0:3,0:0:0:0:
380,206,89907,1,0,1:0:0:0:
298,92,90075,6,0,L|263:-39,1,95.9999970703126,14|4,0:1|0:3,0:0:0:0:
236,173,90410,1,0,1:0:0:0:
0,66,90578,6,0,L|108:36,1,95.9999970703126,14|0,0:1|1:0,0:0:0:0:
172,85,90829,1,0,1:0:0:0:
172,85,90913,2,0,P|199:161|45:158,1,287.999991210938,4|0,1:0|0:0,0:0:0:0:
48,171,92086,5,0,1:0:0:0:
48,171,92170,1,0,1:0:0:0:
48,171,92254,2,0,L|24:285,1,95.9999970703126,12|4,0:1|0:3,0:0:0:0:
6,372,92589,1,0,1:0:0:0:
166,182,92756,2,0,L|142:296,1,95.9999970703126,12|0,0:1|0:0,0:0:0:0:
124,383,93091,1,0,1:0:0:0:
284,203,93259,2,0,L|249:363,1,143.999995605469,12|0,0:0|1:0,0:0:0:0:
343,336,93594,6,0,L|363:239,1,95.9999970703126,12|4,0:1|0:3,0:0:0:0:
512,381,93930,6,0,P|501:312|464:309,1,95.9999970703126,0|8,1:0|0:1,0:0:0:0:
368,213,94265,2,0,P|332:183|342:138,1,95.9999970703126,0|0,0:0|1:0,0:0:0:0:
484,25,94600,1,12,0:0:0:0:
484,25,94768,1,0,1:0:0:0:
452,112,94935,6,0,L|472:224,1,95.9999970703126,12|4,0:1|0:3,0:0:0:0:
370,41,95270,1,0,1:0:0:0:
269,221,95438,2,0,L|157:241,1,95.9999970703126,12|4,0:0|0:3,0:0:0:0:
340,139,95773,1,0,1:0:0:0:
126,119,95941,2,0,P|142:43|227:52,1,143.999995605469,12|0,0:0|1:0,0:0:0:0:
206,37,96276,6,0,L|223:147,1,95.9999970703126,12|0,0:1|1:1,0:0:0:0:
15,63,96611,2,0,L|30:158,1,95.9999970703126,0|8,1:0|0:1,0:0:0:0:
174,237,96946,2,0,P|183:275|139:309,1,95.9999970703126,0|0,1:0|1:0,0:0:0:0:
27,327,97282,2,0,P|18:289|62:255,1,95.9999970703126,12|0,0:1|1:0,0:0:0:0:
250,365,97617,6,0,B|311:347|311:347|341:353|341:353|414:333,3,160,4|0|0|0,1:0|1:0|1:0|1:0,0:0:0:0:
480,250,98790,5,2,0:0:0:0:
481,250,98874,1,2,0:0:0:0:
481,250,98958,2,0,P|504:199|483:170,1,80,6|2,1:2|0:0,0:0:0:0:
381,229,99293,2,0,P|372:191|395:160,1,80,0|2,1:0|0:0,0:0:0:0:
462,75,99628,1,2,1:2:0:0:
462,75,99796,1,0,0:0:0:0:
379,0,99963,1,2,1:2:0:0:
379,0,100131,1,2,0:0:0:0:
251,198,100298,5,12,0:1:0:0:
251,198,100634,1,8,0:0:0:0:
208,92,100802,1,8,0:0:0:0:
313,109,100969,1,8,0:0:0:0:
145,174,101137,1,8,0:0:0:0:
281,17,101304,1,8,0:0:0:0:
167,269,101472,1,8,0:0:0:0:
52,48,101639,5,4,0:1:0:0:
251,198,101807,1,10,0:0:0:0:
28,307,101974,2,0,L|51:197,1,80,2|2,0:0|0:0,0:0:0:0:
61,149,102226,1,0,0:0:0:0:
61,149,102310,5,10,0:0:0:0:
167,269,102477,1,2,0:0:0:0:
28,307,102645,1,4,0:3:0:0:
96,382,102812,1,2,0:0:0:0:
96,382,102980,6,0,L|173:364,2,64,4|0|2,1:0|0:0|1:2,0:0:0:0:
167,269,103483,1,0,0:0:0:0:
252,321,103650,2,0,L|270:398,1,64,0|2,1:0|0:0,0:0:0:0:
291,237,103986,1,0,1:0:0:0:
291,237,104153,1,0,0:0:0:0:
392,336,104321,6,0,P|423:377|498:354,1,128,2|0,1:2|1:0,0:0:0:0:
470,272,104824,1,2,2:0:0:0:
470,272,104991,2,0,L|492:188,1,64,0|2,1:0|2:0,0:0:0:0:
348,94,105326,2,0,L|370:12,1,64,0|0,1:0|0:0,0:0:0:0:
455,25,105662,6,0,L|421:156,1,128,4|2,1:2|1:2,0:0:0:0:
338,196,106164,2,0,P|340:233|363:248,1,64,0|0,2:2|1:0,0:0:0:0:
255,155,106499,2,0,P|220:169|214:196,2,64,2|0|2,2:0|1:2|2:0,0:0:0:0:
364,32,107002,6,0,L|348:94,1,64,2|0,1:2|0:0,0:0:0:0:
284,0,107337,2,0,L|267:61,1,64,2|0,1:2|0:0,0:0:0:0:
57,77,107673,2,0,L|73:138,1,64,2|0,1:2|0:0,0:0:0:0:
137,45,108008,2,0,L|153:106,1,64,4|8,1:2|0:0,0:0:0:0:
55,226,108343,6,0,P|2:263|34:325,1,128,0|2,1:2|1:2,0:0:0:0:
97,370,108846,1,0,0:2:0:0:
97,370,109013,2,0,L|181:353,1,64,0|2,1:0|0:0,0:0:0:0:
202,265,109349,1,0,1:2:0:0:
202,265,109516,1,0,0:0:0:0:
264,384,109684,6,0,B|274:334|274:334|296:316|296:316|310:247,1,128,2|0,1:2|1:0,0:0:0:0:
220,172,110187,2,0,P|193:123|256:81,1,128,2|2,0:0|0:0,0:0:0:0:
333,116,110689,2,0,L|317:198,1,64,0|0,1:0|0:0,0:0:0:0:
410,18,111025,6,0,P|462:7|480:86,1,128,4|2,1:2|1:2,0:0:0:0:
421,132,111527,2,0,L|406:208,1,64,0|0,0:2|1:0,0:0:0:0:
500,213,111863,1,2,0:0:0:0:
500,213,112030,2,0,L|512:150,1,64,0|0,1:2|3:0,0:0:0:0:
317,322,112365,6,0,L|304:259,1,64,4|0,1:2|0:0,0:0:0:0:
409,346,112701,2,0,L|396:283,1,64,2|0,1:2|0:0,0:0:0:0:
503,363,113036,2,0,L|490:300,1,64,0|0,1:0|1:0,0:0:0:0:
408,194,113371,1,12,0:0:0:0:
319,332,113539,1,0,0:0:0:0:
209,216,113706,6,0,P|124:228|108:268,1,128,4|8,1:0|0:0,0:0:0:0:
181,384,114209,1,0,3:0:0:0:
181,384,114377,2,0,L|197:303,1,64,0|0,3:0|1:0,0:0:0:0:
209,216,114712,1,2,0:0:0:0:
75,356,114879,6,0,P|12:328|16:268,1,128,12|0,0:0|1:0,0:0:0:0:
117,123,115382,1,8,0:0:0:0:
117,123,115550,2,0,P|89:185|29:181,1,128,0|0,3:0|1:0,0:0:0:0:
94,20,116053,1,14,0:0:0:0:
20,83,116220,1,2,0:0:0:0:
189,54,116388,6,0,L|319:30,1,128,2|8,1:2|0:0,0:0:0:0:
239,133,116891,2,0,L|327:117,1,64,2|0,0:0|1:0,0:0:0:0:
470,35,117226,2,0,P|422:53|436:110,1,96,2|0,1:2|0:0,0:0:0:0:
424,100,117561,6,0,P|475:153|450:200,1,128,8|0,0:0|1:0,0:0:0:0:
297,242,118064,2,0,P|338:218|362:228,1,64,10|0,0:0|0:0,0:0:0:0:
456,194,118399,2,0,P|492:224|491:250,1,64,0|0,1:0|1:0,0:0:0:0:
511,334,118734,2,0,P|495:378|470:386,1,64,10|0,0:0|0:0,0:0:0:0:
257,367,119069,6,0,L|413:311,1,143.999995605469,4|8,1:0|0:0,0:0:0:0:
392,319,119572,1,0,0:0:0:0:
456,194,119740,1,0,1:0:0:0:
456,194,119907,1,0,1:0:0:0:
286,252,120075,2,0,L|369:222,1,71.9999978027344,8|0,0:0|0:0,0:0:0:0:
244,111,120410,6,0,P|173:119|173:196,1,143.999995605469,4|8,1:2|0:0,0:0:0:0:
179,281,120913,2,0,L|160:369,1,71.9999978027344,0|0,0:0|1:0,0:0:0:0:
59,222,121248,2,0,L|27:362,1,143.999995605469,0|0,1:0|1:0,0:0:0:0:
179,281,121751,6,0,L|160:369,1,71.9999978027344,4|0,1:0|1:0,0:0:0:0:
55,214,122086,2,0,L|70:143,1,71.9999978027344,12|0,0:0|1:0,0:0:0:0:
192,0,122421,5,12,0:0:0:0:
79,121,122589,1,0,1:0:0:0:
41,0,122756,1,12,0:0:0:0:
219,121,122924,1,4,1:0:0:0:
219,121,123259,2,0,L|201:201,2,71.9999978027344,2|12|2,1:0|0:0|1:2,0:0:0:0:
292,45,123678,5,0,1:0:0:0:
292,45,123762,1,8,0:3:0:0:
337,147,123930,1,4,0:3:0:0:
481,4,124097,1,2,1:2:0:0:
412,72,124265,5,0,1:0:0:0:
418,80,124349,1,0,1:0:0:0:
423,87,124432,2,0,L|443:213,1,128,4|0,1:0|1:0,0:0:0:0:
508,339,124935,1,2,0:0:0:0:
508,339,125103,2,0,P|456:330|416:397,1,128,0|0,1:0|1:2,0:0:0:0:
415,384,125606,1,0,0:0:0:0:
360,272,125773,6,0,L|334:131,1,128,4|0,1:2|1:0,0:0:0:0:
269,333,126276,2,0,L|243:192,1,128,2|0,0:0|0:0,0:0:0:0:
317,57,126779,1,4,1:2:0:0:
229,117,126946,1,0,0:0:0:0:
101,25,127114,6,0,P|56:14|33:88,1,128,4|0,1:0|1:0,0:0:0:0:
92,186,127617,2,0,L|112:108,1,64,2|0,0:0|1:0,0:0:0:0:
4,206,127952,2,0,P|64:215|84:272,1,128,2|2,0:0|0:0,0:0:0:0:
272,350,128455,2,0,L|139:378,1,128,4|0,1:2|1:0,0:0:0:0:
214,249,128958,2,0,L|81:277,1,128,2|0,0:0|0:0,0:0:0:0:
37,367,129460,1,2,1:2:0:0:
37,367,129628,1,0,0:0:0:0:
161,313,129796,6,0,L|146:375,1,64,4|0,1:0|0:0,0:0:0:0:
287,287,130131,2,0,L|272:349,1,64,0|2,1:0|0:0,0:0:0:0:
414,364,130466,2,0,P|457:370|480:297,1,128,0|2,1:0|1:2,0:0:0:0:
479,296,130969,1,0,0:0:0:0:
383,180,131136,6,0,L|398:267,1,64,4|0,1:0|0:0,0:0:0:0:
468,130,131472,2,0,L|483:217,1,64,0|2,1:0|0:0,0:0:0:0:
216,66,131807,2,0,L|201:153,1,64,0|0,1:0|0:0,0:0:0:0:
301,117,132142,2,0,L|286:204,1,64,2|0,1:2|0:0,0:0:0:0:
480,28,132477,6,0,P|395:39|394:92,1,128,4|0,1:0|1:0,0:0:0:0:
290,180,132980,2,0,P|256:230|197:218,1,128,2|0,0:0|0:2,0:0:0:0:
130,47,133483,1,0,1:0:0:0:
205,129,133650,1,0,0:0:0:0:
107,173,133818,2,0,L|130:47,1,128,6|0,1:2|1:0,0:0:0:0:
132,40,134321,1,2,0:0:0:0:
24,129,134488,2,0,L|36:66,1,64,0|0,1:0|1:0,0:0:0:0:
205,129,134824,1,12,0:0:0:0:
8,221,134991,1,0,1:0:0:0:
177,315,135159,6,0,P|99:318|66:391,1,160,4|8,1:0|0:0,0:0:0:0:
276,309,135662,2,0,P|216:305|193:210,1,160,4|0,1:0|1:0,0:0:0:0:
298,150,136164,1,12,0:0:0:0:
298,150,136332,1,2,0:0:0:0:
446,266,136499,6,0,L|368:285,1,80,4|8,1:0|0:0,0:0:0:0:
276,309,136751,1,8,0:0:0:0:
276,309,136835,1,8,0:0:0:0:
503,208,137002,2,0,B|491:275|491:275|472:296|472:296|461:358,1,160,4|0,1:0|1:0,0:0:0:0:
374,382,137505,1,12,0:0:0:0:
374,382,137673,1,2,0:0:0:0:
404,175,137840,6,0,L|428:15,1,160,4|8,1:0|0:0,0:0:0:0:
211,60,138343,2,0,L|188:219,1,160,4|0,1:0|1:0,0:0:0:0:
175,310,138762,1,0,1:0:0:0:
175,310,138846,1,8,0:0:0:0:
91,215,139013,1,0,1:0:0:0:
308,110,139181,6,0,L|296:189,2,80,12|8|0,0:0|0:3|1:0,0:0:0:0:
123,21,139684,2,0,P|66:21|54:108,1,160,12|0,0:1|1:0,0:0:0:0:
188,219,140187,1,12,0:1:0:0:
161,134,140354,1,0,0:0:0:0:
161,134,140438,1,0,1:0:0:0:
161,134,140522,5,12,0:1:0:0:
91,215,140689,1,4,0:3:0:0:
0,188,140857,1,0,1:0:0:0:
241,297,141025,5,12,0:1:0:0:
146,307,141193,1,4,0:3:0:0:
91,215,141360,1,4,0:3:0:0:
22,352,141527,5,12,0:0:0:0:
188,219,141695,1,12,0:1:0:0:
197,214,142030,5,8,0:0:0:0:
316,374,142198,2,0,L|339:272,1,80,12|0,0:0|1:0,0:0:0:0:
296,206,142449,1,8,0:0:0:0:
296,206,142533,1,8,0:0:0:0:
418,339,142701,5,8,0:0:0:0:
430,345,142784,1,8,0:0:0:0:
443,350,142868,1,8,0:0:0:0:
486,332,142951,1,8,0:0:0:0:
512,293,143035,1,8,0:0:0:0:
511,245,143119,1,8,0:0:0:0:
483,207,143203,6,0,L|358:227,1,95.9999970703126,4|0,1:0|0:0,0:0:0:0:
278,103,143539,1,8,0:0:0:0:
496,18,143706,2,0,L|469:110,1,95.9999970703126,0|0,1:0|0:0,0:0:0:0:
278,103,144041,2,0,L|304:10,1,95.9999970703126,0|8,1:0|0:0,0:0:0:0:
350,190,144377,2,0,L|409:-6,1,191.999994140625,0|0,1:0|0:0,0:0:0:0:
278,103,144879,6,0,P|224:136|179:104,1,95.9999970703126,8|2,0:0|1:2,0:0:0:0:
153,236,145215,2,0,P|103:196|118:143,1,95.9999970703126,0|0,0:0|1:0,0:0:0:0:
0,135,145550,2,0,P|20:75|75:70,1,95.9999970703126,8|0,0:1|0:0,0:0:0:0:
219,0,145885,6,0,B|144:16|144:16|114:48|114:48|7:75,1,191.999994140625,4|8,1:0|0:0,0:0:0:0:
278,103,146388,2,0,B|203:119|203:119|173:151|173:151|66:178,1,191.999994140625,0|0,1:0|1:0,0:0:0:0:
128,33,146891,1,8,0:0:0:0:
210,171,147058,1,0,0:0:0:0:
14,311,147226,6,0,P|47:255|125:270,1,143.999995605469,4|0,1:2|0:0,0:0:0:0:
187,304,147561,2,0,P|143:306|108:352,1,95.9999970703126,8|2,0:0|1:2,0:0:0:0:
303,227,147896,2,0,L|264:390,1,143.999995605469
362,363,148231,2,0,L|383:269,1,95.9999970703126,12|0,0:0|1:0,0:0:0:0:
209,171,148567,6,0,P|170:109|254:37,1,191.999994140625,4|8,1:0|0:0,0:0:0:0:
377,69,149069,2,0,P|296:105|241:35,1,191.999994140625,0|2,1:0|1:2,0:0:0:0:
244,25,149572,1,10,0:0:0:0:
293,138,149740,1,2,0:0:0:0:
479,93,149907,6,0,L|500:0,1,95.9999970703126,2|0,1:2|1:0,0:0:0:0:
377,69,150243,1,8,0:0:0:0:
503,192,150410,2,0,B|509:239|509:239|494:279|494:279|505:331,1,143.999995605469,2|0,1:2|0:0,0:0:0:0:
427,372,150745,2,0,L|403:263,1,95.9999970703126,0|12,1:0|0:0,0:0:0:0:
479,93,151081,1,0,1:0:0:0:
503,192,151248,6,0,P|442:241|390:146,1,191.999994140625,4|8,1:0|0:0,0:0:0:0:
257,328,151751,2,0,P|290:359|333:344,1,95.9999970703126,2|0,1:2|0:0,0:0:0:0:
406,278,152086,1,0,1:1:0:0:
305,87,152254,2,0,L|275:228,1,143.999995605469,10|0,0:0|0:0,0:0:0:0:
257,328,152589,6,0,L|245:390,4,47.9999985351563,4|2|0|2|10,1:2|0:0|0:0|0:0|0:0,0:0:0:0:
51,224,153092,1,12,0:1:0:0:
152,378,153259,2,0,L|172:283,1,95.9999970703126,0|0,0:0|1:0,0:0:0:0:
191,189,153511,1,0,1:0:0:0:
191,189,153594,2,0,L|16:234,1,143.999995605469,12|0,0:0|1:0,0:0:0:0:
79,309,153930,6,0,L|193:278,1,95.9999970703126,4|0,1:0|0:0,0:0:0:0:
8,384,154265,1,8,0:0:0:0:
51,224,154432,2,0,L|71:129,1,95.9999970703126,0|0,1:0|0:0,0:0:0:0:
171,282,154768,2,0,L|191:189,1,95.9999970703126,0|8,1:0|0:0,0:0:0:0:
47,13,155103,2,0,P|68:81|188:44,1,191.999994140625,0|0,1:0|1:0,0:0:0:0:
345,0,155606,6,0,P|381:49|348:94,1,95.9999970703126,8|2,0:0|1:2,0:0:0:0:
459,125,155941,2,0,P|425:175|371:159,1,95.9999970703126,0|0,0:0|1:0,0:0:0:0:
384,276,156276,2,0,P|324:261|321:205,1,95.9999970703126,8|0,0:1|0:0,0:0:0:0:
274,79,156611,6,0,B|255:155|255:155|228:176|228:176|206:268,1,191.999994140625,4|8,1:0|0:0,0:0:0:0:
56,334,157114,2,0,P|36:225|123:202,1,191.999994140625,0|0,1:0|1:0,0:0:0:0:
209,253,157617,1,8,0:0:0:0:
65,341,157784,1,0,0:0:0:0:
231,370,157952,6,0,L|212:275,1,95.9999970703126,4|2,1:2|1:2,0:0:0:0:
95,196,158287,2,0,L|76:101,1,95.9999970703126,8|2,0:0|1:2,0:0:0:0:
243,9,158622,2,0,P|261:41|160:81,1,143.999995605469
147,29,158958,2,0,P|94:-5|56:21,1,95.9999970703126,12|0,0:0|1:0,0:0:0:0:
187,196,159293,6,0,P|288:162|261:57,1,191.999994140625,4|8,1:0|0:1,0:0:0:0:
414,298,159796,2,0,P|325:280|310:191,1,191.999994140625,0|2,1:0|1:2,0:0:0:0:
500,58,160298,1,12,0:0:0:0:
408,199,160466,1,2,0:2:0:0:
373,0,160634,2,0,L|392:115,1,95.9999970703126,4|0,1:0|0:0,0:0:0:0:
485,229,160969,6,0,P|437:191|391:213,1,95.9999970703126,8|0,0:0|1:0,0:0:0:0:
309,190,161304,2,0,P|300:250|342:279,1,95.9999970703126,0|0,0:0|1:0,0:0:0:0:
350,362,161639,2,0,P|406:339|410:288,1,95.9999970703126,8|0,0:0|0:0,0:0:0:0:
309,190,161974,6,0,L|278:-3,1,191.999994140625,4|8,1:0|0:0,0:0:0:0:
111,218,162477,2,0,L|80:25,1,191.999994140625,0|0,1:0|1:0,0:0:0:0:
199,152,162980,2,0,L|178:17,1,95.9999970703126,8|0,0:0|0:0,0:0:0:0:
57,131,163315,5,6,1:2:0:0:
57,131,163483,1,0,0:0:0:0:
198,238,163650,1,8,0:0:0:0:
1,341,163818,2,0,P|6:290|64:275,1,95.9999970703126,0|0,1:0|1:0,0:0:0:0:
113,353,164153,5,8,0:0:0:0:
118,360,164237,1,8,0:0:0:0:
124,366,164321,2,0,L|141:302,3,47.9999985351563,8|8|4|0,0:0|0:3|0:3|1:0,0:0:0:0:
198,238,164656,6,0,P|244:239|218:352,1,191.999994140625,4|12,1:0|0:0,0:0:0:0:
226,352,165159,1,0,1:0:0:0:
334,185,165326,5,12,0:0:0:0:
384,349,165494,1,0,1:0:0:0:
469,240,165662,5,12,0:0:0:0:
308,280,165830,1,0,1:0:0:0:
354,94,165997,6,0,L|370:0,1,95.9999970703126,12|0,0:1|1:0,0:0:0:0:
427,152,166332,5,12,0:0:0:0:
268,23,166499,1,0,1:0:0:0:
268,23,166583,1,0,1:0:0:0:
268,23,166667,5,12,0:0:0:0:
233,205,166835,1,0,1:0:0:0:
167,51,167002,5,12,0:1:0:0:
354,94,167170,1,0,1:0:0:0:
233,205,167337,6,0,L|210:298,1,95.9999970703126,12|4,0:1|0:3,0:0:0:0:
256,111,167673,1,0,1:0:0:0:
102,242,167840,6,0,L|79:335,1,95.9999970703126,12|4,0:1|0:3,0:0:0:0:
125,148,168176,1,0,1:0:0:0:
8,44,168343,5,12,0:0:0:0:
132,154,168511,1,0,1:0:0:0:
15,181,168678,5,8,0:3:0:0:
135,30,168846,2,0,L|261:3,2,95.9999970703126,12|4|0,0:0|0:3|1:3,0:0:0:0:
207,104,169349,2,0,L|271:91,3,47.9999985351563,12|8|4|0,0:0|0:3|0:3|1:0,0:0:0:0:
382,5,169684,2,0,P|459:16|456:96,1,143.999995605469,12|0,1:2|0:0,0:0:0:0:
408,131,170019,6,0,L|344:114,3,44.0000013427735,4|0|0|0,1:0|3:0|3:0|3:0,0:0:0:0:
386,209,170354,2,0,L|322:192,3,44.0000013427735,0|0|0|0,1:0|3:0|3:0|3:0,0:0:0:0:
363,289,170689,2,0,L|320:277,3,44.0000013427735,2|0|0|0,1:2|3:0|3:0|3:0,0:0:0:0:
438,361,171025,2,0,L|463:256,1,88.000002685547,6|0,1:2|1:0,0:0:0:0:
476,194,171276,5,8,0:0:0:0:
476,194,171360,2,0,L|486:143,4,44.0000013427735,4|0|2|0|0,1:0|3:0|3:2|3:0|1:0,0:0:0:0:
363,289,171863,1,2,0:2:0:0:
257,216,172030,2,0,P|190:244|193:277,1,88.000002685547,6|0,1:2|3:0,0:0:0:0:
146,323,172282,1,0,3:0:0:0:
146,323,172365,2,0,P|120:356|77:355,1,88.000002685547,2|0,1:2|3:0,0:0:0:0:
21,279,172617,5,0,0:0:0:0:
21,279,172701,2,0,L|83:255,3,44.0000013427735,4|0|0|0,1:0|3:0|3:0|3:0,0:0:0:0:
13,192,173036,2,0,L|75:168,3,44.0000013427735,0|0|0|0,1:0|3:0|3:0|3:0,0:0:0:0:
0,108,173371,2,0,L|62:84,3,44.0000013427735,2|0|2|8,1:2|3:0|3:2|3:0,0:0:0:0:
114,20,173706,2,0,L|141:124,1,88.000002685547,4|2,1:2|1:2,0:0:0:0:
167,197,173958,5,8,0:0:0:0:
167,197,174041,2,0,P|209:195|231:159,1,88.000002685547,4|0,1:0|0:0,0:0:0:0:
212,21,174377,1,0,1:0:0:0:
212,21,174544,2,0,L|226:77,3,44.0000013427735,2|0|0|0,3:2|3:0|1:0|3:0,0:0:0:0:
305,30,174879,2,0,L|319:86,3,44.0000013427735,2|0|0|0,3:2|3:0|1:0|3:0,0:0:0:0:
342,157,175215,1,2,0:0:0:0:
508,15,175382,6,0,L|432:-10,3,44.0000013427735,4|0|0|0,1:0|3:0|3:0|3:0,0:0:0:0:
450,91,175717,2,0,L|374:66,3,44.0000013427735,0|0|0|0,1:0|3:0|3:0|3:0,0:0:0:0:
383,170,176053,2,0,L|307:145,4,44.0000013427735,0|0|0|0|6,1:0|3:0|3:0|3:0|1:2,0:0:0:0:
500,270,176555,5,2,1:2:0:0:
495,277,176639,1,8,0:0:0:0:
490,284,176723,2,0,L|471:197,1,88.000002685547,4|0,1:0|3:0,0:0:0:0:
450,91,177058,1,0,1:0:0:0:
391,250,177226,2,0,L|409:335,1,88.000002685547,0|0,3:0|1:0,0:0:0:0:
325,384,177477,1,0,3:0:0:0:
325,384,177561,2,0,L|306:298,1,88.000002685547,2|4,3:2|1:2,0:0:0:0:
200,216,177896,1,2,0:2:0:0:
185,346,178064,6,0,P|104:359|70:285,1,176.000005371094,4|0,1:0|1:0,0:0:0:0:
209,122,178567,2,0,P|174:196|94:182,1,176.000005371094,2|2,3:2|0:0,0:0:0:0:
27,125,178986,1,0,3:0:0:0:
27,125,179069,2,0,L|46:8,1,88.000002685547,4|0,1:2|1:0,0:0:0:0:
136,2,179321,5,8,0:0:0:0:
136,2,179405,2,0,L|121:88,1,88.000002685547,4|0,1:0|3:0,0:0:0:0:
200,216,179740,2,0,L|207:259,3,44.0000013427735,0|0|2|0,1:0|3:0|3:2|3:0,0:0:0:0:
287,171,180075,2,0,L|294:214,3,44.0000013427735,0|0|0|0,1:0|3:0|3:0|3:0,0:0:0:0:
209,122,180410,2,0,P|238:60|271:61,1,88.000002685547,4|2,1:2|0:0,0:0:0:0:
354,57,180662,5,0,3:0:0:0:
354,57,180745,2,0,B|422:70|422:70|443:98|443:98|527:122,1,176.000005371094,4|0,1:0|1:0,0:0:0:0:
503,27,181248,1,0,3:0:0:0:
374,150,181416,2,0,L|381:193,3,44.0000013427735,0|0|0|0,1:0|3:0|3:0|3:0,0:0:0:0:
477,204,181751,2,0,P|477:245|429:265,1,88.000002685547,4|0,1:2|1:0,0:0:0:0:
347,280,182002,5,8,0:0:0:0:
347,280,182086,2,0,L|329:366,1,88.000002685547,4|0,1:0|3:0,0:0:0:0:
246,259,182421,1,2,1:2:0:0:
246,259,182589,2,0,L|227:344,2,88.000002685547,2|2|2,3:2|1:2|3:2,0:0:0:0:
122,356,183092,2,0,P|99:360|67:294,1,88.000002685547,0|2,1:0|3:2,0:0:0:0:
128,219,183427,5,4,1:0:0:0:
14,186,183594,1,0,3:0:0:0:
14,186,183678,1,2,3:2:0:0:
14,186,183762,2,0,L|3:129,3,44.0000013427735,0|0|2|0,1:0|3:0|3:2|3:0,0:0:0:0:
91,117,184097,2,0,L|80:60,3,44.0000013427735,0|0|0|0,1:0|3:0|3:2|3:0,0:0:0:0:
166,26,184432,2,0,L|185:122,1,88.000002685547,6|2,1:2|1:2,0:0:0:0:
263,172,184684,1,8,0:0:0:0:
263,172,184768,6,0,L|244:268,2,88.000002685547,4|0|2,1:0|3:0|1:2,0:0:0:0:
336,271,185270,1,2,3:2:0:0:
341,277,185354,1,0,3:0:0:0:
346,283,185438,2,0,L|327:377,1,88.000002685547,4|0,1:2|3:0,0:0:0:0:
504,369,185773,2,0,L|512:325,3,44.0000013427735,0|0|0|0,1:0|3:0|3:0|3:0,0:0:0:0:
417,380,186108,6,0,L|436:274,1,88.000002685547,4|0,1:0|0:0,0:0:0:0:
509,236,186360,1,0,3:0:0:0:
509,236,186444,1,0,1:0:0:0:
388,188,186611,1,2,0:0:0:0:
512,126,186779,2,0,P|450:211|377:174,1,176.000005371094,0|0,1:0|1:2,0:0:0:0:
426,0,187282,5,0,1:0:0:0:
431,6,187365,1,8,0:0:0:0:
436,12,187449,2,0,L|412:106,1,88.000002685547,4|2,1:0|2:2,0:0:0:0:
309,135,187784,2,0,L|298:177,3,44.0000013427735,0|0|2|0,1:0|3:0|3:2|3:0,0:0:0:0:
225,86,188120,2,0,L|214:128,3,44.0000013427735,0|2|2|0,1:2|3:2|3:2|3:0,0:0:0:0:
156,17,188455,2,0,P|115:13|85:46,1,88.000002685547,2|2,1:2|0:0,0:0:0:0:
104,168,188790,6,0,P|77:82|-5:108,1,176.000005371094,4|0,1:0|1:0,0:0:0:0:
0,206,189293,1,2,3:2:0:0:
7,209,189377,1,0,3:0:0:0:
15,212,189460,2,0,L|115:183,1,88.000002685547,4|2,1:2|0:0,0:0:0:0:
139,354,189796,2,0,L|54:378,1,88.000002685547,4|2,1:0|3:2,0:0:0:0:
33,295,190047,5,0,3:0:0:0:
33,295,190131,2,0,L|117:270,1,88.000002685547,4|4,1:0|0:3,0:0:0:0:
229,156,190466,1,8,0:3:0:0:
270,143,190549,1,8,0:0:0:0:
308,162,190633,1,8,0:0:0:0:
325,202,190717,1,8,0:0:0:0:
310,242,190801,6,0,P|251:238|237:325,1,155.999992858887,4|0,0:1|0:0,0:0:0:0:
316,384,191136,1,8,0:3:0:0:
335,336,191220,1,2,0:0:0:0:
379,310,191304,1,4,0:3:0:0:
430,315,191388,1,2,0:0:0:0:
467,350,191472,6,0,P|464:292|521:265,1,95.9999970703126,6|0,1:0|0:0,0:0:0:0:
386,124,191807,1,8,0:0:0:0:
491,0,191974,2,0,B|474:70|474:70|487:107|487:107|466:200,1,191.999994140625,0|0,3:0|1:0,0:0:0:0:
310,242,192477,1,8,0:0:0:0:
463,187,192645,1,0,0:0:0:0:
389,23,192812,6,0,P|280:44|303:141,1,191.999994140625,6|8,1:0|0:0,0:0:0:0:
309,241,193315,2,0,P|285:155|196:157,1,191.999994140625,2|0,1:0|1:0,0:0:0:0:
112,229,193818,2,0,P|86:199|95:147,1,95.9999970703126,10|0,0:1|3:0,0:0:0:0:
251,28,194153,2,0,L|62:64,1,191.999994140625,4|8,1:0|0:0,0:0:0:0:
31,255,194656,6,0,L|208:287,1,143.999995605469,2|0,3:1|0:0,0:0:0:0:
182,282,194991,1,2,3:1:0:0:
35,350,195159,2,0,L|151:370,1,95.9999970703126,10|0,0:1|3:0,0:0:0:0:
273,223,195494,5,4,1:2:0:0:
348,384,195662,1,2,1:1:0:0:
257,349,195829,1,8,0:0:0:0:
342,289,195997,1,2,1:0:0:0:
465,375,196164,6,0,L|495:276,1,95.9999970703126,0|2,0:1|1:0,0:0:0:0:
367,189,196499,1,10,0:1:0:0:
502,140,196667,1,0,3:0:0:0:
308,4,196835,2,0,P|353:80|437:50,1,191.999994140625,4|8,1:0|0:0,0:0:0:0:
437,50,197337,1,0,1:0:0:0:
367,189,197505,2,0,L|233:206,2,95.9999970703126,0|0|8,0:0|1:0|0:0,0:0:0:0:
304,92,198008,5,0,1:0:0:0:
304,92,198092,1,0,1:0:0:0:
304,92,198175,2,0,P|265:28|189:57,2,143.999995605469,4|2|2,1:2|0:0|0:0,0:0:0:0:
189,237,198846,2,0,P|226:300|301:272,2,143.999995605469,2|2|2,1:1|0:0|0:0,0:0:0:0:
73,73,199516,6,0,L|132:84,1,47.9999985351563,6|2,1:0|0:0,0:0:0:0:
68,86,199684,2,0,L|194:109,1,95.9999970703126,2|8,0:1|0:0,0:0:0:0:
188,237,200019,2,0,L|-18:200,1,191.999994140625,0|2,3:0|1:2,0:0:0:0:
118,367,200522,1,10,0:0:0:0:
80,251,200689,1,2,0:0:0:0:
4,346,200857,5,6,1:0:0:0:
4,346,200941,1,0,1:0:0:0:
4,346,201025,1,0,1:0:0:0:
4,346,201108,1,0,1:0:0:0:
4,346,201192,1,8,0:0:0:0:
188,237,201360,1,4,1:2:0:0:
359,375,201695,5,0,1:0:0:0:
359,375,201779,1,0,3:0:0:0:
359,375,201863,2,0,P|391:334|366:268,1,95.9999970703126,12|0,0:1|0:0,0:0:0:0:
252,156,202198,5,6,1:0:0:0:
342,88,202365,2,0,L|361:185,1,95.9999970703126,2|10,0:0|0:0,0:0:0:0:
140,116,202701,5,2,1:0:0:0:
230,48,202868,2,0,L|249:145,1,95.9999970703126,2|2,0:0|1:2,0:0:0:0:
29,77,203203,5,10,0:1:0:0:
119,9,203370,2,0,L|138:106,1,95.9999970703126,2|4,0:0|1:2,0:0:0:0:
33,264,203706,1,2,0:1:0:0:
162,199,203874,1,8,0:0:0:0:
60,168,204041,6,0,B|73:240|73:240|59:275|59:275|79:382,1,191.999994140625,2|2,1:0|1:2,0:0:0:0:
187,381,204460,1,2,0:0:0:0:
187,381,204544,2,0,L|164:267,1,95.9999970703126,14|2,0:0|0:0,0:0:0:0:
367,222,204879,5,6,1:0:0:0:
283,153,205047,2,0,L|264:270,1,95.9999970703126,2|10,0:0|0:0,0:0:0:0:
448,302,205382,5,2,1:0:0:0:
364,233,205550,2,0,L|345:350,1,95.9999970703126,2|2,0:0|1:2,0:0:0:0:
508,183,205885,5,10,0:1:0:0:
482,79,206053,2,0,L|497:173,1,95.9999970703126,2|4,0:0|1:2,0:0:0:0:
357,0,206388,5,2,1:0:0:0:
383,119,206555,1,8,0:0:0:0:
211,8,206723,2,0,P|135:4|106:116,1,191.999994140625,2|2,1:0|1:2,0:0:0:0:
149,180,207142,1,2,0:0:0:0:
149,180,207226,1,14,0:0:0:0:
198,98,207393,1,2,0:0:0:0:
73,15,207561,5,12,0:1:0:0:
73,15,207896,5,12,0:0:0:0:
2,133,208064,1,0,1:0:0:0:
149,180,208231,2,0,L|268:207,1,95.9999970703126,12|0,0:0|1:0,0:0:0:0:
120,292,208567,2,0,L|239:319,1,95.9999970703126,14|0,0:0|1:0,0:0:0:0:
227,334,208818,5,0,1:0:0:0:
239,351,208902,2,0,L|332:329,1,95.9999970703126,12|0,0:1|1:0,0:0:0:0:
434,149,209237,1,12,0:0:0:0:
337,227,209405,1,0,1:0:0:0:
474,384,209572,2,0,L|437:270,1,95.9999970703126,12|0,0:0|1:0,0:0:0:0:
452,275,209824,1,0,1:0:0:0:
460,258,209907,2,0,L|430:166,1,95.9999970703126,12|0,0:0|1:0,0:0:0:0:
506,8,210243,5,12,0:1:0:0:
431,61,210410,1,4,0:3:0:0:
352,115,210578,1,0,1:0:0:0:
430,166,210745,5,12,0:0:0:0:
352,115,210913,1,4,0:3:0:0:
277,62,211080,1,0,1:0:0:0:
363,2,211248,5,12,0:1:0:0:
277,62,211416,1,2,0:0:0:0:
187,123,211583,1,2,0:0:0:0:
276,181,211750,5,12,0:1:0:0:
187,123,211918,1,0,1:0:0:0:
102,63,212086,1,0,1:0:0:0:
188,31,212254,5,12,0:1:0:0:
55,194,212421,1,0,1:0:0:0:
186,218,212589,5,14,0:0:0:0:
1,92,212756,1,2,0:0:0:0:
71,333,212924,6,0,B|96:221|96:221|76:167|76:167|106:45,1,279.999991455078,4|2,1:0|0:0,0:0:0:0:
197,47,214181,1,2,0:0:0:0:
197,47,214265,2,0,L|184:100,1,40,2|0,0:0|0:0,0:0:0:0:
166,165,214600,5,2,0:0:0:0:
290,339,214935,1,2,0:0:0:0:
377,144,215270,1,2,0:0:0:0:
509,341,215606,6,0,P|474:343|444:308,1,80,4|0,0:0|0:0,0:0:0:0:
439,216,216108,2,0,P|478:215|504:245,2,80,2|0|0,0:0|0:0|0:0,0:0:0:0:
362,270,216946,1,2,0:0:0:0:
466,115,217282,5,0,0:0:0:0:
390,54,217617,1,0,0:0:0:0:
476,20,217952,1,0,0:0:0:0:
377,144,218287,6,0,P|350:148|315:109,1,80,2|0,0:0|0:0,0:0:0:0:
264,30,218790,2,0,P|241:-1|202:0,2,80
168,164,219628,6,0,L|194:88,1,80,2|0,0:0|0:0,0:0:0:0:
104,53,220131,1,0,0:0:0:0:
104,53,220298,2,0,L|78:129,1,80,2|0,0:0|0:0,0:0:0:0:
11,252,220969,6,0,P|14:299|53:315,1,80,2|0,0:0|0:0,0:0:0:0:
125,343,221472,2,0,L|219:319,1,80
121,254,221974,2,0,L|167:242,1,40
275,254,222310,6,0,P|303:274|298:332,1,80,2|0,0:0|0:0,0:0:0:0:
476,311,222812,2,0,P|446:335|444:374,1,80
395,257,223315,2,0,L|405:206,1,40
512,123,223650,6,0,P|522:92|478:58,1,80,2|0,0:0|0:0,0:0:0:0:
420,0,224153,2,0,P|382:-8|355:18,1,80
318,105,224656,1,0,0:0:0:0:
318,105,224991,6,0,L|308:143,2,40,2|0|0,0:0|0:0|0:0,0:0:0:0:
263,18,225494,1,0,0:0:0:0:
178,67,225662,2,0,L|167:113,2,47.9999985351563
178,67,226332,6,0,P|139:29|86:41,1,111.999996582031,4|2,1:2|0:0,0:0:0:0:
17,118,226835,1,0,0:0:0:0:
17,118,227002,2,0,L|25:193,1,55.9999982910157,2|0,0:3|0:0,0:0:0:0:
120,187,227337,2,0,L|114:131,1,55.9999982910157,2|0,0:0|0:0,0:0:0:0:
50,263,227673,6,0,P|65:319|112:324,1,111.999996582031,2|2,0:0|0:0,0:0:0:0:
112,323,228175,1,2,0:0:0:0:
230,240,228343,2,0,P|281:249|292:300,1,111.999996582031,2|2,0:3|0:0,0:0:0:0:
200,361,229013,6,0,L|228:232,1,111.999996582031,4|2,1:2|0:0,0:0:0:0:
247,143,229516,2,0,L|275:14,2,111.999996582031
316,218,230354,6,0,P|355:234|400:186,1,111.999996582031,2|2,0:0|0:0,0:0:0:0:
400,184,230857,1,2,0:0:0:0:
369,34,231025,2,0,L|354:109,1,55.9999982910157,2|0,0:3|0:0,0:0:0:0:
460,47,231360,2,0,L|445:122,1,55.9999982910157,2|0,0:0|0:0,0:0:0:0:
499,235,231695,6,0,P|512:294|471:321,1,111.999996582031,4|2,1:2|0:0,0:0:0:0:
364,354,232198,2,0,P|351:295|392:268,1,111.999996582031
475,320,232701,2,0,L|463:387,1,55.9999982910157,2|0,0:0|0:0,0:0:0:0:
308,293,233036,6,0,P|247:296|222:350,1,111.999996582031,2|2,0:0|0:0,0:0:0:0:
75,201,233706,2,0,P|136:204|161:258,1,111.999996582031,2|0,0:3|0:1,0:0:0:0:
67,360,234377,1,2,0:0:0:0:
67,360,236053,6,0,L|82:285,2,64,2|0|0,0:0|0:0|0:0,0:0:0:0:
67,360,237058,6,0,B|84:282|84:282|111:257|111:257|134:165,1,191.999994140625,4|8,1:0|0:1,0:0:0:0:
0,89,237561,2,0,P|9:155|54:163,1,95.9999970703126,0|0,1:0|0:0,0:0:0:0:
225,184,237896,2,0,P|216:118|171:110,1,95.9999970703126,0|8,1:0|0:0,0:0:0:0:
92,45,238231,2,0,P|181:74|227:-7,1,191.999994140625,0|0,1:0|0:0,0:0:0:0:
484,0,238734,6,0,P|492:59|442:80,1,95.9999970703126,8|2,0:0|1:2,0:0:0:0:
501,167,239069,2,0,P|448:194|411:154,1,95.9999970703126,0|0,0:0|1:0,0:0:0:0:
359,264,239405,2,0,P|314:223|339:175,1,95.9999970703126,10|0,0:2|0:0,0:0:0:0:
381,19,239740,2,0,B|365:91|365:91|333:123|333:123|316:219,1,191.999994140625,4|8,1:0|0:0,0:0:0:0:
127,270,240243,2,0,L|146:160,1,95.9999970703126,0|0,1:0|0:0,0:0:0:0:
189,347,240578,1,0,1:0:0:0:
38,252,240745,2,0,L|55:147,1,95.9999970703126,8|0,0:0|0:0,0:0:0:0:
189,347,241081,6,0,P|259:360|281:275,1,143.999995605469,0|0,1:2|0:0,0:0:0:0:
226,235,241416,2,0,P|217:192|255:148,1,95.9999970703126,8|2,0:0|1:2,0:0:0:0:
469,178,241751,2,0,L|320:219,1,143.999995605469
381,293,242086,2,0,L|476:268,1,95.9999970703126,12|0,0:2|1:0,0:0:0:0:
245,152,242421,6,0,P|263:66|370:83,1,191.999994140625,4|8,1:0|0:0,0:0:0:0:
469,178,242924,2,0,P|451:92|345:103,1,191.999994140625,0|0,1:0|1:0,0:0:0:0:
330,216,243427,1,8,0:1:0:0:
474,69,243594,1,0,0:0:0:0:
240,40,243762,6,0,B|158:25|158:25|126:37|126:37|18:20,1,191.999994140625,4|8,1:2|0:0,0:0:0:0:
245,152,244265,2,0,P|245:212|149:204,1,143.999995605469,2|0,1:2|0:0,0:0:0:0:
93,195,244600,2,0,P|116:146|167:143,1,95.9999970703126,0|12,1:2|0:0,0:0:0:0:
268,242,244935,1,2,0:0:0:0:
188,327,245103,6,0,L|-8:287,1,191.999994140625,2|8,1:2|0:0,0:0:0:0:
78,384,245606,2,0,L|97:290,1,95.9999970703126,2|0,1:2|0:0,0:0:0:0:
173,230,245941,1,0,1:2:0:0:
287,371,246108,2,0,P|365:371|353:282,1,143.999995605469,8|2,0:1|0:0,0:0:0:0:
314,252,246444,6,0,L|264:241,4,47.9999985351563,2|0|2|2|10,1:2|0:0|0:0|0:0|0:0,0:0:0:0:
478,300,246946,1,6,1:0:0:0:
340,163,247114,2,0,P|311:122|345:78,1,95.9999970703126,0|0,0:0|1:0,0:0:0:0:
413,26,247365,1,0,1:0:0:0:
413,26,247449,2,0,L|505:0,1,95.9999970703126,12|0,0:0|1:0,0:0:0:0:
481,187,247784,6,0,B|498:108|498:108|489:73|489:73|508:-14,1,191.999994140625,4|8,1:0|0:1,0:0:0:0:
408,110,248287,2,0,P|340:103|330:46,1,95.9999970703126,0|0,1:0|0:0,0:0:0:0:
279,0,248622,1,0,1:0:0:0:
399,16,248790,1,8,0:0:0:0:
222,152,248958,2,0,P|152:154|152:37,1,191.999994140625,0|0,1:0|0:0,0:0:0:0:
279,0,249460,6,0,P|226:39|226:68,1,95.9999970703126,8|2,0:0|1:2,0:0:0:0:
48,54,249796,2,0,P|66:117|93:127,1,95.9999970703126,0|0,0:0|1:0,0:0:0:0:
19,261,250131,2,0,P|84:265|103:242,1,95.9999970703126,8|0,0:1|0:0,0:0:0:0:
222,152,250466,6,0,L|180:353,1,191.999994140625,4|8,1:0|0:0,0:0:0:0:
312,170,250969,2,0,L|270:371,1,191.999994140625,0|0,1:0|1:0,0:0:0:0:
410,207,251472,1,8,0:0:0:0:
323,267,251639,1,0,0:0:0:0:
455,377,251807,6,0,P|417:322|437:296,1,95.9999970703126,2|0,1:2|0:0,0:0:0:0:
511,205,252142,2,0,P|518:160|482:132,1,95.9999970703126,8|2,0:0|1:2,0:0:0:0:
279,73,252477,2,0,P|345:135|397:92,1,143.999995605469
441,51,252812,2,0,P|397:21|345:43,1,95.9999970703126,8|0,0:1|1:0,0:0:0:0:
213,182,253148,6,0,B|130:169|130:169|97:180|97:180|24:168,1,191.999994140625,4|8,1:0|0:1,0:0:0:0:
189,62,253650,2,0,B|106:49|106:49|73:60|73:60|0:48,1,191.999994140625,0|0,1:0|1:1,0:0:0:0:
127,201,254153,1,8,0:1:0:0:
279,73,254321,1,0,0:0:0:0:
117,213,254488,2,0,L|133:322,1,95.9999970703126,4|0,1:0|0:0,0:0:0:0:
363,381,254824,6,0,P|324:339|263:371,1,95.9999970703126,8|0,0:0|1:0,0:0:0:0:
357,171,255159,2,0,P|304:193|313:261,1,95.9999970703126,0|0,0:0|1:0,0:0:0:0:
189,62,255494,2,0,P|191:119|259:133,1,95.9999970703126,8|0,0:0|0:0,0:0:0:0:
466,33,255829,6,0,L|244:80,1,191.999994140625,4|8,1:2|0:0,0:0:0:0:
483,186,256332,2,0,L|261:233,1,191.999994140625,0|0,1:0|1:0,0:0:0:0:
367,78,256835,2,0,L|386:172,1,95.9999970703126,8|0,0:0|0:0,0:0:0:0:
428,350,257170,5,6,1:2:0:0:
428,350,257337,1,2,0:0:0:0:
496,285,257505,1,10,0:0:0:0:
404,250,257673,1,0,1:0:0:0:
506,289,257840,1,0,1:0:0:0:
331,321,258008,5,8,0:0:0:0:
331,321,258092,1,8,0:0:0:0:
331,321,258175,2,0,L|247:335,1,47.9999985351563,4|4,0:3|0:3,0:0:0:0:
192,341,258343,2,0,L|108:355,1,47.9999985351563,4|0,0:3|1:0,0:0:0:0:
0,262,258511,6,0,P|12:187|125:196,1,191.999994140625,4|12,1:0|0:0,0:0:0:0:
112,181,259013,1,0,1:0:0:0:
192,341,259181,5,12,0:0:0:0:
92,273,259349,1,0,1:0:0:0:
295,174,259516,5,12,0:0:0:0:
195,242,259684,1,0,1:0:0:0:
25,138,259851,6,0,L|47:42,1,95.9999970703126,12|0,0:1|1:0,0:0:0:0:
206,137,260187,5,12,0:0:0:0:
235,0,260354,1,0,1:0:0:0:
46,44,260522,5,12,0:0:0:0:
294,82,260689,1,0,1:0:0:0:
150,56,260857,5,12,0:1:0:0:
304,182,261025,1,0,1:0:0:0:
304,182,261108,1,0,1:0:0:0:
304,182,261192,5,12,0:1:0:0:
195,242,261360,2,0,L|212:339,1,95.9999970703126,4|0,0:3|1:0,0:0:0:0:
444,224,261695,5,12,0:1:0:0:
327,290,261863,2,0,L|344:387,1,95.9999970703126,4|0,0:3|1:0,0:0:0:0:
304,182,262198,5,12,0:0:0:0:
449,327,262365,1,0,1:0:0:0:
512,119,262533,6,0,P|516:50|384:41,1,215.999993408203,4|0,1:0|0:0,0:0:0:0:
304,182,263203,2,0,P|381:187|397:109,1,143.999995605469,0|0,0:0|0:1,0:0:0:0:
282,0,263706,5,0,1:0:0:0:
292,2,263790,1,0,1:0:0:0:
301,4,263874,2,0,L|327:116,1,95.9999970703126,12|4,0:1|0:3,0:0:0:0:
364,225,264209,1,0,1:0:0:0:
196,38,264377,2,0,L|222:150,1,95.9999970703126,12|0,0:1|1:0,0:0:0:0:
259,259,264712,1,0,1:0:0:0:
97,64,264879,2,0,L|138:234,1,143.999995605469,12|0,0:0|1:0,0:0:0:0:
38,207,265215,6,0,L|14:109,1,95.9999970703126,12|4,0:1|0:3,0:0:0:0:
171,284,265550,2,0,P|171:334|120:352,1,95.9999970703126,0|8,1:0|0:1,0:0:0:0:
1,276,265885,2,0,P|1:226|52:208,1,95.9999970703126,0|0,1:0|1:0,0:0:0:0:
259,261,266220,5,12,0:0:0:0:
89,278,266388,1,0,1:0:0:0:
268,360,266555,6,0,L|370:387,1,95.9999970703126,12|4,0:1|0:3,0:0:0:0:
468,323,266891,1,0,1:0:0:0:
259,261,267058,6,0,L|361:288,1,95.9999970703126,12|4,0:0|0:3,0:0:0:0:
459,224,267394,1,0,1:0:0:0:
284,87,267561,2,0,P|311:163|380:133,1,143.999995605469,12|0,0:0|1:0,0:0:0:0:
368,151,267896,6,0,L|392:58,1,95.9999970703126,12|0,0:1|1:1,0:0:0:0:
459,224,268231,2,0,L|483:131,1,95.9999970703126,0|8,1:0|0:1,0:0:0:0:
276,7,268567,2,0,P|218:25|215:77,1,95.9999970703126,0|0,1:0|1:0,0:0:0:0:
176,150,268902,2,0,P|154:191|109:196,1,95.9999970703126,12|0,0:1|1:0,0:0:0:0:
13,91,269237,6,0,B|21:153|21:153|11:183|11:183|26:264,3,160,4|0|0|0,1:0|1:0|1:0|1:0,0:0:0:0:
107,94,270410,5,2,0:0:0:0:
107,94,270494,1,2,0:0:0:0:
107,94,270578,2,0,L|95:0,1,80,6|2,1:2|0:0,0:0:0:0:
12,90,270913,2,0,L|23:170,1,80,0|2,1:0|0:0,0:0:0:0:
117,286,271248,1,2,1:2:0:0:
117,286,271416,1,0,0:0:0:0:
44,350,271583,1,2,1:2:0:0:
44,350,271751,1,2,0:0:0:0:
119,189,271918,5,12,0:1:0:0:
119,189,272254,5,8,0:0:0:0:
215,291,272422,1,8,0:0:0:0:
241,164,272589,5,8,0:0:0:0:
117,286,272756,1,8,0:0:0:0:
306,238,272924,5,8,0:0:0:0:
119,189,273092,1,8,0:0:0:0:
263,76,273259,5,12,0:1:0:0:
215,291,273427,1,8,0:0:0:0:
382,145,273594,5,8,0:0:0:0:
313,342,273762,1,8,0:0:0:0:
319,352,273846,1,8,0:0:0:0:
326,361,273930,6,0,P|368:369|401:334,1,80,12|4,0:0|0:3,0:0:0:0:
472,278,274181,1,0,1:0:0:0:
472,278,274265,2,0,P|480:236|445:203,1,80,0|2,1:0|0:0,0:0:0:0:
382,145,274516,1,2,0:0:0:0:
382,145,274600,1,4,1:0:0:0:
256,192,274684,12,0,279963,0:0:0:0:
