osu file format v14

[General]
AudioFilename: audio.mp3
AudioLeadIn: 0
PreviewTime: 214619
Countdown: 0
SampleSet: Soft
StackLeniency: 0.5
Mode: 0
LetterboxInBreaks: 0
WidescreenStoryboard: 0

[Editor]
Bookmarks: 11771,17134,25174,46626,65397,86850,92213,97576,102939,113665,135118,143162,164615,169978,191431,212883,215565,226291,234336,237017,258470,263833,269196,274559,279922
DistanceSpacing: 1.2
BeatDivisor: 4
GridSize: 32
TimelineZoom: 2.599999

[Metadata]
Title:Rinne
TitleUnicode:輪廻
Artist:Yamamoto Mineko
ArtistUnicode:山本美禰子
Creator:Cami
Version:Eternal Star
Source:さくら、もゆ。-as the Night's, Reincarnation-
Tags:eroge visual novel winter favorite sakura, moyu. opening 2 op2 lolis japanese video game
BeatmapID:2098357
BeatmapSetID:1002494

[Difficulty]
HPDrainRate:6
CircleSize:4.2
OverallDifficulty:8
ApproachRate:8.8
SliderMultiplier:1.25
SliderTickRate:1

[Events]
//Background and Video events
0,0,"0269_HARU_e106c1.png.jpg",0,0
//Break Periods
2,215825,225345
2,234396,236072
//Storyboard Layer 0 (Background)
//Storyboard Layer 1 (Fail)
//Storyboard Layer 2 (Pass)
//Storyboard Layer 3 (Foreground)
//Storyboard Layer 4 (Overlay)
//Storyboard Sound Samples

[TimingPoints]
1100,335.195530726257,4,2,1,40,1,0
1100,-200,4,2,1,40,0,0
11826,-142.857142857143,4,2,1,40,0,0
17021,-142.857142857143,4,2,1,65,0,0
17189,-83.3333333333333,4,2,1,65,0,0
22552,-200,4,2,1,40,0,0
25234,-142.857142857143,4,2,1,40,0,0
43921,-142.857142857143,4,2,1,5,0,0
44005,-125,4,2,1,40,0,0
46686,-133.333333333333,4,2,1,50,0,0
57077,-100,4,2,1,50,0,0
57412,-100,4,2,1,60,0,0
64200,-100,4,2,1,5,0,0
64284,-100,4,2,1,50,0,0
65122,-71.4285714285714,4,2,1,50,0,0
65373,-71.4285714285714,4,2,1,5,0,0
65457,-86.9565217391304,4,2,1,70,0,1
67049,-86.9565217391304,4,2,1,5,0,1
67133,-86.9565217391304,4,2,1,70,0,1
68390,-86.9565217391304,4,2,1,5,0,1
68474,-86.9565217391304,4,2,1,70,0,1
71072,-86.9565217391304,4,2,1,5,0,1
71155,-86.9565217391304,4,2,1,70,0,1
72412,-86.9565217391304,4,2,1,5,0,1
72496,-86.9565217391304,4,2,1,70,0,1
74759,-86.9565217391304,4,2,1,5,0,1
74843,-86.9565217391304,4,2,1,70,0,1
75262,-86.9565217391304,4,2,1,5,0,1
75345,-86.9565217391304,4,2,1,70,0,1
75848,-76.9230769230769,4,2,1,70,0,1
76100,-86.9565217391304,4,2,1,5,0,1
76183,-86.9565217391304,4,2,1,70,0,1
76435,-86.9565217391304,4,2,1,5,0,1
76518,-86.9565217391304,4,2,1,70,0,1
77775,-86.9565217391304,4,2,1,5,0,1
77859,-86.9565217391304,4,2,1,70,0,1
79116,-86.9565217391304,4,2,1,5,0,1
79200,-86.9565217391304,4,2,1,70,0,1
81798,-86.9565217391304,4,2,1,5,0,1
81882,-86.9565217391304,4,2,1,70,0,1
83139,-86.9565217391304,4,2,1,5,0,1
83222,-86.9565217391304,4,2,1,70,0,1
84144,-86.9565217391304,4,2,1,5,0,1
84228,-86.9565217391304,4,2,1,70,0,1
85485,-86.9565217391304,4,2,1,5,0,1
85569,-86.9565217391304,4,2,1,70,0,1
87161,-86.9565217391304,4,2,1,5,0,1
87245,-86.9565217391304,4,2,1,70,0,1
88502,-86.9565217391304,4,2,1,5,0,1
88586,-86.9565217391304,4,2,1,70,0,1
90932,-166.666666666667,4,2,1,60,0,0
92273,-90.909090909091,4,2,1,60,0,0
93865,-90.909090909091,4,2,1,5,0,0
93949,-90.909090909091,4,2,1,60,0,0
97552,-90.909090909091,4,2,1,5,0,0
97636,-125,4,2,1,50,0,0
98809,-111.111111111111,4,2,1,50,0,0
101323,-111.111111111111,4,2,1,60,0,0
102329,-111.111111111111,4,2,1,50,0,0
102999,-111.111111111111,4,2,1,45,0,0
113725,-99.9999999999999,4,2,1,50,0,0
119005,-99.9999999999999,4,2,1,5,0,0
119088,-99.9999999999999,4,2,1,50,0,0
120681,-99.9999999999999,4,2,1,5,0,0
120764,-99.9999999999999,4,2,1,50,0,0
122943,-111.111111111111,4,2,1,50,0,0
124451,-133.333333333333,4,2,1,40,0,0
134843,-100,4,2,1,50,0,0
135932,-100,4,2,1,5,0,0
136016,-100,4,2,1,50,0,0
138111,-100,4,2,1,5,0,0
138194,-100,4,2,1,50,0,0
141965,-100,4,2,1,5,0,0
142049,-100,4,2,1,50,0,0
143222,-86.9565217391304,4,2,1,70,0,1
144815,-86.9565217391304,4,2,1,5,0,1
144898,-86.9565217391304,4,2,1,70,0,1
146155,-86.9565217391304,4,2,1,5,0,1
146239,-86.9565217391304,4,2,1,70,0,1
148837,-86.9565217391304,4,2,1,5,0,1
148921,-86.9565217391304,4,2,1,70,0,1
150178,-86.9565217391304,4,2,1,5,0,1
150262,-86.9565217391304,4,2,1,70,0,1
152524,-86.9565217391304,4,2,1,5,0,1
152608,-86.9565217391304,4,2,1,70,0,1
153027,-86.9565217391304,4,2,1,5,0,1
153111,-86.9565217391304,4,2,1,70,0,1
153613,-76.9230769230769,4,2,1,70,0,1
153865,-86.9565217391304,4,2,1,5,0,1
153949,-86.9565217391304,4,2,1,70,0,1
154200,-86.9565217391304,4,2,1,5,0,1
154284,-86.9565217391304,4,2,1,70,0,1
155541,-86.9565217391304,4,2,1,5,0,1
155625,-86.9565217391304,4,2,1,70,0,1
156882,-86.9565217391304,4,2,1,5,0,1
156965,-86.9565217391304,4,2,1,70,0,1
159563,-86.9565217391304,4,2,1,5,0,1
159647,-86.9565217391304,4,2,1,70,0,1
160904,-86.9565217391304,4,2,1,5,0,1
160988,-86.9565217391304,4,2,1,70,0,1
161910,-86.9565217391304,4,2,1,5,0,1
161993,-86.9565217391304,4,2,1,70,0,1
164926,-86.9565217391304,4,2,1,5,0,1
165010,-86.9565217391304,4,2,1,70,0,1
166267,-86.9565217391304,4,2,1,5,0,1
166351,-86.9565217391304,4,2,1,70,0,1
169116,-86.9565217391304,4,2,1,5,0,1
169200,-86.9565217391304,4,2,1,70,0,1
169954,-86.9565217391304,4,2,1,5,0,1
170038,-100,4,2,1,60,0,0
190820,-71.4285714285714,4,2,1,60,0,0
191491,-83.3333333333333,4,2,1,70,0,0
194926,-83.3333333333333,4,2,1,70,0,0
195010,-83.3333333333333,4,2,1,70,0,0
200289,-83.3333333333333,4,2,1,70,0,0
200373,-83.3333333333333,4,2,1,70,0,0
201714,-71.4285714285714,4,2,1,70,0,0
202133,-83.3333333333333,4,2,1,70,0,0
202217,-71.4285714285714,4,2,1,70,0,0
207580,-62.5,4,2,1,70,0,0
208250,-71.4285714285714,4,2,1,70,0,0
212943,-166.666666666667,4,2,1,60,0,0
214619,-166.666666666667,4,2,1,35,0,0
226686,-166.666666666667,4,2,0,35,0,0
237077,-86.9565217391304,4,2,1,70,0,1
238669,-86.9565217391304,4,2,1,5,0,1
238753,-86.9565217391304,4,2,1,70,0,1
240010,-86.9565217391304,4,2,1,5,0,1
240094,-86.9565217391304,4,2,1,70,0,1
242692,-86.9565217391304,4,2,1,5,0,1
242775,-86.9565217391304,4,2,1,70,0,1
244032,-86.9565217391304,4,2,1,5,0,1
244116,-86.9565217391304,4,2,1,70,0,1
246379,-100,4,2,1,5,0,1
246463,-86.9565217391304,4,2,1,70,0,1
246714,-86.9565217391304,4,2,1,5,0,1
246798,-86.9565217391304,4,2,1,70,0,1
247468,-76.9230769230769,4,2,1,70,0,1
247720,-86.9565217391304,4,2,1,5,0,1
247803,-86.9565217391304,4,2,1,70,0,1
248055,-86.9565217391304,4,2,1,5,0,1
248139,-86.9565217391304,4,2,1,70,0,1
249396,-86.9565217391304,4,2,1,5,0,1
249479,-86.9565217391304,4,2,1,70,0,1
250401,-86.9565217391304,4,2,1,5,0,1
250485,-86.9565217391304,4,2,1,70,0,1
250736,-86.9565217391304,4,2,1,5,0,1
250820,-86.9565217391304,4,2,1,70,0,1
253418,-86.9565217391304,4,2,1,5,0,1
253502,-86.9565217391304,4,2,1,70,0,1
254759,-86.9565217391304,4,2,1,5,0,1
254843,-86.9565217391304,4,2,1,70,0,1
255764,-86.9565217391304,4,2,1,5,0,1
255848,-86.9565217391304,4,2,1,70,0,1
258781,-86.9565217391304,4,2,1,5,0,1
258865,-86.9565217391304,4,2,1,70,0,1
260122,-86.9565217391304,4,2,1,5,0,1
260206,-86.9565217391304,4,2,1,70,0,1
261965,-86.9565217391304,4,2,1,5,0,1
262049,-86.9565217391304,4,2,1,70,0,1
262552,-250,4,2,1,60,0,0
263893,-90.9090909090909,4,2,1,60,0,0
265485,-90.9090909090909,4,2,1,5,0,0
265569,-90.9090909090909,4,2,1,60,0,0
269172,-90.9090909090909,4,2,1,5,0,0
269256,-125,4,2,1,50,0,0
270597,-111.111111111111,4,2,1,50,0,0
273278,-111.111111111111,4,2,1,60,0,0
273949,-111.111111111111,4,2,1,40,0,0
274619,-111.111111111111,4,2,1,55,0,0
274954,-100,4,2,1,45,0,0
275625,-100,4,2,1,40,0,0
276295,-100,4,2,1,35,0,0
276965,-100,4,2,1,30,0,0
277636,-100,4,2,1,25,0,0
278306,-100,4,2,1,20,0,0
278977,-100,4,2,1,15,0,0
279647,-100,4,2,1,10,0,0
279982,-100,4,2,1,5,0,0

[Colours]
Combo1 : 223,134,225
Combo2 : 218,222,146
Combo3 : 126,182,205
Combo4 : 252,207,116

[HitObjects]
2,344,1100,5,2,0:0:0:0:
53,289,1435,2,0,L|94:283,1,31.25,0|2,0:0|0:0,0:0:0:0:
148,322,1937,1,2,0:0:0:0:
209,279,2273,2,0,P|219:229|202:192,1,93.75,2|0,0:0|0:0,0:0:0:0:
170,170,2943,1,2,0:0:0:0:
170,170,3446,5,2,0:0:0:0:
219,113,3781,1,2,0:0:0:0:
289,138,4116,2,0,L|331:141,1,31.25,0|2,0:0|0:0,0:0:0:0:
384,178,4619,2,0,L|453:170,1,62.5,2|2,0:0|0:0,0:0:0:0:
476,149,5122,6,0,P|459:185|450:280,1,125,0|2,0:0|0:0,0:0:0:0:
293,360,6463,5,2,0:0:0:0:
235,311,6798,2,0,L|224:267,1,31.25,0|2,0:0|0:0,0:0:0:0:
98,127,7468,5,2,0:0:0:0:
45,180,7803,1,2,0:0:0:0:
84,243,8139,2,0,L|121:247,1,31.25,0|2,0:0|0:0,0:0:0:0:
226,259,8809,1,2,0:0:0:0:
278,205,9144,6,0,L|266:132,1,62.5,2|0,0:0|0:0,0:0:0:0:
258,106,9647,1,2,0:0:0:0:
237,33,9982,1,2,0:0:0:0:
184,86,10317,6,0,L|112:82,1,62.5,2|2,0:0|0:0,0:0:0:0:
56,120,10988,2,0,P|46:93|53:53,1,62.5,2|0,0:0|0:0,0:0:0:0:
68,27,11491,1,2,0:0:0:0:
56,236,11826,6,0,P|100:231|146:224,1,87.499997329712,4|2,0:1|0:3,0:0:0:0:
201,174,12329,1,2,0:0:0:0:
201,174,12664,2,0,P|197:147|194:125,1,43.749998664856,2|2,0:0|0:0,0:0:0:0:
278,212,12999,6,0,P|288:152|293:123,1,87.499997329712,2|2,0:0|0:3,0:0:0:0:
292,125,13502,1,2,0:0:0:0:
361,175,13669,2,0,P|413:176|457:182,1,87.499997329712,2|0,0:0|0:0,0:0:0:0:
498,240,14172,1,2,0:0:0:0:
498,240,14507,6,0,L|487:326,1,87.499997329712,2|2,0:0|0:0,0:0:0:0:
423,368,15010,1,2,0:0:0:0:
323,256,15345,1,2,0:0:0:0:
197,342,15681,2,0,P|164:347|138:353,1,43.749998664856,2|2,0:0|0:3,0:0:0:0:
87,314,16016,1,2,0:3:0:0:
87,314,16183,2,0,P|82:276|77:253,2,43.749998664856,2|2|2,0:0|0:0|0:0,0:0:0:0:
364,81,17021,5,0,1:0:0:0:
364,81,17105,1,0,1:0:0:0:
364,81,17189,2,0,B|298:87|298:87|283:81|283:81|204:88,1,149.999995422363,4|0,1:2|1:0,0:0:0:0:
86,189,17692,2,0,B|96:208|119:211|119:211|163:177|130:100,1,149.999995422363,12|0,1:2|1:0,0:0:0:0:
271,173,18194,2,0,P|263:205|256:251,1,74.9999977111817,14|0,0:0|1:0,0:0:0:0:
433,204,18530,6,0,B|400:188|400:188|347:196,1,74.9999977111817,14|0,0:0|1:0,0:0:0:0:
256,246,18865,1,2,1:2:0:0:
379,360,19032,1,12,0:0:0:0:
251,321,19200,2,0,L|257:240,1,74.9999977111817,2|0,1:2|1:0,0:0:0:0:
166,98,19535,2,0,P|172:139|175:175,1,74.9999977111817,14|0,0:0|1:0,0:0:0:0:
20,315,19870,6,0,B|63:295|96:321|83:324|107:349|162:332,1,149.999995422363,6|0,1:2|1:0,0:0:0:0:
271,173,20373,1,14,0:0:0:0:
271,173,20541,2,0,L|186:188,1,74.9999977111817,2|0,1:2|0:0,1:0:0:0:
88,90,20876,2,0,B|97:155|97:155|91:172|91:172|102:255,1,149.999995422363,12|0,0:0|1:0,0:0:0:0:
251,321,21379,2,0,P|301:322|335:232,1,149.999995422363,12|0,0:0|1:0,0:0:0:0:
480,115,21882,6,0,P|474:185|475:218,1,74.9999977111817,14|0,0:0|1:0,0:0:0:0:
271,173,22217,2,0,P|277:103|276:70,1,74.9999977111817,14|0,0:0|1:0,0:0:0:0:
394,63,22552,6,0,B|421:62|432:40|414:13|372:10|335:32|337:104|409:103|378:179,1,218.75,6|2,1:2|0:3,0:0:0:0:
381,167,23809,1,2,0:3:0:0:
381,167,23893,1,2,0:3:0:0:
256,192,23977,12,4,24898,0:3:0:0:
94,349,25234,6,0,B|136:371|186:359|164:345|231:330|276:356,1,174.999994659424,4|0,0:1|0:0,0:0:0:0:
265,351,26239,2,0,P|255:313|249:293,1,43.749998664856,2|0,0:0|0:0,0:0:0:0:
321,255,26574,6,0,P|332:196|348:116,1,131.249995994568,2|2,0:0|0:0,0:0:0:0:
345,126,27580,1,2,0:0:0:0:
422,192,27748,1,2,1:2:0:0:
422,192,27915,6,0,P|410:234|429:272,1,87.499997329712,2|0,1:2|0:0,0:0:0:0:
421,353,28418,2,0,L|508:344,2,87.499997329712,2|2|0,0:0|0:0|0:0,0:0:0:0:
343,358,29256,5,2,0:0:0:0:
308,232,29759,1,0,1:0:0:0:
308,232,29926,2,0,P|260:228|205:221,1,87.499997329712,2|2,0:0|0:0,0:0:0:0:
159,266,30429,1,2,1:2:0:0:
159,266,30597,6,0,P|194:218|157:114,1,174.999994659424,2|0,1:2|0:0,0:0:0:0:
160,116,31602,2,0,P|129:122|111:129,1,43.749998664856,2|0,0:0|0:0,0:0:0:0:
67,193,31937,6,0,P|116:201|200:224,1,131.249995994568,2|2,0:0|0:0,0:0:0:0:
198,226,32775,1,0,1:0:0:0:
198,226,32943,2,0,L|186:172,1,43.749998664856,2|0,0:0|1:0,0:0:0:0:
227,116,33278,6,0,P|257:104|308:135,1,87.499997329712,2|0,1:2|0:0,0:0:0:0:
326,202,33781,2,0,L|335:141,1,43.749998664856,2|0,0:0|0:0,0:0:0:0:
401,66,34116,2,0,L|412:117,1,43.749998664856,2|0,0:0|0:0,0:0:0:0:
410,108,34619,6,0,P|440:99|455:96,1,43.749998664856,2|0,0:0|0:0,0:0:0:0:
511,153,34954,1,2,0:0:0:0:
511,153,35122,1,2,1:2:0:0:
448,202,35289,2,0,P|441:222|438:244,1,43.749998664856,2|0,0:0|1:0,0:0:0:0:
343,320,35625,2,0,P|336:300|324:280,1,43.749998664856,2|0,0:0|0:0,0:0:0:0:
251,238,35960,6,0,B|210:244|168:203|178:199|146:164|89:171,1,174.999994659424,2|0,1:2|0:0,0:0:0:0:
95,170,36965,2,0,L|86:222,1,43.749998664856,2|0,0:0|0:0,0:0:0:0:
17,246,37301,6,0,P|27:315|31:378,1,131.249995994568,2|2,1:2|0:0,0:0:0:0:
30,376,38306,2,0,P|67:365|89:362,1,43.749998664856,2|0,0:0|0:0,0:0:0:0:
153,307,38641,6,0,P|191:316|250:293,1,87.499997329712,2|2,1:2|0:0,0:0:0:0:
237,304,39144,2,0,L|230:352,1,43.749998664856,2|0,0:0|0:0,0:0:0:0:
327,250,39479,2,0,L|320:203,1,43.749998664856,2|0,0:0|0:0,0:0:0:0:
425,273,39815,1,2,1:2:0:0:
425,273,39982,6,0,P|468:269|512:267,1,87.499997329712,2|2,1:2|0:0,0:0:0:0:
512,266,40485,1,0,1:0:0:0:
480,341,40653,1,2,0:0:0:0:
490,194,40988,1,2,1:2:0:0:
392,108,41323,6,0,B|345:89|299:113|309:118|261:150|210:128,1,174.999994659424,2|0,1:2|0:0,0:0:0:0:
225,133,42329,2,0,P|233:172|236:188,1,43.749998664856,2|0,0:0|0:0,0:0:0:0:
165,223,42664,6,0,P|147:180|62:201,1,131.249995994568,2|2,1:2|0:0,0:0:0:0:
60,323,43502,1,2,0:0:0:0:
127,364,43669,6,0,P|173:356|206:355,1,65.624997997284,2|0,0:3|0:0,0:0:0:0:
218,338,44005,6,0,L|226:275,1,50,2|0,1:2|0:0,0:0:0:0:
334,256,44340,2,0,L|327:305,1,50,0|0,1:0|0:0,0:0:0:0:
234,203,44675,2,0,L|240:153,1,50,0|0,1:0|0:0,0:0:0:0:
348,148,45010,1,2,1:2:0:0:
203,56,45178,6,0,P|177:51|140:48,1,50,10|0,0:0|1:0,0:0:0:0:
90,109,45513,1,2,0:3:0:0:
90,109,45681,2,0,L|96:167,1,50,2|8,1:3|0:3,0:0:0:0:
157,213,46016,2,0,P|147:247|139:282,1,50,2|8,1:3|0:3,0:0:0:0:
174,335,46351,1,4,1:3:0:0:
174,335,46518,1,2,0:0:0:0:
303,317,46686,6,0,B|331:303|347:273|347:273|299:220|224:233,1,187.500007152558,4|0,1:0|1:0,0:0:0:0:
236,232,47692,2,0,P|229:197|230:176,1,46.8750017881394,2|0,1:2|0:0,0:0:0:0:
246,108,48027,6,0,P|259:63|186:63,1,140.625005364418,2|2,1:2|0:0,0:0:0:0:
116,225,49032,2,0,P|122:249|127:279,1,46.8750017881394,2|0,1:2|0:0,0:0:0:0:
71,340,49368,6,0,L|174:351,1,93.7500035762788,2|0,1:2|1:0,0:0:0:0:
238,324,49870,2,0,P|265:313|284:301,1,46.8750017881394,2|0,0:0|1:0,0:0:0:0:
379,255,50206,2,0,L|369:348,1,93.7500035762788,2|0,0:0|0:0,0:0:0:0:
303,228,50708,6,0,P|297:185|381:190,1,140.625005364418,2|2,1:2|0:0,0:0:0:0:
422,307,51546,1,2,0:3:0:0:
422,307,51714,2,0,P|387:304|358:302,1,46.8750017881394,2|0,1:2|0:0,0:0:0:0:
289,342,52049,6,0,P|259:359|193:338,1,93.7500035762788,2|0,1:2|1:0,0:0:0:0:
137,307,52552,1,2,0:0:0:0:
137,307,53222,1,2,0:0:0:0:
60,342,53390,6,0,L|65:234,1,93.7500035762788,2|0,1:2|1:0,0:0:0:0:
119,195,53893,1,2,0:3:0:0:
119,195,54060,2,0,L|112:85,1,93.7500035762788,2|2,1:2|1:2,0:0:0:0:
213,23,54731,6,0,P|254:23|279:73,1,93.7500035762788,2|0,1:2|1:0,0:0:0:0:
322,130,55234,2,0,B|367:154|400:133|387:133|429:113|469:139,1,140.625005364418,2|0,0:0|1:0,0:0:0:0:
458,133,56072,6,0,P|420:143|438:225,1,140.625005364418,2|2,1:2|0:0,0:0:0:0:
291,350,56910,5,0,1:0:0:0:
261,276,57077,2,0,P|264:307|265:338,1,62.5,8|0,0:0|0:0,0:0:0:0:
138,151,57412,6,0,P|130:93|187:61,1,125,6|8,1:2|0:0,0:0:0:0:
292,141,57915,2,0,P|230:144|210:137,1,62.5,2|0,1:2|0:0,0:0:0:0:
324,60,58250,1,0,1:0:0:0:
402,180,58418,2,0,P|413:237|420:269,1,62.5,10|0,0:0|0:0,0:0:0:0:
346,315,58753,5,6,1:2:0:0:
231,260,58921,1,8,0:0:0:0:
231,260,59005,1,8,0:3:0:0:
231,260,59088,2,0,L|191:276,1,31.25,4|4,0:3|0:3,0:0:0:0:
168,341,59256,2,0,L|145:211,1,125,2|0,1:2|1:0,0:0:0:0:
18,87,59759,2,0,P|26:34|33:2,1,62.5,10|0,0:0|0:0,0:0:0:0:
173,146,60094,6,0,P|164:100|150:42,1,93.75,6|0,1:2|0:0,0:0:0:0:
141,31,60429,1,10,0:0:0:0:
255,101,60597,2,0,B|290:119|322:99|309:100|344:75|403:97,1,125,2|0,1:2|1:0,0:0:0:0:
404,105,61016,1,0,1:0:0:0:
404,105,61100,1,8,0:0:0:0:
283,26,61267,1,2,0:0:0:0:
366,176,61435,5,10,0:0:0:0:
366,176,61518,1,8,0:3:0:0:
366,176,61602,2,0,L|356:224,1,31.25,0|0,1:0|1:0,0:0:0:0:
255,101,61770,5,10,0:0:0:0:
443,174,61937,2,0,P|447:205|449:236,1,62.5,2|0,1:2|0:0,0:0:0:0:
358,334,62273,1,2,1:2:0:0:
512,295,62440,1,8,0:0:0:0:
365,178,62608,5,0,1:0:0:0:
365,178,62692,1,0,1:0:0:0:
365,178,62775,1,14,0:0:0:0:
279,239,62943,2,0,B|276:272|276:272|289:300,1,62.5,2|0,1:2|1:0,0:0:0:0:
449,236,63278,5,10,0:0:0:0:
372,95,63446,1,0,1:0:0:0:
434,256,63613,1,0,1:0:0:0:
470,57,63781,1,8,0:0:0:0:
365,178,63949,6,0,P|301:163|245:157,1,93.75,6|0,0:0|0:0,0:0:0:0:
241,168,64284,1,8,0:0:0:0:
90,16,64451,1,10,0:0:0:0:
90,16,64787,5,10,0:2:0:0:
113,36,64870,1,4,0:3:0:0:
122,65,64954,1,2,1:2:0:0:
115,95,65038,1,2,1:2:0:0:
93,117,65122,2,0,P|118:83|208:99,1,131.249995994568,10|0,0:0|0:0,0:0:0:0:
239,167,65457,6,0,B|231:235|231:235|235:250|235:250|221:339,1,143.750002741814,6|8,1:2|0:0,0:0:0:0:
82,214,65960,2,0,P|137:208|160:203,1,71.8750013709069,2|0,1:2|0:0,0:0:0:0:
311,288,66295,1,2,1:2:0:0:
311,288,66379,1,2,0:0:0:0:
311,288,66463,2,0,P|368:296|386:300,1,71.8750013709069,10|0,0:0|0:0,0:0:0:0:
491,166,66798,6,0,P|476:214|404:210,1,107.81250205636,2|0,1:2|0:0,0:0:0:0:
394,208,67133,1,10,0:0:0:0:
260,119,67301,1,0,1:2:0:0:
314,176,67468,2,0,L|312:255,1,71.8750013709069,2|0,0:0|1:0,0:0:0:0:
178,121,67803,2,0,P|172:84|168:43,1,71.8750013709069,10|0,0:0|0:0,0:0:0:0:
234,193,68139,6,0,L|104:207,1,107.81250205636,2|0,1:2|0:0,0:0:0:0:
98,209,68474,1,10,0:0:0:0:
199,281,68641,2,0,P|236:303|271:328,1,71.8750013709069,2|0,1:2|0:0,0:0:0:0:
109,341,68977,1,2,1:2:0:0:
98,209,69144,2,0,P|102:161|106:122,1,71.8750013709069,8|0,0:0|0:0,0:0:0:0:
252,217,69479,6,0,B|296:233|328:213|313:214|349:190|401:213,1,143.750002741814,2|8,1:2|0:0,0:0:0:0:
446,267,69982,1,0,1:2:0:0:
512,168,70150,2,0,P|517:133|499:96,1,71.8750013709069,2|0,0:0|1:0,0:0:0:0:
344,26,70485,2,0,P|329:58|334:93,1,71.8750013709069,10|0,0:0|0:0,0:0:0:0:
350,119,70736,1,2,0:0:0:0:
350,119,70820,6,0,B|299:130|299:130|291:128|291:128|215:146,1,107.81250205636,6|0,1:2|0:0,0:0:0:0:
217,150,71155,1,10,0:0:0:0:
118,71,71323,2,0,B|88:22|10:21|6:64|41:96,1,143.750002741814,2|0,1:2|1:0,0:0:0:0:
130,157,71826,1,8,0:0:0:0:
210,53,71993,1,2,0:0:0:0:
50,200,72161,6,0,P|57:265|62:323,1,107.81250205636,2|0,1:2|0:0,0:0:0:0:
53,332,72496,1,10,0:0:0:0:
189,278,72664,2,0,P|253:261|293:256,1,71.8750013709069,2|0,1:2|0:0,0:0:0:0:
395,214,72999,2,0,P|331:194|297:189,1,71.8750013709069,2|8,1:2|0:0,0:0:0:0:
439,291,73334,5,2,0:0:0:0:
439,291,73418,1,2,0:0:0:0:
439,291,73502,2,0,L|446:144,1,143.750002741814,2|8,1:2|0:0,0:0:0:0:
351,27,74005,2,0,B|348:61|348:61|368:93,1,71.8750013709069,2|0,1:2|0:0,0:0:0:0:
512,101,74340,1,2,1:2:0:0:
329,163,74507,2,0,P|246:171|208:177,1,107.81250205636,10|0,0:0|0:0,0:0:0:0:
202,191,74843,6,0,L|196:291,1,71.8750013709069,2|0,1:2|0:0,0:0:0:0:
93,377,75178,2,0,L|84:330,1,35.9375006854534,10|0,0:0|0:0,0:0:0:0:
272,310,75345,1,2,1:3:0:0:
108,114,75681,5,0,1:0:0:0:
108,114,75764,1,0,1:0:0:0:
108,114,75848,2,0,P|91:152|115:121,1,121.874994421006,10|0,0:0|0:0,0:0:0:0:
7,91,76183,6,0,P|-3:137|35:210,1,107.81250205636,6|0,1:2|0:0,0:0:0:0:
38,211,76518,1,10,0:0:0:0:
183,186,76686,2,0,P|196:149|193:99,1,71.8750013709069,2|0,1:2|0:0,0:0:0:0:
119,245,77021,1,2,1:2:0:0:
254,308,77189,2,0,P|316:314|343:320,1,71.8750013709069,8|0,0:0|0:0,0:0:0:0:
473,254,77524,6,0,P|425:244|413:192,1,107.81250205636,2|0,1:2|0:0,0:0:0:0:
428,170,77859,2,0,P|433:126|433:90,1,71.8750013709069,10|0,0:0|1:0,0:0:0:0:
212,138,78194,2,0,P|261:152|299:157,1,71.8750013709069,2|0,0:0|1:0,0:0:0:0:
408,24,78530,1,10,0:0:0:0:
408,24,78865,6,0,P|364:53|348:104,1,107.81250205636,2|0,1:2|0:0,0:0:0:0:
352,133,79200,1,10,0:0:0:0:
287,282,79368,2,0,P|221:295|184:305,1,71.8750013709069,2|0,1:2|0:0,0:0:0:0:
69,174,79703,2,0,P|143:190|164:192,1,71.8750013709069,2|8,1:2|0:2,0:2:0:0:
225,153,80038,5,2,0:0:0:0:
225,153,80122,1,2,0:0:0:0:
225,153,80206,2,0,L|216:307,1,143.750002741814,2|8,1:2|0:0,0:0:0:0:
145,271,80708,1,0,1:0:0:0:
309,200,80876,2,0,P|345:183|381:170,1,71.8750013709069,2|0,0:2|1:2,0:2:0:0:
134,44,81211,2,0,P|83:14|52:3,1,71.8750013709069,10|0,0:0|0:0,0:0:0:0:
35,225,81546,6,0,P|78:206|79:134,1,107.81250205636,6|0,1:2|0:0,0:0:0:0:
76,128,81882,1,10,0:0:0:0:
225,153,82049,2,0,P|230:189|235:239,1,71.8750013709069,2|0,1:2|0:0,0:0:0:0:
387,332,82384,1,2,1:2:0:0:
445,184,82552,2,0,P|389:173|368:171,1,71.8750013709069,10|2,0:0|0:0,0:0:0:0:
345,181,82803,1,2,0:0:0:0:
345,181,82887,6,0,B|359:147|346:124|345:135|329:110|345:69,1,107.81250205636,6|0,1:2|0:0,0:0:0:0:
359,54,83222,2,0,B|390:37|440:32,1,71.8750013709069,10|0,0:0|1:0,0:0:0:0:
267,153,83558,2,0,B|230:149|199:132,1,71.8750013709069,2|0,0:0|1:0,0:0:0:0:
46,47,83893,2,0,P|96:60|79:123,1,107.81250205636,10|0,0:0|0:0,0:0:0:0:
74,128,84228,6,0,P|69:175|68:212,1,71.8750013709069,2|0,1:2|0:0,0:0:0:0:
189,310,84563,1,10,0:0:0:0:
189,310,84731,2,0,P|245:303|277:300,1,71.8750013709069,2|0,0:0|0:0,0:0:0:0:
338,363,85066,1,2,1:2:0:0:
446,261,85234,2,0,P|457:189|468:129,1,107.81250205636,10|0,0:0|0:0,0:0:0:0:
483,129,85569,6,0,P|476:80|469:46,1,71.8750013709069,2|0,1:2|1:0,0:0:0:0:
376,222,85904,1,8,0:0:0:0:
306,204,86072,2,0,P|342:212|376:222,1,71.8750013709069,2|0,0:0|1:0,0:0:0:0:
174,311,86407,1,8,0:0:0:0:
174,311,86490,1,8,0:0:0:0:
174,311,86574,2,0,P|128:330|90:346,1,71.8750013709069,10|4,0:0|0:3,0:0:0:0:
39,296,86826,1,4,0:3:0:0:
18,282,86910,6,0,P|76:266|77:203,1,107.81250205636,6|0,1:2|0:0,0:0:0:0:
79,194,87245,1,10,0:0:0:0:
217,121,87412,1,2,1:2:0:0:
196,276,87580,1,8,0:0:0:0:
126,108,87748,1,2,1:2:0:0:
126,108,87831,1,0,1:0:0:0:
126,108,87915,2,0,P|110:59|90:19,1,71.8750013709069,8|0,0:0|1:0,0:0:0:0:
240,199,88250,6,0,B|304:179|269:166|343:144,1,107.81250205636,6|0,1:2|0:0,0:0:0:0:
360,152,88586,1,10,0:0:0:0:
235,50,88753,1,2,1:2:0:0:
235,50,88837,1,0,1:0:0:0:
235,50,88921,2,0,B|222:82|222:82|229:130,1,71.8750013709069,8|0,0:0|1:0,0:0:0:0:
333,30,89256,1,10,0:0:0:0:
153,28,89424,2,0,L|100:34,1,35.9375006854534,2|0,1:2|1:0,0:0:0:0:
47,85,89591,5,6,1:2:0:0:
80,178,89759,1,0,1:0:0:0:
28,105,89926,1,0,1:0:0:0:
146,273,90094,6,0,P|167:189|184:145,1,107.81250205636,14|0,0:0|0:0,0:0:0:0:
195,149,90429,1,0,1:0:0:0:
256,281,90597,5,14,0:0:0:0:
58,340,90764,1,0,1:0:0:0:
58,340,90848,1,0,1:0:0:0:
58,340,90932,2,0,B|86:359|156:331|124:297|155:259|244:258|269:292,1,224.999993133545,6|0,1:2|0:0,0:0:0:0:
421,257,92105,5,0,1:0:0:0:
421,257,92189,1,0,1:0:0:0:
421,257,92273,2,0,B|387:267|387:267|362:166,1,137.500004196167,14|0,0:2|1:0,0:0:0:0:
485,53,92775,1,14,0:2:0:0:
485,53,92943,2,0,B|497:83|497:83|474:126,1,68.7500020980836,0|0,1:0|1:0,0:0:0:0:
289,85,93278,2,0,P|321:83|365:74,1,68.7500020980836,14|0,0:0|1:0,0:0:0:0:
199,222,93613,6,0,P|121:206|94:203,1,103.125003147125,6|0,1:2|0:0,0:0:0:0:
67,210,93949,1,2,1:2:0:0:
178,85,94116,1,12,0:0:0:0:
280,224,94284,2,0,B|294:257|294:257|291:302,1,68.7500020980836,2|0,1:2|1:0,0:0:0:0:
444,361,94619,2,0,P|450:323|458:287,1,68.7500020980836,14|0,0:0|0:0,0:0:0:0:
372,160,94954,6,0,P|306:164|279:223,1,137.500004196167,14|0,0:2|1:0,0:0:0:0:
119,334,95457,2,0,B|145:353|199:315|151:227,1,137.500004196167,14|0,0:0|1:0,0:0:0:0:
93,74,95960,2,0,P|85:116|77:152,1,68.7500020980836,14|0,0:0|1:0,0:0:0:0:
78,170,96211,1,0,1:0:0:0:
78,170,96295,6,0,B|112:173|112:173|148:162,1,68.7500020980836,14|0,0:2|1:0,0:0:0:0:
221,76,96630,1,2,1:2:0:0:
279,223,96798,1,12,0:0:0:0:
227,166,96965,2,0,P|226:130|243:99,1,68.7500020980836,2|0,1:2|1:0,0:0:0:0:
406,87,97301,2,0,P|431:122|435:189,1,103.125003147125,14|0,0:0|0:0,0:0:0:0:
378,232,97636,6,0,L|264:221,1,100,6|0,1:2|1:0,0:0:0:0:
142,304,98306,2,0,L|256:293,1,100,0|0,1:0|1:0,0:0:0:0:
89,222,98809,6,0,L|65:218,2,18.7499994277954,2|2|2,0:0|0:0|0:0,0:0:0:0:
104,215,98977,2,0,P|69:178|46:169,1,56.2499982833863,2|0,1:2|0:0,0:0:0:0:
184,220,99312,2,0,P|172:170|156:151,1,56.2499982833863,2|0,1:2|0:0,0:0:0:0:
250,264,99647,2,0,P|264:215|260:190,1,56.2499982833863,2|0,1:2|0:0,0:0:0:0:
330,144,99982,1,2,1:2:0:0:
330,144,100150,1,2,0:0:0:0:
427,253,100317,6,0,L|416:377,1,112.499996566773,6|0,1:2|1:0,0:0:0:0:
340,310,100820,1,8,0:0:0:0:
453,267,100988,1,0,1:0:0:0:
329,343,101155,1,8,0:0:0:0:
373,180,101323,5,10,0:2:0:0:
417,365,101491,1,8,0:0:0:0:
226,277,101658,6,0,B|221:245|221:245|234:201,1,56.2499982833863,10|8,0:0|0:0,0:0:0:0:
373,125,101993,2,0,B|379:147|379:147|374:179,1,56.2499982833863,10|8,0:0|0:0,0:0:0:0:
348,200,102245,1,8,0:0:0:0:
348,200,102329,2,0,L|316:193,3,28.1249991416931,2|8|8|8,1:2|0:3|0:3|0:3,0:3:0:0:
245,141,102664,2,0,L|277:134,3,28.1249991416931,2|4|4|4,1:2|0:3|0:3|0:3,0:0:0:0:
310,66,102999,6,0,L|190:46,1,112.499996566773,6|0,1:2|1:0,0:0:0:0:
130,107,103502,2,0,P|132:144|137:169,1,56.2499982833863,2|0,0:0|1:0,0:0:0:0:
193,237,103837,1,0,0:0:0:0:
193,237,104005,2,0,P|141:246|122:253,1,56.2499982833863,2|0,1:2|0:0,0:0:0:0:
32,311,104340,6,0,P|99:322|152:336,1,112.499996566773,2|0,1:2|1:0,0:0:0:0:
217,376,104843,1,2,0:0:0:0:
217,376,105345,1,2,1:2:0:0:
131,353,105513,1,2,0:3:0:0:
239,297,105681,6,0,B|273:285|297:299|285:302|310:319|353:307,1,112.499996566773,2|0,1:2|1:0,0:0:0:0:
429,272,106183,2,0,P|434:241|440:209,1,56.2499982833863,2|0,0:0|1:0,0:0:0:0:
366,169,106518,2,0,P|361:196|356:224,1,56.2499982833863,2|0,0:0|1:0,0:0:0:0:
294,133,106854,1,2,0:3:0:0:
363,89,107021,5,0,1:0:0:0:
271,126,107189,1,2,0:3:0:0:
201,96,107356,2,0,L|194:208,2,112.499996566773,0|2|0,1:0|1:2|1:0,0:0:0:0:
106,194,108194,1,8,0:0:0:0:
152,279,108362,6,0,P|213:283|277:290,2,112.499996566773,2|0|0,1:2|1:0|1:0,0:0:0:0:
7,339,109368,2,0,P|1:311|0:283,1,56.2499982833863,2|0,1:2|0:0,0:0:0:0:
3,207,109703,6,0,P|41:204|70:135,1,112.499996566773,2|0,1:2|1:0,0:0:0:0:
135,90,110206,2,0,P|147:120|155:158,1,56.2499982833863,2|0,0:0|1:0,0:0:0:0:
209,44,110541,1,2,0:3:0:0:
209,44,110708,1,2,1:2:0:0:
222,204,111044,6,0,P|239:160|312:138,1,112.499996566773,2|0,1:2|1:2,0:0:0:0:
358,197,111546,2,0,L|355:262,1,56.2499982833863,2|0,0:0|1:0,0:0:0:0:
432,331,111882,1,2,0:0:0:0:
504,305,112049,2,0,P|509:262|512:229,1,56.2499982833863,0|0,1:0|0:0,0:0:0:0:
432,331,112384,6,0,P|394:338|367:343,1,56.2499982833863,2|0,1:3|0:0,0:0:0:0:
276,262,112720,2,0,P|313:269|341:274,1,56.2499982833863,2|0,1:3|0:0,0:0:0:0:
252,360,113055,1,2,1:3:0:0:
252,360,113222,1,0,0:0:0:0:
170,228,113390,2,0,P|135:210|105:216,1,56.2499982833863,10|0,0:0|0:0,0:0:0:0:
15,158,113725,6,0,B|44:166|79:146|67:147|94:125|144:132,1,125,6|8,1:2|0:0,0:0:0:0:
225,90,114228,2,0,L|235:26,2,62.5,2|0|0,0:0|1:0|1:0,0:0:0:0:
154,54,114731,1,2,0:0:0:0:
309,79,114898,6,0,L|288:211,1,125,10|0,0:0|1:0,0:0:0:0:
387,319,115401,2,0,P|364:278|281:312,1,125,8|0,0:0|0:0,0:0:0:0:
241,344,115904,1,0,1:0:0:0:
136,274,116072,2,0,P|129:233|122:205,1,62.5,10|0,0:0|0:0,0:0:0:0:
66,158,116407,6,0,L|-11:171,1,62.5,2|0,1:2|0:0,0:0:0:0:
147,30,116742,1,10,0:0:0:0:
203,87,116910,2,0,P|234:89|265:90,1,62.5,2|0,0:0|1:0,0:0:0:0:
335,200,117245,2,0,P|288:213|259:221,1,62.5,2|0,1:2|0:0,0:0:0:0:
412,250,117580,6,0,L|417:119,1,125,10|0,0:0|1:0,0:0:0:0:
493,9,118083,2,0,P|501:45|506:80,1,62.5,10|0,0:0|0:0,0:0:0:0:
441,139,118418,2,0,P|433:175|428:210,1,62.5,2|0,0:0|1:0,0:0:0:0:
489,312,118753,2,0,P|513:327|491:302,1,93.75,10|0,0:0|0:0,0:0:0:0:
413,331,119088,6,0,B|379:354|342:336|356:335|326:314|283:336,1,125,6|8,1:2|0:0,0:0:0:0:
226,369,119591,1,0,0:0:0:0:
150,311,119759,2,0,L|139:230,1,62.5,2|0,1:3|1:0,0:0:0:0:
277,189,120094,2,0,B|287:217|287:217|285:250,1,62.5,10|0,0:0|0:0,0:0:0:0:
165,135,120429,6,0,P|219:125|235:82,1,93.75,2|0,1:2|0:0,0:0:0:0:
235,68,120764,1,10,0:0:0:0:
341,137,120932,2,0,P|393:142|413:147,1,62.5,2|2,0:0|1:3,0:0:0:0:
331,56,121267,1,2,1:2:0:0:
277,189,121435,2,0,B|266:217|266:217|268:250,1,62.5,10|0,0:0|0:0,0:0:0:0:
427,353,121770,6,0,L|442:203,1,125,6|8,1:2|0:0,0:0:0:0:
512,286,122273,1,0,0:0:0:0:
353,302,122440,2,0,P|350:271|343:222,1,62.5,10|0,0:0|1:0,0:0:0:0:
356,217,122692,1,0,1:0:0:0:
356,217,122775,1,10,0:0:0:0:
199,135,122943,6,0,B|133:156|155:120|79:147,1,112.499996566773,6|0,1:2|1:0,0:0:0:0:
149,355,123446,2,0,B|155:327|155:327|152:293,1,56.2499982833863,10|8,0:0|0:0,0:0:0:0:
141,279,123697,1,8,0:0:0:0:
141,279,123781,2,0,L|202:270,1,56.2499982833863,10|8,0:0|0:3,0:0:0:0:
89,144,124116,2,0,L|28:135,1,56.2499982833863,2|4,1:2|0:3,0:0:0:0:
0,72,124368,1,4,0:3:0:0:
14,59,124451,6,0,B|64:26|117:61|95:60|135:98|204:75,1,187.500007152558,6|0,1:2|1:0,0:0:0:0:
191,78,125457,2,0,P|195:104|204:143,1,46.8750017881394,2|0,1:2|0:0,0:0:0:0:
267,221,125792,6,0,P|243:164|193:198,1,140.625005364418,2|2,1:2|0:0,0:0:0:0:
335,305,126798,2,0,P|362:300|394:298,1,46.8750017881394,2|0,1:2|0:0,0:0:0:0:
453,240,127133,6,0,P|390:217|358:209,1,93.7500035762788,2|0,1:2|1:0,0:0:0:0:
281,144,127636,2,0,P|278:105|277:81,1,46.8750017881394,2|0,0:0|1:0,0:0:0:0:
192,198,127971,2,0,P|182:235|172:308,1,93.7500035762788,2|0,0:0|0:0,0:0:0:0:
37,361,128474,6,0,P|16:341|90:311,1,140.625005364418,2|2,1:2|0:0,0:0:0:0:
215,361,129312,1,2,0:3:0:0:
215,361,129479,2,0,P|177:368|154:376,1,46.8750017881394,2|0,1:2|0:0,0:0:0:0:
173,289,129815,6,0,P|248:276|276:269,1,93.7500035762788,2|0,1:2|1:0,0:0:0:0:
316,214,130317,2,0,P|319:186|325:160,1,46.8750017881394,2|0,0:0|1:0,0:0:0:0:
454,111,130820,2,0,P|479:105|508:100,1,46.8750017881394,2|0,1:2|0:0,0:0:0:0:
415,182,131155,6,0,P|339:169|304:165,1,93.7500035762788,2|0,1:2|1:2,0:0:0:0:
255,210,131658,1,2,0:0:0:0:
255,210,131826,2,0,P|218:220|192:225,1,46.8750017881394,0|0,1:2|0:0,0:0:0:0:
109,153,132161,1,2,1:2:0:0:
109,153,132496,6,0,P|139:164|197:135,1,93.7500035762788,2|0,1:2|1:0,0:0:0:0:
262,105,132999,2,0,P|306:100|415:89,1,140.625005364418,2|0,0:0|1:0,0:0:0:0:
401,90,133837,6,0,P|352:49|317:99,1,140.625005364418,2|2,1:2|0:0,0:0:0:0:
106,242,134675,5,0,1:0:0:0:
185,231,134843,2,0,P|152:224|114:216,1,62.5,8|0,0:0|0:0,0:0:0:0:
289,321,135178,6,0,P|355:314|421:310,1,125,6|8,1:2|0:0,0:0:0:0:
368,146,135681,2,0,P|333:176|352:234,1,93.75,2|0,1:2|0:0,0:0:0:0:
358,237,136016,1,0,1:0:0:0:
457,155,136183,2,0,P|453:118|449:89,1,62.5,10|0,0:0|0:0,0:0:0:0:
257,23,136518,5,6,1:2:0:0:
368,146,136686,1,8,0:0:0:0:
368,146,136770,1,8,0:3:0:0:
368,146,136854,2,0,L|374:99,1,31.25,4|4,0:3|0:3,0:0:0:0:
281,109,137021,2,0,P|220:121|159:134,1,125,2|0,1:2|1:0,0:0:0:0:
337,219,137524,2,0,P|380:227|408:230,1,62.5,10|0,0:0|0:0,0:0:0:0:
169,335,137859,6,0,P|159:279|149:225,1,93.75,6|0,1:2|0:0,0:0:0:0:
138,218,138194,1,10,0:0:0:0:
14,108,138362,2,0,B|58:101|83:122|69:118|94:145|151:139,1,125,2|0,1:2|1:0,0:0:0:0:
163,137,138781,1,0,1:0:0:0:
163,137,138865,1,8,0:0:0:0:
30,187,139032,1,2,0:0:0:0:
129,60,139200,5,10,0:2:0:0:
243,189,139368,1,0,1:0:0:0:
243,189,139451,1,0,1:0:0:0:
243,189,139535,1,10,0:0:0:0:
45,94,139703,6,0,P|37:63|30:33,1,62.5,6|0,1:2|0:0,0:0:0:0:
163,137,140038,1,2,1:2:0:0:
30,187,140206,1,8,0:0:0:0:
211,274,140373,5,0,1:0:0:0:
211,274,140457,1,0,1:0:0:0:
211,274,140541,1,12,0:0:0:0:
84,320,140708,2,0,P|79:289|72:250,1,62.5,0|0,1:0|1:0,0:0:0:0:
290,247,141044,5,14,0:0:0:0:
167,354,141211,1,0,1:0:0:0:
139,215,141379,1,0,1:0:0:0:
320,323,141546,1,10,0:0:0:0:
216,170,141714,6,0,P|208:114|198:61,1,93.75,6|0,1:2|0:0,0:0:0:0:
187,50,142049,1,8,0:0:0:0:
445,125,142217,1,10,0:0:0:0:
318,188,142468,5,8,0:0:0:0:
318,188,142552,2,0,L|356:195,1,31.25,2|0,1:2|0:0,0:0:0:0:
469,284,142720,1,8,0:0:0:0:
460,297,142803,1,8,0:0:0:0:
445,303,142887,1,8,0:0:0:0:
403,288,142971,1,8,0:0:0:0:
361,302,143055,1,8,0:0:0:0:
358,345,143139,1,8,0:0:0:0:
366,336,143222,6,0,L|346:177,1,143.750002741814,6|8,1:2|0:0,0:0:0:0:
241,299,143725,2,0,P|234:351|229:376,1,71.8750013709069,2|0,1:2|0:0,0:0:0:0:
136,242,144060,1,2,1:2:0:0:
277,204,144228,2,0,P|314:197|359:191,1,71.8750013709069,8|0,0:0|0:0,0:0:0:0:
138,117,144563,6,0,P|38:94|10:90,1,107.81250205636,2|0,1:2|0:0,0:0:0:0:
9,106,144898,1,10,0:0:0:0:
131,31,145066,1,0,1:0:0:0:
238,124,145234,2,0,P|245:164|251:205,1,71.8750013709069,2|0,0:0|1:0,0:0:0:0:
370,70,145569,2,0,P|375:34|381:0,1,71.8750013709069,10|0,0:0|0:0,0:0:0:0:
499,210,145904,6,0,P|473:168|400:156,1,107.81250205636,2|0,1:2|0:0,0:0:0:0:
394,169,146239,1,10,0:0:0:0:
299,273,146407,2,0,P|346:259|385:254,1,71.8750013709069,2|0,1:2|0:0,0:0:0:0:
482,347,146742,1,2,1:2:0:0:
482,347,146910,2,0,P|427:325|391:316,1,71.8750013709069,8|0,0:0|0:0,0:0:0:0:
238,340,147245,6,0,B|192:357|160:334|172:333|137:305|74:324,1,143.750002741814,2|8,1:2|0:0,0:0:0:0:
42,367,147748,1,0,1:0:0:0:
5,246,147915,2,0,P|-4:194|-8:160,1,71.8750013709069,2|0,0:0|1:0,0:0:0:0:
208,268,148250,2,0,P|230:212|236:187,1,71.8750013709069,10|0,0:0|0:0,0:0:0:0:
242,179,148502,1,2,0:0:0:0:
242,179,148586,6,0,L|365:174,1,107.81250205636,6|0,1:2|0:0,0:0:0:0:
380,175,148921,1,10,0:0:0:0:
430,291,149088,2,0,P|388:312|313:250,1,143.750002741814,2|0,1:2|1:0,0:0:0:0:
450,212,149591,1,8,0:0:0:0:
498,342,149759,1,2,0:0:0:0:
508,153,149926,6,0,P|503:100|494:27,1,107.81250205636,2|0,1:2|0:0,0:0:0:0:
481,19,150262,1,10,0:0:0:0:
387,141,150429,2,0,P|348:167|321:173,1,71.8750013709069,2|0,1:2|0:0,0:0:0:0:
139,202,150764,2,0,P|172:234|198:244,1,71.8750013709069,2|8,1:2|0:0,0:0:0:0:
280,80,151100,5,2,0:0:0:0:
280,80,151183,1,2,0:0:0:0:
280,80,151267,2,0,P|242:77|214:166,1,143.750002741814,2|8,1:2|0:0,0:0:0:0:
349,272,151770,2,0,P|288:282|247:291,1,71.8750013709069,2|0,1:2|0:2,0:2:0:0:
181,364,152105,1,2,1:2:0:0:
60,217,152273,2,0,B|52:144|38:176|27:92,1,107.81250205636,10|0,0:0|0:0,0:0:0:0:
47,87,152608,6,0,L|137:93,1,71.8750013709069,2|0,1:2|0:0,0:0:0:0:
254,4,152943,2,0,L|202:17,1,35.9375006854534,10|0,0:0|0:0,0:0:0:0:
248,177,153111,1,2,1:3:0:0:
291,352,153446,5,0,1:0:0:0:
291,352,153530,1,0,1:0:0:0:
291,352,153613,2,0,B|270:296|270:296|309:233,1,121.874994421006,10|0,0:0|0:0,0:0:0:0:
375,205,153949,6,0,B|434:188|398:169|494:149,1,107.81250205636,6|0,1:2|0:0,0:0:0:0:
498,163,154284,1,10,0:0:0:0:
358,107,154451,2,0,P|306:96|285:91,1,71.8750013709069,2|0,1:2|0:0,0:0:0:0:
205,240,154787,1,2,1:2:0:0:
302,243,154954,2,0,P|297:202|289:157,1,71.8750013709069,8|0,0:0|0:0,0:0:0:0:
135,132,155289,6,0,P|117:214|111:256,1,107.81250205636,2|0,1:2|0:0,0:0:0:0:
116,264,155625,2,0,P|63:278|40:285,1,71.8750013709069,10|0,0:0|1:0,0:0:0:0:
241,359,155960,2,0,P|275:369|310:377,1,71.8750013709069,2|0,0:2|1:0,0:0:0:0:
446,231,156295,1,10,0:0:0:0:
446,231,156630,6,0,B|393:201|429:191|357:161,1,107.81250205636,2|0,1:2|0:0,0:0:0:0:
338,175,156965,1,10,0:0:0:0:
473,88,157133,2,0,P|479:141|482:169,1,71.8750013709069,2|0,1:2|0:0,0:0:0:0:
280,109,157468,2,0,P|283:73|287:37,1,71.8750013709069,2|8,1:2|0:0,0:0:0:0:
187,194,157803,5,2,0:0:0:0:
187,194,157887,1,2,0:0:0:0:
187,194,157971,2,0,P|179:138|160:41,1,143.750002741814,2|8,1:2|0:0,0:0:0:0:
97,97,158474,1,0,1:0:0:0:
262,127,158641,2,0,P|317:141|353:152,1,71.8750013709069,2|0,0:0|1:0,0:0:0:0:
124,261,158977,2,0,P|69:275|33:286,1,71.8750013709069,10|0,0:0|0:0,0:0:0:0:
276,380,159312,6,0,L|294:251,1,107.81250205636,6|0,1:2|0:0,0:0:0:0:
296,243,159647,1,10,0:0:0:0:
477,331,159815,2,0,P|441:347|398:332,1,71.8750013709069,2|0,1:2|0:0,0:0:0:0:
344,183,160150,1,2,1:2:0:0:
500,114,160317,2,0,L|488:206,1,71.8750013709069,8|2,0:0|0:0,0:0:0:0:
473,210,160569,1,2,0:0:0:0:
473,210,160653,6,0,B|405:201|433:183|372:172,1,107.81250205636,4|0,1:2|0:0,0:0:0:0:
344,183,160988,2,0,P|336:232|330:270,1,71.8750013709069,10|0,0:0|1:0,0:0:0:0:
202,356,161323,2,0,P|196:321|191:286,1,71.8750013709069,2|0,0:0|1:0,0:0:0:0:
23,212,161658,2,0,P|61:243|127:208,1,107.81250205636,10|0,0:0|0:0,0:0:0:0:
131,208,161993,6,0,P|125:171|120:127,1,71.8750013709069,2|0,1:2|0:0,0:0:0:0:
288,112,162329,1,10,0:0:0:0:
288,112,162496,2,0,L|187:126,1,71.8750013709069,2|0,0:0|0:0,0:0:0:0:
117,60,162831,1,2,1:2:0:0:
271,194,162999,2,0,P|333:206|386:217,1,107.81250205636,10|0,0:0|0:0,0:0:0:0:
399,232,163334,6,0,L|410:315,1,71.8750013709069,2|0,1:2|1:0,0:0:0:0:
481,128,163669,1,10,0:0:0:0:
424,80,163837,2,0,P|378:87|344:92,1,71.8750013709069,2|0,0:0|0:0,0:0:0:0:
189,211,164172,1,8,0:0:0:0:
189,211,164256,1,8,0:0:0:0:
189,211,164340,5,2,1:2:0:0:
205,241,164423,1,8,0:3:0:0:
239,249,164507,1,4,0:3:0:0:
267,229,164591,1,4,0:3:0:0:
271,194,164675,6,0,P|261:117|259:75,1,107.81250205636,6|0,1:2|0:0,0:0:0:0:
269,58,165010,1,10,0:0:0:0:
156,136,165178,1,2,1:2:0:0:
350,172,165345,1,8,0:0:0:0:
178,46,165513,5,2,1:2:0:0:
178,46,165597,1,0,1:0:0:0:
178,46,165681,2,0,P|116:56|90:57,1,71.8750013709069,8|0,0:0|1:0,0:0:0:0:
0,226,166016,6,0,B|64:245|25:256|100:285,1,107.81250205636,6|0,1:2|0:0,0:0:0:0:
128,277,166351,1,10,0:0:0:0:
164,143,166518,1,2,1:2:0:0:
164,143,166602,1,0,1:0:0:0:
164,143,166686,1,8,0:0:0:0:
228,296,166854,1,2,1:2:0:0:
110,202,167021,1,10,0:0:0:0:
284,238,167189,2,0,L|319:231,1,35.9375006854534,2|0,1:2|1:0,0:0:0:0:
367,170,167356,5,6,1:2:0:0:
332,68,167524,1,0,1:0:0:0:
244,169,167692,1,2,1:2:0:0:
394,244,167859,6,0,P|447:251|509:265,1,107.81250205636,14|0,0:2|0:0,0:0:0:0:
512,287,168195,1,0,1:2:0:0:
367,170,168362,5,12,0:0:0:0:
300,334,168530,1,0,1:0:0:0:
171,192,168697,5,6,1:2:0:0:
244,169,168865,2,0,B|248:204|248:204|232:306,1,107.81250205636,8|0,0:0|0:0,0:0:0:0:
232,302,169200,1,2,1:2:0:0:
107,260,169368,2,0,L|95:203,1,35.9375006854534,10|8,0:0|0:3,0:0:0:0:
186,107,169535,1,4,0:3:0:0:
186,107,169619,1,0,1:0:0:0:
186,107,169703,2,0,L|78:136,1,107.81250205636,10|0,0:0|0:0,0:0:0:0:
17,98,170038,6,0,P|46:142|9:203,2,125,6|0|0,1:2|1:0|1:0,0:0:0:0:
171,192,171044,2,0,P|219:180|255:174,1,62.5,2|0,1:2|0:0,0:0:0:0:
261,193,171295,1,8,0:0:0:0:
261,193,171379,6,0,P|315:201|397:213,1,125,10|0,0:0|1:0,0:0:0:0:
448,168,171882,1,0,0:0:0:0:
484,290,172049,2,0,P|491:347|495:368,1,62.5,2|0,1:2|0:0,0:0:0:0:
376,273,172384,2,0,P|383:216|387:195,1,62.5,2|0,1:2|0:0,0:0:0:0:
485,154,172720,6,0,B|441:162|414:147|437:141|387:121|352:140,2,125,6|0|0,1:2|1:0|1:0,0:0:0:0:
336,62,173725,2,0,P|299:54|267:49,1,62.5,2|0,1:2|0:0,0:0:0:0:
253,63,173977,1,8,0:0:0:0:
253,63,174060,6,0,B|203:87|203:87|124:56,1,125,10|0,0:2|1:0,0:0:0:0:
44,107,174563,2,0,P|49:138|54:180,1,62.5,2|0,0:0|1:0,0:0:0:0:
130,231,174898,2,0,P|114:270|107:301,1,62.5,2|0,0:0|1:0,0:0:0:0:
179,369,175234,5,2,0:0:0:0:
179,369,175317,1,2,0:0:0:0:
179,369,175401,2,0,B|222:364|222:364|235:353|235:353|304:343,1,125,4|0,1:2|1:0,0:0:0:0:
380,370,175904,1,2,0:0:0:0:
380,370,176072,2,0,L|394:293,1,62.5,0|0,1:0|0:2,0:0:0:0:
444,223,176407,2,0,L|434:155,1,62.5,2|0,1:2|0:0,0:0:0:0:
413,149,176658,1,8,0:0:0:0:
413,149,176742,6,0,B|334:153|368:115|268:129,1,125,10|0,0:0|1:0,0:0:0:0:
227,182,177245,2,0,P|232:219|235:253,1,62.5,2|0,0:0|1:0,0:0:0:0:
127,259,177580,2,0,P|122:228|119:196,1,62.5,2|0,0:0|1:0,0:0:0:0:
125,94,177915,5,2,0:0:0:0:
125,94,177999,1,2,0:0:0:0:
125,94,178083,2,0,B|71:132|71:132|-6:106,1,125,6|0,1:2|1:0,0:0:0:0:
25,34,178586,2,0,L|99:21,1,62.5,2|0,0:0|1:0,0:0:0:0:
207,88,178921,1,2,0:0:0:0:
272,50,179088,2,0,P|305:56|343:66,1,62.5,2|0,1:2|0:0,0:0:0:0:
357,85,179340,1,8,0:0:0:0:
357,85,179424,6,0,L|336:224,1,125,10|0,0:0|1:0,0:0:0:0:
372,283,179926,1,2,0:0:0:0:
372,283,180094,2,0,P|341:258|254:301,1,125,0|2,1:0|1:2,0:0:0:0:
265,279,180764,6,0,P|260:210|253:146,1,125,6|0,1:2|1:0,0:0:0:0:
178,206,181267,2,0,L|161:291,2,62.5,2|0|0,0:0|1:0|0:0,0:0:0:0:
92,129,181770,2,0,P|58:120|12:114,1,62.5,2|0,1:2|0:0,0:0:0:0:
24,96,182021,1,8,0:0:0:0:
24,96,182105,6,0,L|175:75,1,125,10|2,0:0|1:2,0:0:0:0:
241,143,182608,2,0,P|282:150|316:158,1,62.5,2|0,0:0|1:0,0:0:0:0:
374,48,182943,2,0,P|343:54|312:59,1,62.5,2|0,0:0|1:0,0:0:0:0:
396,161,183278,5,2,0:0:0:0:
396,161,183362,1,2,0:0:0:0:
396,161,183446,2,0,P|432:197|386:272,2,125,4|0|0,1:2|1:0|1:0,0:0:0:0:
333,300,184451,2,0,P|336:337|339:378,1,62.5,2|0,1:2|0:0,0:0:0:0:
325,379,184703,1,8,0:0:0:0:
325,379,184787,5,10,0:0:0:0:
193,330,184954,2,0,B|226:335|226:335|267:313,1,62.5,2|0,0:0|1:0,0:0:0:0:
155,243,185289,2,0,B|129:229|129:229|96:234,1,62.5,2|0,0:0|1:0,0:0:0:0:
106,371,185625,2,0,L|116:297,1,62.5,2|0,0:0|1:0,0:0:0:0:
233,218,185960,5,2,0:0:0:0:
233,218,186044,1,2,0:0:0:0:
233,218,186127,2,0,P|220:124|215:77,2,125,4|0|0,1:2|1:0|1:0,0:0:0:0:
117,109,187133,2,0,P|83:104|43:100,1,62.5,2|0,1:2|0:0,0:0:0:0:
44,81,187384,1,8,0:0:0:0:
44,81,187468,6,0,P|104:72|131:7,1,125,10|0,0:0|1:0,0:0:0:0:
211,64,187971,1,2,0:0:0:0:
198,74,188139,2,0,L|211:150,1,62.5,0|0,1:0|0:0,0:0:0:0:
279,210,188474,2,0,P|299:161|310:126,1,62.5,10|0,1:2|0:0,0:0:0:0:
404,83,188809,6,0,B|322:93|356:57|269:72,1,125,6|0,1:2|1:0,0:0:0:0:
381,165,189312,2,0,P|414:160|454:151,1,62.5,2|0,0:0|1:0,0:0:0:0:
274,237,189647,2,0,P|242:226|204:210,1,62.5,2|0,0:0|1:0,0:0:0:0:
82,154,189982,5,2,0:0:0:0:
28,262,190150,1,0,1:0:0:0:
0,117,190317,1,2,0:0:0:0:
113,243,190485,2,0,P|117:273|125:303,1,62.5,2|0,1:2|0:0,0:0:0:0:
203,124,190820,6,0,B|205:64|235:23|235:23|213:40|179:49,1,145.833328882853,2|2,1:1|0:1,0:0:0:0:
287,94,191155,5,2,1:1:0:0:
317,111,191267,5,2,0:1:0:0:
349,108,191379,5,2,0:1:0:0:
378,88,191491,6,2,B|410:62|423:20|423:20|376:107|371:210|485:263|485:263|512:211|487:182,1,449.99998626709,6|8,1:2|0:0,0:1:0:0:
341,271,192664,5,2,0:1:0:0:
325,277,192748,1,2,0:1:0:0:
307,270,192831,2,0,B|255:258|255:258|218:270|218:270|150:258,1,149.999995422363,2|8,1:0|0:0,0:0:0:0:
30,128,193334,2,0,B|112:122|85:168|169:177,1,149.999995422363,2|0,1:1|1:0,0:0:0:0:
31,292,193837,2,2,B|17:257|17:257|29:213,1,74.9999977111817,10|0,0:0|0:0,0:1:0:0:
50,208,194088,1,2,0:1:0:0:
50,208,194172,6,0,L|72:362,1,149.999995422363,2|8,1:1|0:0,0:0:0:0:
234,303,194675,2,0,P|240:243|250:164,1,112.499996566773,2|0,1:0|0:0,0:0:0:0:
224,169,195010,2,0,B|347:123|313:221|447:180,1,224.999993133545,2|2,1:0|1:2,0:0:0:0:
439,182,195681,6,0,P|422:248|412:287,1,74.9999977111817,2|8,1:1|0:0,0:0:0:0:
234,303,196016,1,2,1:1:0:0:
297,350,196183,1,2,0:2:0:0:
306,272,196351,1,2,1:1:0:0:
201,195,196518,1,10,0:0:0:0:
277,78,196686,5,2,0:1:0:0:
287,71,196770,1,2,0:1:0:0:
301,71,196854,2,2,B|225:48|225:48|161:75|128:159|176:238|176:238|170:148|91:145|58:157,1,449.99998626709,6|8,1:2|0:0,0:1:0:0:
9,210,198027,1,2,0:1:0:0:
6,221,198111,1,2,0:1:0:0:
4,231,198194,5,2,1:1:0:0:
90,53,198446,1,2,0:1:0:0:
94,68,198530,1,8,0:0:0:0:
204,151,198697,1,2,1:1:0:0:
347,101,198865,5,2,0:1:0:0:
241,266,199116,1,2,0:1:0:0:
246,280,199200,1,8,0:0:0:0:
354,185,199368,1,2,0:1:0:0:
442,288,199535,6,2,B|453:271|507:260|507:260|459:269|372:269|371:200|332:180|282:172|211:191,1,374.999988555909,2|0,1:1|1:0,0:1:0:0:
145,341,200541,5,10,0:0:0:0:
23,311,200708,2,2,P|76:304|244:274,1,224.999993133545,2|8,0:1|0:0,0:1:0:0:
366,129,201379,5,2,1:3:0:0:
163,118,201714,5,0,1:0:0:0:
163,118,201798,1,0,1:0:0:0:
163,118,201882,2,0,B|141:91|138:57|138:57|119:88|71:96,1,131.249995994568,10|0,0:0|0:0,0:0:0:0:
18,61,202217,5,6,1:2:0:0:
35,156,202384,1,2,0:0:0:0:
52,251,202552,1,10,0:0:0:0:
174,201,202720,5,2,1:0:0:0:
159,274,202887,1,2,0:0:0:0:
147,348,203055,1,2,1:2:0:0:
303,275,203222,5,10,0:0:0:0:
245,125,203390,1,2,0:0:0:0:
377,244,203558,5,2,1:0:0:0:
174,201,203725,1,2,1:2:0:0:
311,46,203893,1,10,2:0:0:0:
225,281,204060,6,0,B|164:275|164:275|150:264|150:264|67:259,1,131.249995994568,2|2,1:1|0:2,0:0:0:0:
72,258,204396,2,0,L|82:226,2,21.874999332428,2|2|2,1:2|0:0|0:0,0:0:0:0:
5,302,204563,2,0,B|-12:261|-12:261|2:209,1,87.499997329712,10|0,0:0|0:0,0:0:0:0:
249,169,204898,5,2,1:0:0:0:
119,145,205066,1,2,0:0:0:0:
238,92,205234,1,8,0:0:0:0:
268,192,205401,5,2,1:0:0:0:
152,50,205568,1,2,0:0:0:0:
146,224,205736,1,2,1:2:0:0:
56,109,205904,5,10,0:0:0:0:
316,109,206072,1,2,0:0:0:0:
146,224,206239,5,2,1:0:0:0:
262,17,206407,1,2,1:2:0:0:
385,236,206574,1,8,0:0:0:0:
145,97,206742,6,0,B|125:72|125:72|245:92,1,131.249995994568,2|2,1:0|0:0,0:0:0:0:
256,109,207077,1,2,1:2:0:0:
256,109,207133,2,0,L|329:89,1,58.3333315531413,2|10,0:0|0:0,0:0:0:0:
217,237,207412,6,0,L|234:306,1,43.749998664856,0|0,1:0|1:0,0:0:0:0:
220,372,207580,2,2,B|255:355|282:353|282:353|301:331|301:331|347:360|422:336,1,200,14|8,0:0|0:0,0:1:0:0:
476,311,208083,1,0,1:0:0:0:
416,195,208250,2,2,B|407:152|407:152|434:103,1,87.499997329712,10|0,0:0|1:0,0:1:0:0:
446,95,208502,1,2,0:1:0:0:
446,95,208586,1,8,0:0:0:0:
292,190,208753,5,2,1:1:0:0:
292,190,208837,1,2,1:0:0:0:
292,190,208921,2,2,B|256:187|256:187|249:182|249:182|191:178,1,87.499997329712,10|0,0:0|0:0,0:1:0:0:
132,175,209172,1,2,0:1:0:0:
119,174,209256,1,8,0:0:0:0:
204,88,209424,1,2,1:1:0:0:
175,256,209591,6,0,B|129:266|129:266|73:246,1,87.499997329712,10|0,0:0|1:0,0:2:0:0:
41,200,209843,1,2,1:1:0:0:
35,191,209926,1,8,0:0:0:0:
13,301,210094,1,2,1:1:0:0:
132,175,210262,6,2,B|154:115|106:52|106:52|116:81|110:102,1,174.999994659424,14|0,0:0|1:0,0:1:0:0:
237,159,210764,1,10,0:0:0:0:
297,106,210932,2,0,L|307:57,2,43.749998664856,2|2|0,1:0|0:1|1:0,0:0:0:0:
378,233,211267,5,10,0:0:0:0:
358,258,211350,1,2,0:0:0:0:
329,275,211435,1,2,1:2:0:0:
297,278,211518,1,0,0:0:0:0:
266,268,211602,5,2,1:2:0:0:
233,240,211685,1,2,0:0:0:0:
190,233,211769,1,10,0:2:0:0:
150,249,211853,1,2,0:2:0:0:
124,284,211937,5,2,1:1:0:0:
58,317,212049,5,2,0:1:0:0:
0,272,212161,5,2,0:1:0:0:
0,199,212273,6,0,L|18:105,1,87.499997329712,10|0,0:0|1:0,0:0:0:0:
83,73,212524,1,2,0:1:0:0:
88,88,212608,2,0,P|136:69|188:63,1,87.499997329712,8|2,0:0|0:1,0:0:0:0:
350,142,212943,6,2,B|387:158|418:158|418:158|436:141|462:133|462:133|491:164|503:199|497:262|455:306,1,299.999990844727,6|2,1:2|0:0,0:1:0:0:
354,354,214619,5,2,0:0:0:0:
280,341,214954,1,2,0:0:0:0:
206,325,215289,1,2,0:0:0:0:
193,315,215625,5,2,0:0:0:0:
221,249,226351,6,0,P|218:214|211:160,1,74.9999977111817,4|0,0:1|0:0,0:0:0:0:
261,119,226854,2,0,P|263:97|267:69,1,37.4999988555909,2|8,0:0|0:0,0:0:0:0:
280,75,227189,2,0,P|289:125|295:166,1,74.9999977111817,2|0,0:0|0:0,0:0:0:0:
356,189,227692,1,2,0:2:0:0:
356,189,228027,2,0,P|390:189|400:190,1,37.4999988555909,2|0,0:0|0:0,0:0:0:0:
456,236,228362,2,0,P|466:260|473:319,1,74.9999977111817,8|2,0:0|0:0,0:0:0:0:
473,308,229032,6,0,B|402:296|436:280|363:269,1,112.499996566773,2|2,0:0|0:0,0:0:0:0:
358,277,229703,1,8,0:0:0:0:
347,285,229870,2,0,P|306:290|271:296,1,74.9999977111817,2|0,0:0|0:0,0:0:0:0:
213,340,230373,1,2,0:0:0:0:
213,340,230876,1,2,0:0:0:0:
147,299,231044,2,0,P|141:268|131:222,1,74.9999977111817,10|2,0:0|0:0,0:0:0:0:
132,226,231714,6,0,P|169:220|214:210,1,74.9999977111817,2|0,0:0|0:0,0:0:0:0:
211,197,232217,2,0,P|238:201|252:204,1,37.4999988555909,2|8,0:0|0:0,0:0:0:0:
311,249,232552,1,2,0:0:0:0:
284,126,232887,1,0,0:0:0:0:
282,115,233055,1,2,0:0:0:0:
282,115,233390,2,0,L|364:109,2,74.9999977111817,2|8|2,0:0|0:0|0:0,0:0:0:0:
282,115,237077,6,0,P|288:212|289:261,1,143.750002741814,6|8,1:2|0:0,0:0:0:0:
165,211,237580,2,0,P|176:155|181:127,1,71.8750013709069,2|0,1:2|0:0,0:0:0:0:
84,224,237915,1,2,1:2:0:0:
218,272,238083,2,0,P|252:265|297:256,1,71.8750013709069,8|0,0:0|0:0,0:0:0:0:
402,343,238418,6,0,P|374:306|409:252,1,107.81250205636,2|0,1:2|0:0,0:0:0:0:
426,248,238753,1,10,0:0:0:0:
495,163,238921,1,0,1:0:0:0:
344,113,239088,2,0,P|356:174|360:201,1,71.8750013709069,2|0,0:0|1:0,0:0:0:0:
136,251,239424,2,0,P|142:215|149:180,1,71.8750013709069,10|0,0:0|0:0,0:0:0:0:
165,166,239675,1,2,0:0:0:0:
165,166,239759,6,0,B|88:175|88:175|51:154,1,107.81250205636,2|0,1:2|0:0,0:0:0:0:
42,145,240094,1,10,0:0:0:0:
197,62,240262,2,0,P|246:70|269:76,1,71.8750013709069,2|0,1:2|0:0,0:0:0:0:
413,177,240597,1,2,1:2:0:0:
346,238,240764,2,0,P|295:252|251:265,1,71.8750013709069,8|0,0:0|0:0,0:0:0:0:
139,361,241100,6,0,B|186:387|225:319|169:255,1,143.750002741814,2|8,1:2|0:0,0:0:0:0:
109,236,241602,1,0,1:0:0:0:
250,144,241770,2,0,P|262:108|268:64,1,71.8750013709069,2|0,0:0|1:0,0:0:0:0:
33,220,242105,2,0,P|16:179|8:134,1,71.8750013709069,10|0,0:0|0:0,0:0:0:0:
23,129,242356,1,2,0:0:0:0:
23,129,242440,6,0,B|84:130|59:108|130:110,1,107.81250205636,6|0,1:2|0:0,0:0:0:0:
152,122,242775,1,10,0:0:0:0:
260,232,242943,2,0,B|226:245|185:217|196:211|160:188|101:203,1,143.750002741814,2|0,1:2|1:0,0:0:0:0:
250,144,243446,1,8,0:0:0:0:
137,280,243613,1,2,0:0:0:0:
335,327,243781,6,0,P|340:277|348:214,1,107.81250205636,2|0,1:2|0:0,0:0:0:0:
365,200,244116,1,10,0:0:0:0:
202,61,244284,2,0,P|158:46|126:41,1,71.8750013709069,2|0,1:2|0:0,0:0:0:0:
20,249,244619,2,0,P|57:210|85:192,1,71.8750013709069,2|8,1:2|0:0,0:0:0:0:
227,288,244954,5,2,0:0:0:0:
227,288,245038,1,2,0:0:0:0:
227,288,245122,2,0,B|186:285|173:245|173:245|148:278|101:278,1,143.750002741814,2|8,1:2|0:0,0:0:0:0:
275,358,245625,2,0,P|328:344|368:331,1,71.8750013709069,2|0,1:2|0:0,0:0:0:0:
478,231,245960,1,2,1:2:0:0:
293,121,246127,2,0,L|312:259,1,107.81250205636,10|0,0:0|0:0,0:0:0:0:
374,264,246463,6,0,B|441:270|400:297|500:315,1,107.81250205636,2|0,1:2|0:0,0:0:0:0:
496,302,246798,1,10,0:0:0:0:
444,57,246965,1,2,1:3:0:0:
455,68,247301,5,0,1:0:0:0:
455,68,247384,1,0,1:0:0:0:
454,67,247468,2,0,B|437:60|418:59|418:59|386:64|370:87|366:125,1,121.874994421006,10|0,0:0|0:0,0:0:0:0:
314,171,247803,6,0,B|259:165|259:165|251:161|251:161|181:156,1,107.81250205636,6|0,1:2|0:0,0:0:0:0:
182,175,248139,1,10,0:0:0:0:
53,106,248306,2,0,P|39:72|28:38,1,71.8750013709069,2|0,1:2|0:0,0:0:0:0:
181,91,248641,1,2,1:2:0:0:
94,204,248809,2,0,P|52:197|13:193,1,71.8750013709069,8|0,0:0|0:0,0:0:0:0:
172,284,249144,6,0,P|235:267|288:256,1,107.81250205636,2|0,1:2|0:0,0:0:0:0:
307,272,249479,2,0,P|301:306|298:345,1,71.8750013709069,8|0,0:0|1:0,0:0:0:0:
433,177,249815,2,0,P|469:224|480:256,1,71.8750013709069,2|0,0:0|1:0,0:0:0:0:
240,146,250150,2,0,B|222:93|222:93|254:29,1,107.81250205636,10|0,0:0|0:0,0:0:0:0:
266,23,250485,6,0,P|211:33|132:40,1,107.81250205636,2|0,1:2|0:0,0:0:0:0:
139,31,250820,1,10,0:0:0:0:
38,152,250988,2,0,P|77:134|113:128,1,71.8750013709069,2|0,1:2|0:0,0:0:0:0:
273,180,251323,1,2,1:2:0:0:
221,237,251491,2,0,P|188:214|150:201,1,71.8750013709069,8|0,0:0|0:0,0:0:0:0:
133,209,251742,1,2,0:0:0:0:
133,209,251826,6,0,L|291:177,1,143.750002741814,2|8,1:2|0:0,0:0:0:0:
350,160,252329,1,0,1:0:0:0:
329,318,252496,2,0,P|306:291|311:253,1,71.8750013709069,2|0,0:0|1:0,0:0:0:0:
451,79,252831,2,0,P|473:105|471:140,1,71.8750013709069,10|0,0:0|0:0,0:0:0:0:
239,100,253167,6,0,B|169:81|204:71|126:55,1,107.81250205636,6|0,1:2|0:0,0:0:0:0:
110,71,253502,1,10,0:0:0:0:
19,193,253669,2,0,P|64:174|93:167,1,71.8750013709069,2|0,1:2|0:0,0:0:0:0:
250,300,254005,2,0,P|203:272|174:263,1,71.8750013709069,2|8,1:2|0:0,0:0:0:0:
328,136,254340,5,2,0:0:0:0:
328,136,254424,1,2,0:0:0:0:
328,136,254507,2,0,P|315:179|329:257,1,107.81250205636,2|0,1:2|0:0,0:0:0:0:
340,258,254843,2,0,P|381:254|423:248,1,71.8750013709069,10|0,0:0|1:0,0:0:0:0:
505,124,255178,2,0,P|469:119|433:115,1,71.8750013709069,2|0,0:0|1:0,0:0:0:0:
265,177,255513,2,0,B|288:134|288:134|273:70,1,107.81250205636,10|0,0:0|0:0,0:0:0:0:
258,57,255848,6,0,P|216:61|172:71,1,71.8750013709069,2|0,1:2|0:0,0:0:0:0:
58,148,256183,1,10,0:0:0:0:
58,148,256351,2,0,P|108:157|146:168,1,71.8750013709069,2|0,0:0|0:0,0:0:0:0:
239,256,256686,1,2,1:2:0:0:
129,352,256854,2,0,B|57:330|73:360|6:342,1,107.81250205636,10|0,0:0|0:0,0:0:0:0:
7,325,257189,6,0,P|2:283|1:232,1,71.8750013709069,2|0,1:2|1:0,0:0:0:0:
128,162,257524,1,10,0:0:0:0:
186,113,257692,2,0,P|195:74|199:35,1,71.8750013709069,2|0,0:0|1:0,0:0:0:0:
402,164,258027,5,10,0:0:0:0:
402,164,258111,1,8,0:0:0:0:
402,164,258194,1,8,0:0:0:0:
497,11,258362,2,0,P|479:11|461:15,1,35.9375006854534,4|4,0:3|0:3,0:0:0:0:
443,93,258530,6,0,B|379:68|410:54|347:25,1,107.81250205636,6|0,1:2|0:0,0:0:0:0:
330,39,258865,1,10,0:0:0:0:
257,156,259032,1,2,1:2:0:0:
402,164,259200,1,8,0:0:0:0:
245,67,259368,1,2,1:2:0:0:
245,67,259451,1,0,1:2:0:0:
245,67,259535,2,0,P|239:114|234:147,1,71.8750013709069,8|0,0:0|1:0,0:0:0:0:
107,264,259870,6,0,L|89:128,1,107.81250205636,6|0,1:2|0:0,0:0:0:0:
88,128,260206,1,10,0:0:0:0:
22,274,260373,1,2,1:2:0:0:
22,274,260457,1,0,1:0:0:0:
22,274,260541,1,8,0:0:0:0:
173,170,260708,1,2,0:0:0:0:
240,337,260876,1,10,0:0:0:0:
140,256,261044,2,0,L|193:245,1,35.9375006854534,2|4,1:2|0:3,0:0:0:0:
330,170,261211,5,14,0:0:0:0:
234,114,261379,1,0,1:0:0:0:
261,255,261546,1,2,1:2:0:0:
429,174,261714,6,0,P|417:127|410:55,1,107.81250205636,14|0,0:0|0:0,0:0:0:0:
418,43,262049,1,0,1:0:0:0:
309,191,262217,5,12,0:0:0:0:
506,134,262384,1,0,1:0:0:0:
327,291,262552,6,0,B|277:290|244:247|258:236|230:199|180:190,1,175,6|0,1:2|1:0,0:0:0:0:
173,206,263809,1,0,1:0:0:0:
173,206,263893,6,0,L|312:191,1,137.500004196167,14|0,0:2|1:0,0:0:0:0:
415,50,264396,1,14,0:0:0:0:
340,31,264563,2,0,B|329:64|329:64|342:110,1,68.7500020980836,0|0,1:0|1:0,0:0:0:0:
451,236,264898,2,0,B|460:203|460:203|449:170,1,68.7500020980836,10|0,0:0|1:0,0:0:0:0:
440,153,265150,1,0,1:0:0:0:
440,153,265234,6,0,B|404:147|377:162|388:165|365:183|323:176,1,103.125003147125,12|0,0:0|0:0,0:0:0:0:
314,172,265569,1,2,1:2:0:0:
196,83,265736,1,12,0:0:0:0:
116,210,265904,2,0,P|162:213|189:217,1,68.7500020980836,2|0,1:2|1:0,0:0:0:0:
88,76,266239,2,0,P|42:73|15:69,1,68.7500020980836,14|0,0:2|1:0,0:0:0:0:
5,52,266491,1,0,1:0:0:0:
5,52,266574,6,0,P|59:126|33:184,1,137.500004196167,14|0,0:0|1:0,0:0:0:0:
128,329,267077,2,0,B|164:353|185:319|187:266|148:229,1,137.500004196167,14|0,0:0|1:0,0:0:0:0:
296,136,267580,2,0,P|291:177|269:209,1,68.7500020980836,14|0,0:0|1:0,0:0:0:0:
88,76,267915,6,0,P|133:65|178:54,1,68.7500020980836,14|0,0:0|1:0,0:0:0:0:
218,144,268250,1,2,1:2:0:0:
352,47,268418,1,12,0:0:0:0:
272,14,268586,2,0,P|317:25|362:36,1,68.7500020980836,2|0,1:2|1:0,0:0:0:0:
473,117,268921,2,0,P|437:135|371:171,1,103.125003147125,14|0,0:0|0:0,0:0:0:0:
373,188,269256,6,0,L|364:303,1,100,6|0,1:2|1:0,0:0:0:0:
260,352,269926,2,0,L|252:252,1,100,0|0,1:2|1:0,0:0:0:0:
159,153,270429,6,0,L|152:126,2,16.6666666666667,2|2|2,0:0|0:0|0:0,0:0:0:0:
170,162,270597,2,0,P|124:176|100:197,1,56.2499982833863,2|0,1:2|0:0,0:0:0:0:
167,241,270932,2,0,P|134:276|123:306,1,56.2499982833863,2|0,1:2|0:0,0:0:0:0:
203,310,271267,2,0,P|192:356|198:388,1,56.2499982833863,2|0,1:2|0:0,0:0:0:0:
272,355,271602,1,2,1:2:0:0:
272,355,271770,1,2,0:0:0:0:
397,230,271937,6,0,P|406:174|419:102,1,112.499996566773,6|0,1:2|1:0,0:0:0:0:
473,27,272440,1,8,0:0:0:0:
351,59,272608,1,0,1:0:0:0:
486,54,272775,1,8,0:0:0:0:
355,162,272943,5,8,0:0:0:0:
276,24,273111,1,8,0:0:0:0:
154,263,273278,5,10,0:0:0:0:
259,122,273446,1,8,0:0:0:0:
127,146,273613,1,8,0:0:0:0:
279,239,273781,1,8,0:0:0:0:
182,68,273949,6,0,L|104:57,1,56.2499982833863,8|0,0:0|0:0,0:0:0:0:
108,56,274200,1,4,0:3:0:0:
108,56,274284,1,4,0:3:0:0:
11,134,274451,6,0,L|54:129,1,28.1249991416931,2|2,0:0|0:0,0:0:0:0:
147,262,274619,1,4,1:2:0:0:
256,192,274703,12,0,279982,0:0:0:0:
