osu file format v14

[General]
AudioFilename: audio.mp3
AudioLeadIn: 0
PreviewTime: 63895
Countdown: 1
SampleSet: Soft
StackLeniency: 0.6
Mode: 0
LetterboxInBreaks: 0
WidescreenStoryboard: 1

[Editor]
DistanceSpacing: 0.9
BeatDivisor: 4
GridSize: 8
TimelineZoom: 2.9

[Metadata]
Title:Rinne
TitleUnicode:輪廻
Artist:Yamamoto Mineko
ArtistUnicode:山本美禰子
Creator:-Brethia
Version:Satellite's Extra
Source:さくら、もゆ。-as the Night's, Reincarnation-
Tags:Japanese Sakura Moyu Night 2nd Opening op2 Favorite Eroge Complete Album Original Soundtrack video game 石倉誉之 小高光太郎 Ishikura Takayuki Odaka Kotaro _kotachi_ kotachi dubturt Satellite
BeatmapID:2377851
BeatmapSetID:999356

[Difficulty]
HPDrainRate:5
CircleSize:4
OverallDifficulty:8.6
ApproachRate:9.2
SliderMultiplier:1.7
SliderTickRate:1

[Events]
//Background and Video events
0,0,"BG.jpg",0,0
//Break Periods
2,215757,225714
//Storyboard Layer 0 (Background)
//Storyboard Layer 1 (Fail)
//Storyboard Layer 2 (Pass)
//Storyboard Layer 3 (Foreground)
//Storyboard Layer 4 (Overlay)
//Storyboard Sound Samples

[TimingPoints]
-308,335.195530726257,4,2,1,40,1,0
697,-142.857142857143,4,2,3,40,0,0
11423,-181.818181818182,4,2,1,50,0,0
11759,-117.647058823529,4,2,1,40,0,0
16786,-100,4,2,1,60,0,0
22485,-181.818181818182,4,2,1,60,0,0
23826,-111.111111111111,4,2,1,60,0,0
25166,-142.857142857143,4,2,1,50,0,0
32373,-125,4,2,1,40,0,0
32876,-142.857142857143,4,2,1,50,0,0
35893,-125,4,2,1,50,0,0
40921,-166.666666666667,4,2,1,60,0,0
41256,-111.111111111111,4,2,1,50,0,0
41591,-125,4,2,1,50,0,0
43602,-125,4,2,1,30,0,0
43937,-111.111111111111,4,2,1,50,0,0
44943,-100,4,2,1,50,0,0
45110,-83.3333333333333,4,2,1,50,0,0
46284,-166.666666666667,4,2,1,50,0,0
46619,-100,4,2,1,50,0,0
57345,-90.9090909090909,4,2,1,60,0,0
65055,-142.857142857143,4,2,1,70,0,0
65390,-83.3333333333333,4,2,1,70,0,0
65725,-90.9090909090909,4,2,1,70,0,0
70753,-90.9090909090909,4,2,2,70,0,0
70921,-90.9090909090909,4,2,1,70,0,0
75781,-142.857142857143,4,2,1,70,0,0
76116,-83.3333333333333,4,2,1,70,0,0
76451,-90.9090909090909,4,2,1,70,0,0
89524,-90.9090909090909,4,2,2,70,0,0
90865,-181.818181818182,4,2,1,70,0,0
91535,-90.9090909090909,4,2,1,70,0,0
92205,-100,4,2,1,60,0,0
100250,-100,4,2,2,60,0,0
101591,-100,4,2,1,60,0,0
102932,-125,4,2,1,50,0,0
113323,-90.9090909090909,4,2,1,50,0,0
113658,-111.111111111111,4,2,1,60,0,0
114831,-90.9090909090909,4,2,1,60,0,0
115502,-111.111111111111,4,2,1,60,0,0
117513,-90.9090909090908,4,2,1,60,0,0
123379,-83.3333333333333,4,2,1,60,0,0
124049,-100,4,2,1,50,0,0
135110,-90.9090909090909,4,2,1,60,0,0
143155,-83.3333333333333,4,2,1,70,0,0
143490,-90.9090909090909,4,2,1,70,0,0
148518,-90.9090909090909,4,2,2,70,0,0
148686,-90.9090909090909,4,2,1,70,0,0
153546,-142.857142857143,4,2,1,70,0,0
153881,-83.3333333333333,4,2,1,70,0,0
154217,-90.9090909090909,4,2,1,70,0,0
167289,-90.9090909090909,4,2,2,70,0,0
168630,-90.9090909090909,4,2,1,70,0,0
168798,-117.647058823529,4,2,1,70,0,0
169300,-90.9090909090909,4,2,1,70,0,0
169971,-111.111111111111,4,2,1,50,0,0
170055,-111.111111111111,4,2,2,50,0,0
170976,-166.666666666666,4,2,2,50,0,0
171312,-111.111111111111,4,2,2,50,0,0
183379,-100,4,2,2,50,0,0
190083,-90.9090909090909,4,2,2,50,0,0
191423,-90.9090909090909,4,2,1,60,0,0
194105,-90.9090909090909,4,2,2,60,0,0
194189,-90.9090909090909,4,2,1,60,0,0
196786,-90.9090909090909,4,2,2,60,0,0
197038,-90.9090909090909,4,2,1,60,0,0
212876,-200,4,2,1,40,0,0
215557,-200,4,2,3,40,0,0
226284,-142.857142857143,4,2,3,40,0,0
236675,-111.111111111111,4,2,1,70,0,0
237010,-83.3333333333334,4,2,1,70,0,0
242373,-83.3333333333334,4,2,2,70,0,0
242541,-83.3333333333334,4,2,1,70,0,0
247401,-200,4,2,1,70,0,0
247736,-83.3333333333333,4,2,1,70,0,0
261144,-83.3333333333333,4,2,2,70,0,0
262485,-166.666666666667,4,2,1,70,0,0
263155,-83.3333333333333,4,2,1,60,0,0
263826,-100,4,2,1,60,0,0
272205,-83.3333333333333,4,2,2,60,0,0
274384,-83.3333333333333,4,2,1,60,0,0
274552,-250.000000000001,4,2,1,60,0,0
279915,-250.000000000001,4,2,1,5,0,0

[Colours]
Combo1 : 128,255,128
Combo2 : 255,159,207
Combo3 : 255,87,171
Combo4 : 255,255,111

[HitObjects]
59,354,1032,6,0,P|55:320|45:233,1,118.999996368408,4|0,0:0|0:0,0:0:0:0:
220,321,1535,1,0,0:0:0:0:
127,286,1870,2,0,P|159:287|203:291,1,59.4999981842042,0|0,0:0|0:0,0:0:0:0:
310,361,2205,1,2,0:0:0:0:
456,285,2373,6,0,P|425:291|394:295,1,59.4999981842042,0|0,0:0|0:0,0:0:0:0:
295,247,2708,1,0,0:0:0:0:
439,188,2876,2,0,P|401:193|334:148,1,118.999996368408,2|0,0:0|0:0,0:0:0:0:
409,106,3379,1,2,0:0:0:0:
255,219,3714,6,0,P|250:144|249:97,1,118.999996368408,4|0,0:0|0:0,0:0:0:0:
363,302,4217,2,0,B|295:277|314:317|235:309,1,118.999996368408,2|0,0:0|0:0,0:0:0:0:
91,216,4887,1,2,0:0:0:0:
158,321,5055,6,0,P|167:288|168:254,1,59.4999981842042,0|0,0:0|0:0,0:0:0:0:
299,248,5390,2,0,P|284:216|278:183,1,59.4999981842042,0|2,0:0|0:0,0:0:0:0:
402,127,5725,2,0,P|395:155|382:182,1,59.4999981842042,2|0,0:0|0:0,0:0:0:0:
201,192,6060,6,0,B|133:167|152:207|73:199,1,118.999996368408,2|4,0:0|0:0,0:0:0:0:
289,114,6731,1,0,0:0:0:0:
129,22,6898,2,0,P|133:65|142:152,1,118.999996368408,0|0,0:0|0:0,0:0:0:0:
383,183,7401,1,2,0:0:0:0:
282,349,7736,6,0,P|286:305|295:219,1,118.999996368408,2|0,0:0|0:0,0:0:0:0:
386,115,8239,2,0,P|390:148|397:190,1,59.4999981842042,2|0,0:0|0:0,0:0:0:0:
307,55,8574,1,0,0:0:0:0:
204,157,8742,2,0,P|241:154|314:151,1,89.2499972763062,2|0,0:0|0:0,0:0:0:0:
304,156,9077,5,4,0:0:0:0:
157,245,9412,1,0,0:0:0:0:
105,162,9580,2,0,L|93:93,1,59.4999981842042,0|0,0:0|0:0,0:0:0:0:
166,239,9915,2,0,L|154:308,1,59.4999981842042,2|0,0:0|0:0,0:0:0:0:
88,375,10250,5,2,0:0:0:0:
250,337,10585,1,0,0:0:0:0:
410,383,10921,2,0,P|432:349|424:301,1,89.2499972763062,2|0,0:0|0:0,0:0:0:0:
398,270,11256,1,2,0:0:0:0:
250,337,11423,6,0,P|285:336|328:334,1,70.1250021400452,0|0,0:0|0:0,0:0:0:0:
360,331,11759,5,12,0:1:0:0:
151,382,12094,1,0,0:0:0:0:
266,257,12261,2,0,P|209:254|139:251,1,108.375002067089,0|0,0:0|0:0,0:0:0:0:
125,260,12597,6,0,P|122:226|118:188,1,72.2500013780594,2|2,0:0|0:0,0:0:0:0:
196,82,12932,1,2,0:0:0:0:
344,178,13099,5,0,0:0:0:0:
212,203,13267,1,0,0:2:0:0:
384,246,13435,1,0,0:0:0:0:
304,110,13602,6,0,P|298:181|292:260,1,144.500002756119,0|0,0:0|0:0,0:0:0:0:
125,183,14105,2,0,L|45:178,1,72.2500013780594,2|0,0:0|0:0,0:0:0:0:
183,272,14440,5,2,0:0:0:0:
147,94,14775,1,2,0:0:0:0:
292,254,14943,5,2,0:0:0:0:
304,110,15278,1,2,0:0:0:0:
401,236,15613,5,2,0:0:0:0:
220,174,15781,5,0,0:0:0:0:
384,144,15948,1,2,0:0:0:0:
386,133,16032,1,0,0:0:0:0:
388,122,16116,1,0,0:0:0:0:
276,29,16284,1,2,0:0:0:0:
468,185,16451,5,2,0:0:0:0:
304,155,16619,1,0,0:0:0:0:
412,40,16786,2,0,L|400:115,3,42.5,10|0|8|0,0:1|0:0|0:1|0:0,0:0:0:0:
468,185,17122,5,12,0:0:0:0:
248,214,17289,1,8,0:1:0:0:
364,249,17457,1,8,0:1:0:0:
72,250,17624,5,8,0:0:0:0:
292,280,17792,1,8,0:1:0:0:
176,315,17960,1,8,0:1:0:0:
468,316,18127,5,10,0:0:0:0:
248,346,18295,1,8,0:1:0:0:
501,214,18462,5,10,0:0:0:0:
325,349,18630,1,8,0:1:0:0:
459,85,18798,5,10,0:1:0:0:
374,289,18965,1,8,0:0:0:0:
367,72,19133,5,10,0:1:0:0:
451,276,19300,1,8,0:1:0:0:
283,185,19468,5,8,0:0:0:0:
501,214,19636,1,8,0:1:0:0:
179,250,19803,5,10,0:0:0:0:
399,221,19971,1,8,0:1:0:0:
283,185,20138,1,8,0:1:0:0:
462,72,20306,5,10,0:0:0:0:
242,102,20474,1,10,0:1:0:0:
359,137,20641,1,8,0:1:0:0:
63,215,20809,5,8,0:0:0:0:
63,215,21144,5,8,0:1:0:0:
283,245,21312,1,10,0:0:0:0:
167,280,21479,5,8,0:1:0:0:
399,210,21647,1,8,0:1:0:0:
140,208,21814,5,8,0:0:0:0:
372,278,21982,1,8,0:1:0:0:
90,267,22150,5,12,0:0:0:0:
323,197,22317,1,8,0:1:0:0:
116,137,22485,5,12,0:1:0:0:
256,192,22569,12,0,23658,0:0:0:0:
44,384,23826,5,0,0:0:0:0:
56,348,23909,1,0,0:0:0:0:
86,324,23993,1,2,0:0:0:0:
123,318,24077,1,2,0:0:0:0:
159,330,24161,2,0,L|204:338,1,38.2499988327027,2|2,0:0|0:0,0:0:0:0:
245,272,24328,2,0,L|282:265,1,38.2499988327027,8|2,0:3|0:0,0:0:0:0:
373,292,24496,5,2,0:0:0:0:
409,280,24580,1,2,0:0:0:0:
433,250,24664,1,4,0:3:0:0:
439,213,24747,1,2,0:0:0:0:
427,177,24831,2,0,L|419:132,1,38.2499988327027,4|2,0:3|0:0,0:0:0:0:
463,34,24999,2,0,L|456:71,1,38.2499988327027,2|2,0:0|0:0,0:0:0:0:
341,173,25166,6,0,B|277:159|288:199|213:195,1,118.999996368408,12|0,0:1|0:0,0:0:0:0:
122,163,25669,1,2,0:0:0:0:
248,284,25837,2,0,P|206:277|182:276,1,59.4999981842042,0|2,0:0|0:0,0:0:0:0:
142,380,26172,2,0,P|171:377|200:372,1,59.4999981842042,2|0,0:0|0:0,0:0:0:0:
380,332,26507,6,0,P|374:298|367:249,1,59.4999981842042,2|0,0:0|0:0,0:0:0:0:
234,151,26842,1,0,0:0:0:0:
148,245,27010,2,0,B|210:227|197:261|265:244,1,118.999996368408,2|0,0:0|0:0,0:0:0:0:
370,273,27513,1,2,0:0:0:0:
329,85,27680,2,0,L|325:114,1,29.7499990921021,8|0,0:1|0:0,0:0:0:0:
236,139,27848,6,0,L|159:134,1,59.4999981842042,10|0,0:1|0:0,0:0:0:0:
315,202,28183,1,0,0:0:0:0:
157,264,28351,2,0,L|234:259,1,59.4999981842042,2|0,0:0|0:0,0:0:0:0:
353,318,28686,2,0,L|276:313,1,59.4999981842042,2|0,0:0|0:0,0:0:0:0:
112,354,29021,1,0,0:0:0:0:
220,378,29189,6,0,P|218:319|216:260,1,118.999996368408,2|0,0:0|0:1,0:0:0:0:
236,132,29692,2,0,L|272:126,1,29.7499990921021,8|0,0:1|0:0,0:0:0:0:
295,123,29859,2,0,P|293:64|292:5,1,118.999996368408,2|2,0:0|0:0,0:0:0:0:
374,181,30362,1,8,0:1:0:0:
468,50,30529,6,0,P|465:85|463:129,1,59.4999981842042,10|0,0:1|0:0,0:0:0:0:
369,187,30865,2,0,P|371:222|374:266,1,59.4999981842042,0|0,0:0|0:0,0:0:0:0:
495,353,31200,2,0,P|465:351|435:349,1,59.4999981842042,0|0,0:0|0:0,0:0:0:0:
305,321,31535,1,2,0:0:0:0:
203,358,31703,1,0,0:0:0:0:
373,247,31870,6,0,P|303:243|250:239,1,118.999996368408,2|0,0:0|0:0,0:0:0:0:
91,200,32373,6,0,P|141:208|211:147,1,136,2|8,0:0|0:1,0:0:0:0:
165,76,32876,1,2,0:0:0:0:
313,167,33043,2,0,L|318:132,1,29.7499990921021,8|0,0:1|0:0,0:0:0:0:
323,103,33211,6,0,L|388:100,1,59.4999981842042,10|0,0:1|0:0,0:0:0:0:
298,237,33546,1,0,0:0:0:0:
207,160,33714,2,0,L|142:157,1,59.4999981842042,2|0,0:0|0:0,0:0:0:0:
238,330,34049,1,0,0:0:0:0:
366,234,34217,2,0,L|301:231,1,59.4999981842042,2|0,0:0|0:0,0:0:0:0:
91,276,34552,5,0,0:0:0:0:
163,297,34719,5,2,0:0:0:0:
77,203,34887,1,2,0:0:0:0:
39,329,35055,1,8,0:1:0:0:
208,202,35222,5,2,0:0:0:0:
238,330,35390,1,8,0:1:0:0:
320,135,35557,5,2,0:0:0:0:
410,231,35725,1,0,0:0:0:0:
200,205,35893,6,0,P|195:131|190:63,1,136,10|0,0:1|0:0,0:0:0:0:
295,286,36395,2,0,P|252:275|163:315,1,136,2|0,0:0|0:0,0:0:0:0:
357,234,36898,2,0,P|365:187|373:160,1,68,2|0,0:0|0:0,0:0:0:0:
436,117,37233,6,0,P|382:135|301:113,1,136,10|0,0:1|0:0,0:0:0:0:
190,195,37736,1,2,0:1:0:0:
203,31,37904,2,0,P|206:61|212:123,1,68,0|0,0:0|0:0,0:0:0:0:
95,221,38239,2,0,P|98:187|101:153,1,68,2|2,0:0|0:0,0:0:0:0:
299,290,38574,6,0,B|265:276|265:276|236:290|236:290|160:287,1,136,10|0,0:1|0:0,0:0:0:0:
356,229,39077,2,0,B|346:197|346:197|339:157,1,68,2|0,0:0|0:0,0:0:0:0:
443,276,39412,1,2,0:0:0:0:
263,202,39580,1,0,0:0:0:0:
411,60,39747,2,0,L|414:106,1,34,8|0,0:1|0:0,0:0:0:0:
417,125,39915,6,0,L|321:132,1,68,10|0,0:1|0:0,0:0:0:0:
252,210,40250,2,0,L|156:203,1,68,2|8,0:0|0:1,0:0:0:0:
51,269,40585,2,0,L|119:265,1,68,2|0,0:0|0:0,0:0:0:0:
291,334,40921,6,0,B|259:311|259:311|210:330,1,76.4999976654053,10|0,0:1|0:0,0:0:0:0:
193,358,41256,6,0,L|184:193,1,152.999995330811,10|0,0:1|0:0,0:0:0:0:
108,346,41759,1,0,0:0:0:0:
266,262,41926,1,0,0:0:0:0:
195,107,42094,1,0,0:0:0:0:
272,268,42261,2,0,L|342:263,1,68,2|0,0:0|0:0,0:0:0:0:
346,167,42597,6,0,L|225:177,1,102,10|0,0:1|0:0,0:0:0:0:
233,186,42932,1,0,0:0:0:0:
426,225,43099,2,0,P|428:189|433:151,1,68,2|0,0:0|0:0,0:0:0:0:
339,263,43435,1,0,0:0:0:0:
445,342,43602,2,0,B|385:333|385:333|369:344|342:346,1,102,4|0,0:0|0:0,0:0:0:0:
342,354,43937,6,0,P|303:353|253:354,1,76.4999976654053,10|0,0:1|0:0,0:0:0:0:
73,317,44273,1,8,0:1:0:0:
165,381,44440,2,0,P|167:311|170:224,1,152.999995330811,0|0,0:0|0:0,0:0:0:0:
300,60,44943,6,0,L|258:64,1,42.5,8|0,0:1|0:0,0:0:0:0:
131,147,45110,6,0,B|199:125|205:166|281:158,1,152.999995330811,12|0,0:0|0:0,0:0:0:0:
297,155,45446,1,2,0:0:0:0:
195,307,45613,1,4,0:3:0:0:
314,266,45781,1,8,0:3:0:0:
169,228,45948,5,8,0:1:0:0:
285,347,46116,1,4,0:3:0:0:
409,257,46284,6,0,B|376:237|376:237|325:245,1,76.4999976654053,8|0,0:1|0:0,0:0:0:0:
314,266,46619,6,0,P|310:224|304:166,1,85,12|0,0:1|0:0,0:0:0:0:
403,53,46954,2,0,P|399:95|393:153,1,85,8|0,0:1|0:0,0:0:0:0:
365,337,47289,2,0,P|326:353|285:347,1,85,8|0,0:1|0:0,0:0:0:0:
151,268,47624,1,8,0:1:0:0:
373,344,47792,1,0,0:0:0:0:
314,266,47960,6,0,P|310:224|304:166,1,85,10|0,0:1|0:0,0:0:0:0:
198,340,48295,1,8,0:1:0:0:
210,234,48462,2,0,B|127:212|139:282|26:270,1,170,2|2,0:0|0:0,0:0:0:0:
152,139,48965,1,8,0:1:0:0:
219,239,49133,1,2,0:0:0:0:
66,185,49300,6,0,P|49:140|59:102,1,85,8|0,0:1|0:0,0:0:0:0:
141,36,49636,1,8,0:1:0:0:
247,109,49803,1,2,0:0:0:0:
152,139,49971,1,8,0:1:0:0:
329,147,50138,1,2,0:0:0:0:
240,101,50306,1,8,0:1:0:0:
135,234,50474,1,2,0:0:0:0:
233,93,50641,6,0,L|240:184,1,85,10|0,0:1|0:0,0:0:0:0:
397,277,50976,1,8,0:1:0:0:
312,312,51144,2,0,L|318:227,1,85,2|8,0:0|0:1,0:0:0:0:
149,324,51479,1,2,0:0:0:0:
234,359,51647,2,0,L|227:274,1,85,8|2,0:1|0:0,0:0:0:0:
146,152,51982,6,0,B|201:141|201:141|226:120|226:120|259:127|308:130,1,170,8|8,0:1|0:1,0:0:0:0:
474,256,52485,2,0,P|432:215|322:250,1,170,2|2,0:0|0:0,0:0:0:0:
232,325,52988,1,8,0:1:0:0:
397,296,53155,1,2,0:0:0:0:
300,143,53323,6,0,L|296:55,1,85,8|0,0:1|0:0,0:0:0:0:
420,85,53658,2,0,L|416:169,1,85,8|2,0:1|0:0,0:0:0:0:
318,345,53993,6,0,L|314:257,1,85,8|0,0:1|0:0,0:0:0:0:
408,180,54328,2,0,B|365:168|365:168|343:176|343:176|263:182,1,127.5,10|0,0:1|0:0,0:0:0:0:
194,218,54664,6,0,B|174:179|174:179|172:134,1,85,8|0,0:1|0:0,0:0:0:0:
296,58,54999,1,8,0:1:0:0:
274,276,55166,1,0,0:0:0:0:
102,200,55334,5,8,0:1:0:0:
284,181,55502,1,2,0:0:0:0:
194,218,55669,5,8,0:1:0:0:
362,240,55837,1,0,0:0:0:0:
118,276,56004,6,0,P|96:241|102:200,1,85,10|0,0:1|0:0,0:0:0:0:
274,276,56340,1,8,0:1:0:0:
117,369,56507,1,2,0:0:0:0:
194,218,56675,5,8,0:1:0:0:
213,195,56759,1,0,0:0:0:0:
239,181,56842,1,8,0:1:0:0:
268,174,56926,1,0,0:0:0:0:
297,176,57010,2,0,P|321:184|345:203,1,42.5,10|0,0:0|0:0,0:0:0:0:
200,100,57178,2,0,P|195:74|199:44,1,42.5,2|0,0:0|0:0,0:0:0:0:
194,218,57345,6,0,B|122:232|53:205|53:205|71:246|58:268,1,187.000005706787,12|8,0:1|0:0,0:0:0:0:
253,296,57848,2,0,P|291:215|249:136,1,187.000005706787,10|8,0:1|0:1,0:0:0:0:
145,320,58351,1,8,0:0:0:0:
361,272,58518,1,2,0:0:0:0:
194,218,58686,6,0,L|132:214,1,46.7500014266968,12|0,0:0|0:0,0:0:0:0:
327,183,58854,1,8,0:0:0:0:
342,160,58937,1,8,0:3:0:0:
342,131,59021,1,4,0:3:0:0:
246,33,59189,1,4,0:3:0:0:
235,31,59524,1,8,0:1:0:0:
342,131,59692,5,8,0:0:0:0:
148,215,59859,1,2,0:0:0:0:
330,340,60027,6,0,B|378:326|423:334|423:334|432:314|441:287,1,140.25000428009,12|0,0:1|0:0,0:0:0:0:
436,254,60362,1,8,0:0:0:0:
197,314,60529,2,0,B|141:286|85:305|85:305|76:285|57:269|28:260,1,187.000005706787,10|4,0:1|0:3,0:0:0:0:
13,340,60948,1,0,0:0:0:0:
13,340,61032,1,8,0:0:0:0:
148,215,61200,1,0,0:0:0:0:
62,33,61367,6,0,P|66:83|73:157,1,93.5000028533936,8|8,0:0|0:1,0:0:0:0:
206,320,61703,1,8,0:0:0:0:
444,210,61870,2,0,B|370:204|370:204|333:233|333:233|267:227,1,187.000005706787,12|8,0:1|0:1,0:0:0:0:
15,297,62373,2,0,B|59:280|59:280|104:292,1,93.5000028533936,8|8,0:0|0:1,0:0:0:0:
302,343,62708,5,8,0:0:0:0:
168,214,62876,1,10,0:1:0:0:
64,368,63043,1,10,0:1:0:0:
284,160,63211,5,8,0:0:0:0:
180,314,63379,1,10,0:1:0:0:
46,184,63546,1,8,0:1:0:0:
311,251,63714,5,8,0:0:0:0:
29,279,63881,2,0,B|106:264|89:308|168:295,1,140.25000428009,12|0,0:0|0:0,0:0:0:0:
180,314,64217,1,12,0:0:0:0:
339,109,64384,5,8,0:0:0:0:
339,109,64719,1,8,0:0:0:0:
313,147,64803,1,8,0:0:0:0:
270,169,64887,1,4,0:3:0:0:
223,171,64971,1,4,0:3:0:0:
181,149,65055,2,0,L|92:158,1,89.2499972763062,8|0,0:0|0:0,0:0:0:0:
0,243,65390,6,0,B|35:228|35:228|62:244|62:244|162:253,1,152.999995330811,12|0,0:1|0:0,0:0:0:0:
346,283,65725,2,0,L|300:286,1,46.7500014266968,10|0,0:0|0:0,0:0:0:0:
239,337,65893,2,0,P|219:294|229:248,1,93.5000028533936,10|0,0:1|0:0,0:0:0:0:
362,197,66228,1,10,0:1:0:0:
362,197,66312,1,0,0:0:0:0:
362,197,66395,1,8,0:0:0:0:
298,89,66563,2,0,L|305:159,1,46.7500014266968,2|0,0:0|0:0,0:0:0:0:
423,249,66731,6,0,P|443:206|433:160,1,93.5000028533936,8|8,0:1|0:1,0:0:0:0:
213,119,67066,1,8,0:0:0:0:
362,197,67233,1,8,0:1:0:0:
129,257,67401,1,2,0:0:0:0:
278,179,67569,1,8,0:1:0:0:
153,64,67736,2,0,P|133:107|143:153,1,93.5000028533936,10|0,0:0|3:0,0:0:0:0:
346,270,68071,6,0,B|292:263|292:263|268:277|268:277|210:271,1,140.25000428009,10|0,0:1|0:0,0:0:0:0:
8,289,68407,2,0,L|74:296,1,46.7500014266968,8|0,0:0|0:0,0:0:0:0:
121,347,68574,2,0,B|135:302|135:302|129:257,1,93.5000028533936,10|0,0:1|0:0,0:0:0:0:
213,119,68909,1,8,0:1:0:0:
213,119,68993,1,0,0:0:0:0:
213,119,69077,1,8,0:0:0:0:
100,169,69245,2,0,L|166:176,1,46.7500014266968,2|0,0:0|0:0,0:0:0:0:
280,170,69412,6,0,B|294:125|294:125|288:80,1,93.5000028533936,8|8,0:1|0:1,0:0:0:0:
159,50,69747,1,8,0:0:0:0:
368,145,69915,1,8,0:1:0:0:
129,256,70083,5,2,0:0:0:0:
340,218,70250,2,0,L|273:211,1,46.7500014266968,8|0,0:1|0:0,0:0:0:0:
119,274,70418,2,0,B|185:260|171:302|267:299,1,140.25000428009,10|0,0:0|0:0,0:0:0:0:
278,292,70753,6,0,P|265:344|281:385,1,93.5000028533936,6|0,0:0|0:0,0:0:0:0:
417,261,71088,1,8,0:0:0:0:
337,125,71256,2,0,B|282:114|282:114|234:153|234:153|166:162,1,187.000005706787,10|8,0:1|0:1,0:0:0:0:
57,77,71759,1,8,0:0:0:0:
148,223,71926,2,0,L|155:162,1,46.7500014266968,2|2,0:0|0:0,0:0:0:0:
61,318,72094,6,0,B|105:300|105:300|151:305,1,93.5000028533936,10|8,0:1|0:1,0:0:0:0:
364,338,72429,1,8,0:0:0:0:
277,380,72597,2,0,P|264:336|278:292,1,93.5000028533936,10|0,0:1|0:0,0:0:0:0:
434,229,72932,1,8,0:1:0:0:
310,79,73099,2,0,L|315:125,1,46.7500014266968,8|0,0:0|0:0,0:0:0:0:
337,214,73267,5,2,0:0:0:0:
337,214,73351,1,2,0:0:0:0:
337,214,73435,2,0,B|274:193|283:236|195:228,1,140.25000428009,10|0,0:1|0:0,0:0:0:0:
167,215,73770,1,10,0:0:0:0:
85,322,73937,2,0,P|60:276|73:235,1,93.5000028533936,10|0,0:1|0:0,0:0:0:0:
220,142,74273,1,10,0:1:0:0:
113,37,74440,2,0,P|118:83|126:129,1,93.5000028533936,8|0,0:0|0:0,0:0:0:0:
189,308,74775,5,10,0:1:0:0:
231,287,74859,1,2,3:2:0:0:
277,289,74943,1,2,3:2:0:0:
321,304,75027,1,2,3:2:0:0:
366,298,75110,1,8,0:0:0:0:
229,165,75278,2,0,L|237:238,1,46.7500014266968,12|0,0:0|0:0,0:0:0:0:
254,366,75446,5,0,0:0:0:0:
402,213,75613,2,0,L|352:207,1,46.7500014266968,8|8,0:1|0:1,0:0:0:0:
165,110,75781,6,0,P|192:83|246:83,1,89.2499972763062,8|0,0:0|0:0,0:0:0:0:
410,230,76116,6,0,B|350:222|350:222|322:241|322:241|257:237,1,152.999995330811,12|0,0:1|0:0,0:0:0:0:
71,281,76451,2,0,L|126:277,1,46.7500014266968,8|0,0:0|0:0,0:0:0:0:
201,195,76619,2,0,P|187:236|201:283,1,93.5000028533936,10|0,0:1|0:0,0:0:0:0:
295,157,76954,1,10,0:1:0:0:
295,157,77038,1,0,0:0:0:0:
295,157,77122,1,8,0:0:0:0:
237,34,77289,2,0,L|241:81,1,46.7500014266968,2|0,0:0|0:0,0:0:0:0:
263,237,77457,6,0,B|311:240|311:240|363:217,1,93.5000028533936,8|8,0:1|0:1,0:0:0:0:
207,174,77792,1,10,0:0:0:0:
158,345,77960,1,8,0:1:0:0:
353,222,78127,1,2,0:0:0:0:
146,247,78295,1,8,0:1:0:0:
408,279,78462,2,0,P|431:235|424:192,1,93.5000028533936,10|0,0:0|3:0,0:0:0:0:
237,34,78798,6,0,P|243:94|247:141,1,93.5000028533936,10|0,0:1|0:0,0:0:0:0:
238,324,79133,1,8,0:0:0:0:
353,222,79300,2,0,B|307:209|307:209|262:218,1,93.5000028533936,10|0,0:1|0:0,0:0:0:0:
79,300,79636,1,10,0:1:0:0:
238,324,79803,1,8,0:0:0:0:
142,89,79971,5,2,0:0:0:0:
142,89,80055,1,0,0:0:0:0:
142,89,80138,2,0,P|145:141|150:207,1,93.5000028533936,8|8,0:1|0:1,0:0:0:0:
73,346,80474,2,0,L|79:300,1,46.7500014266968,8|0,0:0|0:0,0:0:0:0:
233,277,80641,2,0,L|238:323,1,46.7500014266968,8|0,0:1|0:0,0:0:0:0:
393,365,80809,6,0,P|414:324|408:279,1,93.5000028533936,2|8,0:0|0:1,0:0:0:0:
235,136,81144,2,0,P|302:132|390:126,1,140.25000428009,10|0,0:0|0:0,0:0:0:0:
421,108,81479,6,0,B|378:86|378:86|329:97,1,93.5000028533936,12|0,0:1|0:0,0:0:0:0:
208,221,81814,1,8,0:0:0:0:
87,32,81982,2,0,P|96:99|102:146,1,93.5000028533936,10|0,0:1|0:0,0:0:0:0:
24,331,82317,2,0,P|2:290|9:244,1,93.5000028533936,10|8,0:1|0:0,0:0:0:0:
184,138,82652,1,2,0:0:0:0:
273,277,82820,6,0,B|213:261|222:301|131:289,1,140.25000428009,8|0,0:1|0:0,0:0:0:0:
99,274,83155,1,8,0:0:0:0:
249,360,83323,1,8,0:1:0:0:
377,244,83490,2,0,P|394:204|380:149,1,93.5000028533936,2|8,0:0|0:1,0:0:0:0:
171,45,83826,2,0,P|176:91|183:137,1,93.5000028533936,8|0,0:0|0:0,0:0:0:0:
314,194,84161,6,0,B|250:183|250:183|216:212|216:212|131:220,1,187.000005706787,10|8,0:1|0:0,0:0:0:0:
274,362,84664,2,0,B|284:318|284:318|276:271,1,93.5000028533936,10|0,0:1|0:0,0:0:0:0:
185,138,84999,1,8,0:1:0:0:
67,298,85166,2,0,B|131:276|127:319|210:313,1,140.25000428009,8|0,0:0|0:0,0:0:0:0:
276,271,85502,5,10,0:1:0:0:
281,243,85585,1,2,0:0:0:0:
281,215,85669,1,10,0:1:0:0:
277,187,85753,1,2,0:0:0:0:
268,161,85837,1,12,0:0:0:0:
258,133,85921,1,0,0:0:0:0:
254,106,86004,1,0,0:0:0:0:
254,78,86088,1,0,0:0:0:0:
259,51,86172,1,8,0:1:0:0:
356,142,86340,5,8,0:0:0:0:
314,163,86423,1,8,0:0:0:0:
268,161,86507,1,8,0:0:0:0:
224,146,86591,1,8,0:3:0:0:
179,152,86675,1,4,0:3:0:0:
151,177,86759,1,4,0:3:0:0:
141,208,86842,6,0,P|138:161|120:116,1,93.5000028533936,12|0,0:1|0:0,0:0:0:0:
41,270,87178,5,8,0:0:0:0:
221,227,87345,1,8,0:1:0:0:
130,214,87513,5,8,0:0:0:0:
310,257,87680,1,8,0:1:0:0:
219,270,87848,5,8,0:0:0:0:
399,227,88016,1,8,0:1:0:0:
279,170,88183,5,12,0:0:0:0:
341,344,88351,1,8,0:1:0:0:
365,99,88518,5,8,0:0:0:0:
303,273,88686,2,0,L|309:222,1,46.7500014266968,8|8,0:1|0:1,0:0:0:0:
279,28,88854,5,8,0:0:0:0:
341,202,89021,1,10,0:1:0:0:
279,28,89189,5,10,0:0:0:0:
217,202,89356,2,0,L|300:192,1,46.7500014266968,10|0,0:1|0:0,0:0:0:0:
371,113,89524,6,0,B|323:94|323:94|296:109|296:109|216:103,1,140.25000428009,12|0,0:1|0:0,0:0:0:0:
192,99,89859,1,4,0:3:0:0:
84,210,90027,6,0,B|132:191|132:191|159:206|159:206|239:200,1,140.25000428009,12|0,0:1|0:0,0:0:0:0:
263,196,90362,1,4,0:3:0:0:
212,354,90529,6,0,L|224:299,1,46.7500014266968,12|0,0:1|0:0,0:0:0:0:
334,162,90697,2,0,L|343:207,1,46.7500014266968,2|2,0:0|0:0,0:0:0:0:
371,307,90865,6,0,B|323:288|323:288|296:303|296:303|218:297,1,140.25000428009,12|0,0:0|0:0,0:0:0:0:
46,308,91535,6,0,P|108:357|134:282,1,187.000005706787
117,124,92038,5,10,0:1:0:0:
87,150,92122,1,10,0:1:0:0:
84,190,92205,1,12,0:1:0:0:
294,194,92373,1,8,0:1:0:0:
189,227,92541,1,8,0:1:0:0:
471,263,92708,5,8,0:0:0:0:
261,267,92876,1,8,0:1:0:0:
366,300,93043,1,8,0:1:0:0:
84,336,93211,5,10,0:0:0:0:
294,340,93379,1,8,0:1:0:0:
189,373,93546,6,0,B|177:334|177:334|186:288,1,85,8|8,0:0|0:1,0:0:0:0:
333,227,93881,5,8,0:1:0:0:
116,250,94049,1,8,0:0:0:0:
403,237,94217,5,10,0:1:0:0:
186,214,94384,1,8,0:1:0:0:
473,227,94552,5,10,0:0:0:0:
256,250,94719,1,8,0:1:0:0:
399,75,94887,6,0,B|411:114|411:114|402:160,1,85,10|8,0:0|0:1,0:0:0:0:
256,250,95222,1,8,0:1:0:0:
113,75,95390,2,0,B|101:114|101:114|109:157,1,85,10|8,0:0|0:1,0:0:0:0:
256,250,95725,1,8,0:1:0:0:
299,116,95893,2,0,L|199:116,1,85,8|8,0:0|0:1,0:0:0:0:
39,227,96228,5,10,0:0:0:0:
256,250,96395,1,8,0:1:0:0:
109,237,96563,5,10,0:1:0:0:
326,214,96731,1,8,0:0:0:0:
179,227,96898,5,10,0:1:0:0:
396,250,97066,1,8,0:1:0:0:
203,384,97233,6,0,B|191:345|191:345|200:299,1,85,10|0,0:0|0:0,0:0:0:0:
336,138,97569,6,0,P|299:168|260:168,1,85,12|0,0:1|0:0,0:0:0:0:
117,83,97904,2,0,P|127:145|132:175,1,85,8|0,0:1|0:0,0:0:0:0:
27,299,98239,2,0,P|58:271|99:268,1,85,8|0,0:1|0:0,0:0:0:0:
282,339,98574,1,8,0:1:0:0:
190,376,98742,5,2,0:0:0:0:
180,352,98826,1,2,0:0:0:0:
182,326,98909,1,10,0:1:0:0:
282,339,99077,1,2,0:0:0:0:
287,232,99245,5,10,0:1:0:0:
187,245,99412,1,2,0:0:0:0:
182,138,99580,5,10,0:1:0:0:
282,151,99747,1,0,0:0:0:0:
287,44,99915,5,10,0:1:0:0:
187,57,100083,1,0,0:0:0:0:
373,105,100250,6,0,P|386:147|376:187,1,85,14|0,0:0|0:0,0:0:0:0:
182,326,100585,5,10,0:0:0:0:
282,151,100753,1,8,0:0:0:0:
282,339,100921,5,10,0:0:0:0:
182,138,101088,1,8,0:0:0:0:
187,245,101256,5,10,0:0:0:0:
287,44,101423,1,8,0:0:0:0:
287,232,101591,5,10,0:1:0:0:
287,232,101675,1,0,0:0:0:0:
287,232,101759,2,0,L|282:173,1,42.5,10|2,0:0|0:0,0:0:0:0:
187,57,101926,1,10,3:2:0:0:
187,57,102010,1,2,3:2:0:0:
187,57,102094,2,0,L|182:116,1,42.5,2|2,3:2|3:2,0:0:0:0:
97,235,102261,5,10,0:1:0:0:
128,222,102345,1,2,0:0:0:0:
162,225,102429,1,2,0:0:0:0:
193,241,102513,1,2,0:0:0:0:
214,268,102597,1,2,0:0:0:0:
235,295,102680,1,2,0:0:0:0:
266,311,102764,1,2,0:0:0:0:
300,314,102848,1,2,0:0:0:0:
331,301,102932,5,12,0:1:0:0:
210,368,103099,1,0,0:0:0:0:
409,336,103267,2,0,P|411:303|415:262,1,68,8|0,0:1|0:0,0:0:0:0:
281,164,103602,2,0,P|284:198|287:232,1,68,8|0,0:1|0:0,0:0:0:0:
210,368,103937,1,10,0:1:0:0:
123,328,104105,1,0,0:0:0:0:
38,373,104273,6,0,P|26:348|31:302,1,68,10|0,0:1|0:0,0:0:0:0:
203,277,104608,1,8,0:1:0:0:
123,328,104775,2,0,P|106:279|103:192,1,136,2|0,0:0|0:0,0:0:0:0:
295,255,105278,2,0,P|298:288|285:319,1,68,10|2,0:1|0:0,0:0:0:0:
264,166,105613,6,0,P|297:167|348:173,1,68,10|0,0:1|0:0,0:0:0:0:
204,238,105948,1,10,0:1:0:0:
290,73,106116,2,0,P|256:76|222:78,1,68,2|8,0:0|0:1,0:0:0:0:
113,155,106451,2,0,B|104:121|104:121|108:82,1,68,2|8,0:0|0:1,0:0:0:0:
251,164,106786,1,2,0:3:0:0:
67,227,106954,5,8,0:1:0:0:
179,208,107122,1,2,0:3:0:0:
164,342,107289,5,8,0:1:0:0:
226,272,107457,1,2,0:0:0:0:
342,343,107624,5,8,0:1:0:0:
306,275,107792,1,0,3:0:0:0:
441,194,107960,5,8,0:1:0:0:
362,216,108127,2,0,L|359:177,1,34,8|0,0:0|0:0,0:0:0:0:
357,158,108295,6,0,P|323:155|289:153,1,68,10|0,0:1|0:0,0:0:0:0:
144,238,108630,2,0,P|177:235|212:233,1,68,8|0,0:1|0:0,0:0:0:0:
382,292,108965,2,0,P|348:289|314:287,1,68,8|0,0:1|0:0,0:0:0:0:
173,349,109300,1,10,0:1:0:0:
305,288,109468,1,0,0:0:0:0:
215,219,109636,6,0,P|212:184|205:135,1,68,10|0,0:1|0:0,0:0:0:0:
305,288,109971,1,8,0:1:0:0:
426,124,110138,2,0,P|413:194|402:289,1,136,2|2,0:0|0:3,0:0:0:0:
457,348,110641,1,10,0:1:0:0:
305,288,110809,1,0,0:0:0:0:
173,349,110976,6,0,P|168:315|162:277,1,68,10|0,0:1|0:0,0:0:0:0:
75,338,111312,1,8,0:1:0:0:
128,183,111479,2,0,B|197:169|187:201|274:205,1,136,2|2,0:0|0:0,0:0:0:0:
420,145,111982,2,0,P|431:111|420:79,1,68,8|2,0:1|0:0,0:0:0:0:
215,52,112317,5,8,0:1:0:0:
354,113,112485,1,2,0:0:0:0:
128,183,112652,5,10,0:1:0:0:
267,122,112820,1,0,0:0:0:0:
354,253,112988,5,10,0:1:0:0:
215,192,113155,1,0,0:0:0:0:
267,122,113323,6,0,L|260:279,1,140.25000428009,10|0,0:0|0:0,0:0:0:0:
316,343,113658,6,0,B|245:319|263:366|156:351,1,152.999995330811,12|8,0:1|0:0,0:0:0:0:
63,312,114161,1,0,0:0:0:0:
215,192,114328,1,8,0:1:0:0:
119,147,114496,1,8,0:1:0:0:
238,308,114664,1,2,0:0:0:0:
137,293,114831,6,0,B|120:256|120:256|108:122,1,140.25000428009,10|0,0:0|0:0,0:0:0:0:
178,49,115166,2,0,L|165:113,1,46.7500014266968,8|0,0:1|0:0,0:0:0:0:
44,245,115334,1,8,0:0:0:0:
195,174,115502,2,0,B|274:155|254:208|343:191,1,152.999995330811,2|8,0:0|0:1,0:0:0:0:
451,138,116004,1,8,0:0:0:0:
500,267,116172,1,2,0:0:0:0:
350,195,116340,6,0,P|336:156|338:115,1,76.4999976654053,10|0,0:1|0:0,0:0:0:0:
222,258,116675,1,8,0:0:0:0:
399,280,116842,1,2,0:0:0:0:
260,176,117010,1,8,0:1:0:0:
184,340,117178,1,10,0:1:0:0:
377,119,117513,6,0,B|316:111|316:111|269:84|269:84|192:111,1,187.000005706787,10|8,0:0|0:1,0:0:0:0:
55,229,118016,2,0,B|98:213|98:213|144:229,1,93.5000028533936,10|0,0:0|0:0,0:0:0:0:
313,293,118351,1,10,0:1:0:0:
260,176,118518,1,0,0:0:0:0:
195,345,118686,1,10,0:0:0:0:
184,357,119021,6,0,B|230:342|230:342|258:357|258:357|339:370,1,140.25000428009,12|0,0:1|0:0,0:0:0:0:
370,343,119356,2,0,P|394:301|379:257,1,93.5000028533936,8|2,0:0|0:0,0:0:0:0:
230,178,119692,1,8,0:1:0:0:
377,250,119859,1,10,0:1:0:0:
160,270,120027,1,8,0:0:0:0:
315,195,120194,1,2,0:0:0:0:
213,79,120362,6,0,P|218:129|224:173,1,93.5000028533936,6|0,0:0|0:0,0:0:0:0:
313,293,120697,1,8,0:0:0:0:
430,192,120865,2,0,B|387:171|387:171|340:179,1,93.5000028533936,2|8,0:0|0:1,0:0:0:0:
160,270,121200,1,10,0:1:0:0:
286,364,121367,2,0,P|283:296|281:222,1,140.25000428009,8|0,0:0|0:0,0:0:0:0:
247,189,121703,6,0,P|237:139|267:107,1,93.5000028533936,10|0,0:1|3:0,0:0:0:0:
365,249,122038,1,8,0:0:0:0:
160,270,122205,1,0,3:0:0:0:
160,270,122289,1,0,3:0:0:0:
160,270,122373,1,8,0:0:0:0:
335,162,122541,1,10,0:1:0:0:
456,269,122708,1,8,0:0:0:0:
261,243,122876,6,0,P|254:173|249:93,1,140.25000428009,10|0,0:1|0:0,0:0:0:0:
263,60,123211,5,10,0:1:0:0:
335,162,123379,2,0,P|260:169|160:182,1,152.999995330811,12|0,0:0|3:0,0:0:0:0:
146,194,123714,5,8,0:0:0:0:
354,281,123881,2,0,L|289:275,1,50.9999984436036,8|0,0:3|0:0,0:0:0:0:
132,354,124049,2,0,B|189:332|181:367|271:361,1,127.5,4|0,0:3|0:0,0:0:0:0:
297,367,124384,6,0,P|295:332|291:280,1,85,12|0,0:1|0:0,0:0:0:0:
244,141,124719,2,0,P|290:173|322:174,1,85,8|0,0:1|0:0,0:0:0:0:
390,52,125055,2,0,P|348:58|316:85,1,85,8|0,0:1|0:0,0:0:0:0:
223,240,125390,1,10,0:1:0:0:
156,177,125557,1,0,0:0:0:0:
229,47,125725,6,0,P|233:90|238:146,1,85,10|0,0:1|0:0,0:0:0:0:
305,283,126060,1,8,0:1:0:0:
410,187,126228,2,0,B|370:175|370:175|323:184,1,85,2|0,0:0|0:0,0:0:0:0:
175,319,126563,1,0,0:0:0:0:
302,373,126731,2,0,P|305:330|309:288,1,85,10|0,0:1|0:0,0:0:0:0:
104,211,127066,6,0,B|162:191|152:226|242:222,1,127.5,10|0,0:1|0:0,0:0:0:0:
245,217,127401,1,8,0:1:0:0:
138,284,127569,2,0,B|120:325|120:325|119:365,1,85,2|8,0:0|0:1,0:0:0:0:
191,142,127904,2,0,B|190:102|190:102|172:61,1,85,2|8,0:0|0:1,0:0:0:0:
100,129,128239,1,0,0:0:0:0:
270,39,128407,6,0,B|331:26|331:26|362:60|362:60|432:68,1,170,10|8,0:1|0:1,0:0:0:0:
495,161,128909,2,0,B|431:173|369:166|369:166|380:188|384:215,1,170,2|0,0:0|0:1,0:0:0:0:
352,324,129412,1,10,0:1:0:0:
286,216,129580,1,0,0:0:0:0:
144,298,129747,6,0,P|184:295|229:293,1,85,10|0,0:1|0:0,0:0:0:0:
383,220,130083,1,8,0:1:0:0:
281,209,130250,2,0,P|265:163|246:38,1,170,2|0,0:0|0:0,0:0:0:0:
408,45,130753,2,0,P|382:93|351:104,1,85,8|2,0:1|0:0,0:0:0:0:
91,162,131088,6,0,P|151:165|180:173,1,85,10|0,0:1|0:0,0:0:0:0:
376,216,131423,2,0,P|316:219|287:227,1,85,10|0,0:1|0:0,0:0:0:0:
182,358,131759,2,0,P|196:312|199:267,1,85,10|0,0:1|0:0,0:0:0:0:
251,88,132094,2,0,P|255:130|279:215,1,127.5,10|0,0:1|0:0,0:0:0:0:
292,225,132429,6,0,P|333:216|376:216,1,85,10|0,0:1|0:0,0:0:0:0:
346,317,132764,1,8,0:1:0:0:
199,275,132932,2,0,P|142:260|73:266,1,127.5,2|0,0:0|0:0,0:0:0:0:
50,284,133267,1,0,0:0:0:0:
210,191,133435,2,0,P|199:127|192:91,1,85,10|0,0:1|0:0,0:0:0:0:
39,134,133770,6,0,P|75:165|114:168,1,85,10|0,0:1|0:0,0:0:0:0:
296,138,134105,1,8,0:1:0:0:
192,98,134273,1,2,0:0:0:0:
374,181,134440,5,8,0:1:0:0:
371,151,134524,1,0,0:0:0:0:
369,121,134608,1,8,0:1:0:0:
368,91,134692,1,0,0:0:0:0:
366,62,134775,2,0,L|364:7,1,42.5,10|0,0:0|0:0,0:0:0:0:
179,111,134943,2,0,L|238:115,1,42.5,2|0,0:0|0:0,0:0:0:0:
390,199,135110,6,0,B|317:209|317:209|293:242|293:242|211:251,1,187.000005706787,12|8,0:1|0:0,0:0:0:0:
38,268,135613,2,0,P|86:247|145:349,1,187.000005706787,10|8,0:1|0:1,0:0:0:0:
242,165,136116,1,8,0:0:0:0:
370,286,136284,1,2,0:0:0:0:
233,157,136451,6,0,L|238:103,1,46.7500014266968,12|0,0:0|0:0,0:0:0:0:
289,234,136619,1,8,0:0:0:0:
263,256,136703,1,8,0:3:0:0:
235,258,136786,1,4,0:3:0:0:
128,168,136954,1,4,0:3:0:0:
116,161,137289,1,8,0:1:0:0:
240,63,137457,2,0,L|232:167,1,93.5000028533936,8|2,0:0|0:0,0:0:0:0:
118,330,137792,6,0,B|186:311|181:346|262:348,1,140.25000428009,12|0,0:1|0:0,0:0:0:0:
283,335,138127,1,8,0:0:0:0:
419,190,138295,2,0,B|447:108|436:58|436:58|403:53|383:76,1,187.000005706787,10|4,0:1|0:3,0:0:0:0:
340,150,138714,1,0,0:0:0:0:
340,150,138798,1,8,0:0:0:0:
406,342,138965,2,0,L|413:281,1,46.7500014266968,0|0,0:0|0:0,0:0:0:0:
419,190,139133,5,8,0:0:0:0:
396,219,139217,1,8,0:0:0:0:
363,236,139300,1,8,0:1:0:0:
325,237,139384,1,8,0:1:0:0:
290,221,139468,2,0,L|295:267,1,46.7500014266968,8|0,0:0|0:0,0:0:0:0:
191,144,139636,2,0,B|180:240|171:330,1,187.000005706787,12|8,0:1|0:1,0:0:0:0:
171,329,140055,1,0,0:0:0:0:
171,329,140138,1,8,0:0:0:0:
37,201,140306,5,8,0:1:0:0:
37,201,140390,1,8,0:1:0:0:
37,201,140474,1,8,0:0:0:0:
171,330,140641,1,10,0:1:0:0:
275,176,140809,1,10,0:1:0:0:
55,384,140976,5,8,0:0:0:0:
159,230,141144,1,10,0:1:0:0:
293,360,141312,1,8,0:1:0:0:
28,293,141479,5,8,0:0:0:0:
310,265,141647,2,0,B|233:280|250:236|171:249,1,140.25000428009,12|0,0:0|0:0,0:0:0:0:
159,230,141982,1,8,0:0:0:0:
390,194,142150,5,8,0:0:0:0:
273,108,142317,1,8,0:0:0:0:
273,108,142401,1,8,0:0:0:0:
273,108,142485,2,0,L|285:192,1,46.7500014266968,8|0,3:1|3:0,0:0:0:0:
158,174,142652,2,0,L|152:221,1,46.7500014266968,8|8,0:0|0:0,0:0:0:0:
66,53,142820,5,8,0:0:0:0:
66,53,142904,1,8,0:0:0:0:
66,53,142988,1,8,0:0:0:0:
66,53,143071,1,8,0:0:0:0:
66,53,143155,2,0,B|121:52|167:59|167:59|178:28|213:15,1,152.999995330811,12|0,0:1|0:0,0:0:0:0:
273,108,143490,2,0,L|285:192,1,46.7500014266968,8|0,0:0|0:0,0:0:0:0:
147,260,143658,2,0,P|198:228|229:241,1,93.5000028533936,10|0,0:1|0:0,0:0:0:0:
359,120,143993,1,10,0:1:0:0:
197,150,144161,1,8,0:0:0:0:
373,286,144328,2,0,L|376:234,1,46.7500014266968,2|0,0:0|0:0,0:0:0:0:
378,202,144496,6,0,P|333:210|299:179,1,93.5000028533936,8|8,0:1|0:1,0:0:0:0:
143,265,144831,1,8,0:0:0:0:
189,49,144999,2,0,P|195:94|204:148,1,93.5000028533936,8|2,0:1|0:0,0:0:0:0:
292,271,145334,1,8,0:1:0:0:
120,366,145502,2,0,P|126:320|135:267,1,93.5000028533936,10|0,0:0|3:0,0:0:0:0:
316,194,145837,6,0,B|250:174|247:225|211:222|168:211,1,140.25000428009,10|0,0:1|0:0,0:0:0:0:
149,197,146172,1,8,0:0:0:0:
307,97,146340,2,0,B|353:106|353:106|390:135,1,93.5000028533936,10|0,0:1|0:0,0:0:0:0:
197,128,146675,1,10,0:1:0:0:
177,96,146759,1,0,0:0:0:0:
176,58,146842,1,8,0:0:0:0:
117,182,147010,1,2,0:0:0:0:
293,83,147178,5,8,0:1:0:0:
107,189,147345,1,8,0:1:0:0:
273,334,147513,2,0,B|302:297|302:297|311:251,1,93.5000028533936,8|8,0:0|0:1,0:0:0:0:
176,58,147848,5,2,0:0:0:0:
329,160,148016,2,0,L|260:167,1,46.7500014266968,8|0,0:1|0:0,0:0:0:0:
98,197,148183,2,0,B|152:204|152:204|172:231|172:231|223:238,1,140.25000428009,10|0,0:0|0:0,0:0:0:0:
227,224,148518,6,0,P|196:254|191:302,1,93.5000028533936,6|0,0:0|0:0,0:0:0:0:
393,263,148854,1,8,0:0:0:0:
262,142,149021,2,0,B|182:118|193:178|72:155,1,187.000005706787,10|8,0:1|0:1,0:0:0:0:
318,211,149524,1,8,0:0:0:0:
146,67,149692,2,0,L|151:124,1,46.7500014266968,2|2,0:0|0:0,0:0:0:0:
327,222,149859,6,0,P|336:137|348:59,1,140.25000428009,10|0,0:1|0:0,0:0:0:0:
465,159,150194,2,0,L|403:163,1,46.7500014266968,8|0,0:0|0:0,0:0:0:0:
228,270,150362,2,0,P|316:253|381:315,1,187.000005706787,10|8,0:1|0:1,0:0:0:0:
151,341,150865,2,0,L|159:289,1,46.7500014266968,8|0,0:0|0:0,0:0:0:0:
244,175,151032,5,2,0:0:0:0:
244,175,151116,1,2,0:0:0:0:
244,175,151200,2,0,B|201:163|201:163|177:178|177:178|83:172,1,140.25000428009,10|0,0:1|0:0,0:0:0:0:
75,163,151535,1,10,0:0:0:0:
307,107,151703,2,0,P|331:156|322:222,1,93.5000028533936,10|0,0:1|0:0,0:0:0:0:
151,341,152038,1,10,0:1:0:0:
281,271,152205,2,0,P|328:273|375:277,1,93.5000028533936,8|0,0:0|0:0,0:0:0:0:
140,348,152541,5,10,0:1:0:0:
112,310,152624,1,2,3:2:0:0:
95,266,152708,1,2,3:2:0:0:
91,220,152792,1,2,3:2:0:0:
99,174,152876,1,8,0:0:0:0:
279,257,153043,2,0,L|224:265,1,46.7500014266968,12|0,0:0|0:0,0:0:0:0:
26,314,153211,5,0,0:0:0:0:
209,116,153379,2,0,L|220:196,1,46.7500014266968,8|8,0:1|0:1,0:0:0:0:
348,321,153546,6,0,P|372:282|365:230,1,89.2499972763062,8|0,0:0|0:0,0:0:0:0:
188,101,153881,6,0,P|203:208|211:263,1,152.999995330811,12|0,0:1|0:0,0:0:0:0:
298,169,154217,2,0,P|329:165|370:160,1,46.7500014266968,8|0,0:0|0:0,0:0:0:0:
218,268,154384,2,0,P|166:260|114:255,1,93.5000028533936,10|0,0:1|0:0,0:0:0:0:
214,23,154719,1,10,0:1:0:0:
247,40,154803,1,0,0:0:0:0:
263,73,154887,1,8,0:0:0:0:
114,247,155055,2,0,L|121:184,1,46.7500014266968,2|0,0:0|0:0,0:0:0:0:
188,101,155222,6,0,P|142:97|66:91,1,93.5000028533936,8|8,0:1|0:1,0:0:0:0:
290,179,155557,1,10,0:0:0:0:
408,115,155725,1,8,0:1:0:0:
251,274,155893,2,0,P|297:270|373:264,1,93.5000028533936,2|8,0:0|0:1,0:0:0:0:
175,353,156228,2,0,P|143:317|153:226,1,140.25000428009,10|0,0:0|3:0,0:0:0:0:
164,224,156563,6,0,P|146:178|162:121,1,93.5000028533936,10|0,0:1|0:0,0:0:0:0:
344,266,156898,1,8,0:0:0:0:
240,372,157066,2,0,P|231:318|244:282,1,93.5000028533936,10|0,0:1|0:0,0:0:0:0:
418,185,157401,1,10,0:1:0:0:
242,171,157569,2,0,B|302:152|292:190|396:193,1,140.25000428009,8|0,0:0|0:0,0:0:0:0:
418,185,157904,6,0,P|436:136|422:94,1,93.5000028533936,8|8,0:1|0:1,0:0:0:0:
254,37,158239,2,0,P|259:62|263:87,1,46.7500014266968,8|0,0:0|0:0,0:0:0:0:
160,178,158407,2,0,P|163:154|168:132,1,46.7500014266968,8|0,0:1|0:0,0:0:0:0:
274,283,158574,6,0,P|227:262|173:271,1,93.5000028533936,2|8,0:0|0:1,0:0:0:0:
46,95,158909,2,0,P|59:178|71:261,1,140.25000428009,10|0,0:0|0:0,0:0:0:0:
42,356,159245,6,0,B|25:314|25:314|36:267,1,93.5000028533936,12|0,0:1|0:0,0:0:0:0:
216,350,159580,1,8,0:0:0:0:
385,250,159747,2,0,B|402:292|402:292|390:338,1,93.5000028533936,10|0,0:1|0:0,0:0:0:0:
158,199,160083,2,0,L|265:192,1,93.5000028533936,10|8,0:1|0:0,0:0:0:0:
382,90,160418,1,2,0:0:0:0:
202,122,160585,6,0,L|212:274,1,140.25000428009,8|0,0:1|0:0,0:0:0:0:
216,350,160921,1,10,0:0:0:0:
320,220,161088,1,8,0:1:0:0:
106,222,161256,2,0,B|98:269|98:269|113:318,1,93.5000028533936,2|8,0:0|0:1,0:0:0:0:
333,218,161591,2,0,B|341:171|341:171|326:122,1,93.5000028533936,10|0,0:0|0:0,0:0:0:0:
209,358,161926,6,0,B|262:340|262:340|298:367|298:367|399:374,1,187.000005706787,10|8,0:1|0:0,0:0:0:0:
327,127,162429,2,0,B|319:174|319:174|334:223,1,93.5000028533936,10|0,0:1|0:0,0:0:0:0:
430,64,162764,1,8,0:1:0:0:
343,233,162932,2,0,B|279:211|283:254|200:248,1,140.25000428009,8|0,0:0|0:0,0:0:0:0:
126,228,163267,5,10,0:1:0:0:
121,200,163351,1,2,0:0:0:0:
121,172,163435,1,10,0:1:0:0:
125,144,163518,1,2,0:0:0:0:
134,118,163602,1,12,0:0:0:0:
144,90,163686,1,0,0:0:0:0:
148,63,163770,1,8,0:0:0:0:
148,35,163854,1,8,0:0:0:0:
143,8,163937,1,10,0:1:0:0:
46,99,164105,5,8,0:0:0:0:
88,120,164189,1,8,0:0:0:0:
134,118,164273,1,8,0:0:0:0:
178,103,164356,1,8,0:3:0:0:
223,109,164440,1,4,0:3:0:0:
251,134,164524,1,8,0:1:0:0:
261,165,164608,6,0,P|264:118|282:73,1,93.5000028533936,12|0,0:1|0:0,0:0:0:0:
361,227,164943,5,8,0:0:0:0:
181,184,165110,1,8,0:1:0:0:
272,171,165278,5,8,0:0:0:0:
92,214,165446,1,8,0:1:0:0:
183,227,165613,5,8,0:0:0:0:
3,184,165781,1,8,0:1:0:0:
123,127,165948,5,12,0:0:0:0:
61,301,166116,1,8,0:1:0:0:
209,111,166284,5,8,0:0:0:0:
315,305,166451,2,0,L|329:239,1,46.7500014266968,8|8,0:1|0:1,0:0:0:0:
389,127,166619,5,8,0:0:0:0:
451,301,166786,1,10,0:1:0:0:
303,111,166954,5,10,0:0:0:0:
197,305,167122,2,0,L|183:239,1,46.7500014266968,10|0,0:1|0:0,0:0:0:0:
123,127,167289,6,0,B|185:100|189:137|268:129,1,140.25000428009,12|0,0:1|0:0,0:0:0:0:
303,111,167624,1,4,0:3:0:0:
411,222,167792,6,0,B|349:195|345:232|266:224,1,140.25000428009,12|0,0:1|0:0,0:0:0:0:
231,206,168127,1,4,0:3:0:0:
282,369,168295,6,0,L|270:314,1,46.7500014266968,8|0,0:0|0:0,0:0:0:0:
160,172,168462,2,0,L|151:217,1,46.7500014266968,2|0,0:0|0:0,0:0:0:0:
123,317,168630,5,10,0:1:0:0:
123,317,168798,2,0,B|188:285|183:330|268:319,1,144.500002756119,8|0,0:0|3:0,0:0:0:0:
354,285,169300,5,8,0:0:0:0:
381,259,169384,1,8,0:3:0:0:
395,224,169468,1,4,0:3:0:0:
395,186,169552,1,4,0:3:0:0:
383,150,169636,2,0,P|359:140|332:137,3,46.7500014266968,14|2|2|2,0:0|0:0|0:0|0:0,0:0:0:0:
256,75,169971,5,12,3:1:0:0:
243,92,170055,1,0,0:0:0:0:
235,114,170138,1,0,0:0:0:0:
233,136,170222,1,0,0:0:0:0:
235,159,170306,1,2,0:0:0:0:
242,180,170390,1,0,0:0:0:0:
255,200,170474,1,0,3:0:0:0:
267,219,170557,1,0,3:0:0:0:
275,240,170641,1,2,0:0:0:0:
277,263,170725,1,0,0:0:0:0:
275,285,170809,1,0,3:0:0:0:
267,307,170893,1,0,3:0:0:0:
253,326,170976,2,0,L|251:380,1,50.9999984436036,2|0,0:0|0:0,0:0:0:0:
176,271,171228,1,8,0:0:0:0:
169,261,171312,6,0,P|272:255|332:253,1,152.999995330811,10|2,0:0|0:0,0:0:0:0:
162,367,171814,1,0,0:0:0:0:
80,220,171982,1,2,0:0:0:0:
96,193,172066,1,0,0:0:0:0:
120,174,172150,1,0,3:0:0:0:
148,163,172233,1,0,3:0:0:0:
178,163,172317,1,2,0:0:0:0:
208,163,172401,1,0,0:0:0:0:
236,152,172485,1,0,3:0:0:0:
260,133,172569,1,0,3:0:0:0:
276,106,172652,6,0,P|280:164|287:225,1,114.749996498108,6|0,0:0|0:0,0:0:0:0:
403,333,172988,2,0,L|407:273,1,38.2499988327027,2|0,0:0|0:0,0:0:0:0:
444,216,173155,2,0,B|355:194|381:244|294:225,1,152.999995330811,0|0,3:0|3:0,0:0:0:0:
156,304,173658,2,0,P|198:285|241:293,1,76.4999976654053,2|0,0:0|3:0,0:0:0:0:
328,358,173909,1,8,0:0:0:0:
320,347,173993,6,0,P|311:288|301:220,1,114.749996498108,10|0,0:0|3:0,0:0:0:0:
332,144,174328,1,2,0:0:0:0:
217,198,174496,1,0,3:0:0:0:
202,201,174580,1,0,3:0:0:0:
187,204,174664,1,2,0:0:0:0:
278,62,174831,1,0,3:0:0:0:
293,65,174915,1,0,3:0:0:0:
308,68,174999,1,2,0:0:0:0:
392,214,175166,1,0,3:0:0:0:
299,151,175334,5,6,0:0:0:0:
301,181,175418,1,0,0:0:0:0:
304,211,175502,1,0,0:0:0:0:
306,242,175585,1,0,0:0:0:0:
309,272,175669,1,2,0:0:0:0:
311,303,175753,1,0,0:0:0:0:
313,334,175837,1,0,3:0:0:0:
217,279,176004,1,2,0:0:0:0:
392,214,176172,1,0,3:0:0:0:
394,184,176256,1,0,3:0:0:0:
397,154,176340,1,2,0:0:0:0:
216,41,176507,2,0,L|221:91,1,38.2499988327027,0|8,3:0|0:0,0:0:0:0:
299,151,176675,6,0,B|266:145|266:145|246:155|246:155|168:164,1,114.749996498108,10|0,0:0|3:0,0:0:0:0:
110,176,177010,1,2,0:0:0:0:
268,267,177178,1,0,0:0:0:0:
271,252,177261,1,0,0:0:0:0:
274,236,177345,1,2,0:0:0:0:
123,67,177513,1,0,3:0:0:0:
126,83,177597,1,0,3:0:0:0:
129,98,177680,1,2,0:0:0:0:
185,241,177848,1,0,3:0:0:0:
30,316,178016,6,0,B|71:308|121:300|121:300|140:322|174:327,1,152.999995330811,6|2,0:0|0:0,0:0:0:0:
343,281,178518,2,0,P|360:236|345:195,1,76.4999976654053,0|2,0:0|0:0,0:0:0:0:
193,117,178854,2,0,P|197:144|204:174,1,38.2499988327027,0|0,3:0|3:0,0:0:0:0:
261,249,179021,2,0,P|223:245|185:241,1,76.4999976654053,2|0,0:0|3:0,0:0:0:0:
294,121,179273,1,8,0:0:0:0:
305,130,179356,6,0,B|362:123|412:117|412:117|437:130|442:161,1,152.999995330811,10|2,0:0|0:0,0:0:0:0:
185,241,179859,1,0,3:0:0:0:
343,281,180027,1,2,0:0:0:0:
119,314,180194,1,0,3:0:0:0:
119,314,180278,1,0,3:0:0:0:
119,314,180362,2,0,P|91:281|90:241,1,76.4999976654053,2|0,0:0|3:0,0:0:0:0:
281,158,180697,6,0,P|276:209|270:256,1,76.4999976654053,6|0,0:0|3:0,0:0:0:0:
187,107,181032,1,2,0:0:0:0:
388,129,181200,2,0,P|408:169|390:279,1,152.999995330811,0|0,0:0|3:0,0:0:0:0:
191,353,181703,2,0,P|200:300|206:274,1,76.4999976654053,2|0,0:0|3:0,0:0:0:0:
299,198,181954,1,8,0:0:0:0:
309,206,182038,6,0,B|270:182|270:182|236:201|236:201|157:208,1,152.999995330811,10|2,0:0|0:0,0:0:0:0:
187,73,182541,1,0,3:0:0:0:
202,76,182624,1,0,3:0:0:0:
218,79,182708,1,2,0:0:0:0:
69,132,182876,1,0,3:0:0:0:
66,117,182960,1,0,3:0:0:0:
63,101,183043,1,2,0:0:0:0:
168,207,183211,1,0,0:0:0:0:
60,329,183379,6,0,B|96:314|96:314|120:328|120:328|199:334,1,127.5,6|0,0:0|0:0,0:0:0:0:
286,302,183714,2,0,L|290:354,1,42.5,2|0,0:0|0:0,0:0:0:0:
176,220,183881,2,0,L|179:177,1,42.5,0|0,0:0|0:0,0:0:0:0:
243,104,184049,1,2,0:0:0:0:
91,234,184217,1,0,3:0:0:0:
317,170,184384,1,2,0:0:0:0:
146,6,184552,5,0,3:0:0:0:
146,6,184636,1,8,0:0:0:0:
146,6,184719,2,0,P|147:49|151:102,1,85,10|0,0:0|0:0,0:0:0:0:
255,229,185055,1,2,0:0:0:0:
438,162,185222,1,0,3:0:0:0:
422,159,185306,1,0,3:0:0:0:
407,156,185390,1,2,0:0:0:0:
266,41,185557,1,0,3:0:0:0:
269,56,185641,1,0,3:0:0:0:
272,72,185725,1,2,0:0:0:0:
117,177,185893,1,0,3:0:0:0:
172,26,186060,6,0,P|180:68|191:121,1,85,6|0,0:0|0:0,0:0:0:0:
255,314,186395,2,0,P|275:310|296:306,1,42.5,2|0,0:0|0:0,0:0:0:0:
348,217,186563,2,0,P|327:213|306:209,1,42.5,0|0,3:0|3:0,0:0:0:0:
285,130,186731,1,2,0:0:0:0:
427,262,186898,1,0,3:0:0:0:
215,234,187066,2,0,P|217:207|220:178,1,42.5,2|0,0:0|0:0,0:0:0:0:
358,42,187233,5,0,3:0:0:0:
358,42,187317,1,8,0:0:0:0:
358,42,187401,2,0,P|378:82|367:121,1,85,10|0,0:0|0:0,0:0:0:0:
137,175,187736,1,2,0:0:0:0:
284,96,187904,2,0,P|262:93|241:92,1,42.5,0|0,3:0|3:0,0:0:0:0:
73,126,188071,2,0,P|53:166|64:205,1,85,2|0,0:0|0:0,0:0:0:0:
246,261,188407,1,8,0:0:0:0:
145,332,188574,2,0,P|149:307|154:276,1,42.5,0|0,3:0|3:0,0:0:0:0:
299,187,188742,6,0,P|246:180|192:176,1,85,6|0,0:0|0:0,0:0:0:0:
355,271,189077,1,2,0:0:0:0:
386,121,189245,2,0,P|439:114|493:110,1,85,0|2,3:0|0:0,0:0:0:0:
308,30,189580,5,0,3:0:0:0:
214,177,189747,1,10,0:0:0:0:
64,144,189915,2,0,L|71:189,1,42.5,8|8,0:0|0:0,0:0:0:0:
64,331,190083,5,6,3:2:0:0:
98,333,190166,1,0,3:0:0:0:
132,335,190250,1,8,0:0:0:0:
166,337,190334,1,8,0:0:0:0:
200,340,190418,1,10,0:0:0:0:
234,342,190502,1,8,0:0:0:0:
268,345,190585,1,8,0:0:0:0:
302,347,190669,1,8,0:0:0:0:
336,350,190753,6,0,P|328:324|321:295,1,46.7500014266968,10|0,3:2|3:2,0:0:0:0:
383,193,190921,1,8,3:3:0:0:
346,220,191004,1,8,3:3:0:0:
304,229,191088,1,4,3:3:0:0:
267,222,191172,1,4,3:3:0:0:
233,204,191256,1,2,3:2:0:0:
200,200,191340,1,2,3:2:0:0:
174,210,191423,6,0,P|182:185|185:162,1,46.7500014266968,12|0,0:1|0:0,0:0:0:0:
131,50,191591,2,0,P|134:73|141:95,1,46.7500014266968,0|0,0:0|0:0,0:0:0:0:
67,140,191759,6,0,B|161:108|148:151|251:122,1,187.000005706787,8|0,0:0|0:0,0:0:0:0:
420,205,192261,1,10,0:1:0:0:
374,8,192429,2,0,P|363:80|357:124,1,93.5000028533936,8|2,0:0|0:0,0:0:0:0:
316,304,192764,6,0,P|345:253|463:284,1,187.000005706787,10|8,0:1|0:0,0:0:0:0:
222,356,193267,2,0,B|196:246|249:274|225:170,1,187.000005706787,10|8,0:1|0:1,0:0:0:0:
31,154,193770,2,0,P|60:205|159:199,1,140.25000428009,8|0,0:0|0:0,0:0:0:0:
220,162,194105,6,0,L|280:167,3,46.7500014266968,6|0|0|0,0:0|0:0|0:0|0:0,0:0:0:0:
226,59,194440,2,0,L|169:70,1,46.7500014266968,8|0,0:0|0:0,0:0:0:0:
107,145,194608,2,0,P|110:216|115:292,1,140.25000428009,10|0,0:1|0:0,0:0:0:0:
202,362,194943,2,0,P|203:338|208:308,1,46.7500014266968,10|0,0:1|0:0,0:0:0:0:
289,266,195110,2,0,P|333:251|377:262,1,93.5000028533936,8|2,0:0|0:0,0:0:0:0:
411,278,195362,1,0,0:0:0:0:
434,306,195446,5,8,0:1:0:0:
332,171,195613,1,10,0:1:0:0:
206,315,195781,1,8,0:0:0:0:
388,95,195948,6,0,B|328:77|328:77|287:102|287:102|211:112,1,187.000005706787,10|10,0:1|0:1,0:0:0:0:
89,21,196451,2,0,B|107:67|107:67|96:131,1,93.5000028533936,8|0,0:0|0:0,0:0:0:0:
35,226,196786,6,0,B|96:198|82:248|180:242,1,140.25000428009,6|0,0:0|0:0,0:0:0:0:
251,207,197122,2,0,P|255:237|259:266,1,46.7500014266968,8|0,0:0|0:0,0:0:0:0:
274,343,197289,2,0,P|326:317|382:340,1,93.5000028533936,10|0,0:1|0:0,0:0:0:0:
463,194,197624,1,8,0:1:0:0:
489,268,197792,2,0,P|443:272|404:248,1,93.5000028533936,8|0,0:0|0:0,0:0:0:0:
307,40,198127,6,0,P|295:134|287:196,1,140.25000428009,10|2,0:1|0:0,0:0:0:0:
302,196,198462,2,0,P|256:191|217:215,1,93.5000028533936,8|10,0:0|0:1,0:0:0:0:
281,278,198798,5,2,0:0:0:0:
153,161,198965,1,8,0:1:0:0:
153,161,199049,1,2,0:0:0:0:
153,161,199133,1,8,0:0:0:0:
381,170,199300,1,2,0:0:0:0:
265,328,199468,6,0,L|271:267,1,46.7500014266968,10|0,0:1|0:0,0:0:0:0:
365,117,199636,2,0,L|369:163,1,46.7500014266968,0|0,0:0|0:0,0:0:0:0:
380,251,199803,2,0,B|283:215|301:270|196:235,1,187.000005706787,8|0,0:0|0:0,0:0:0:0:
256,89,200306,1,8,0:1:0:0:
121,271,200474,2,0,L|116:224,1,46.7500014266968,10|0,0:0|0:0,0:0:0:0:
256,168,200641,1,2,0:1:0:0:
176,42,200809,6,0,L|171:88,1,46.7500014266968,4|0,0:3|0:0,0:0:0:0:
344,187,200976,2,0,L|339:140,1,46.7500014266968,0|0,3:0|3:0,0:0:0:0:
120,206,201144,5,8,0:0:0:0:
290,59,201312,1,12,0:0:0:0:
273,47,201647,6,0,L|278:102,1,46.7500014266968,8|8,0:1|0:1,0:0:0:0:
394,250,201814,2,0,P|351:213|269:229,1,140.25000428009,8|2,0:0|0:0,0:0:0:0:
245,259,202150,5,14,0:1:0:0:
429,327,202317,1,2,0:0:0:0:
185,353,202485,1,8,0:0:0:0:
323,290,202652,5,10,0:1:0:0:
139,222,202820,1,0,0:0:0:0:
383,196,202988,1,10,0:1:0:0:
232,274,203155,6,0,P|228:211|225:133,1,140.25000428009,8|0,0:0|0:0,0:0:0:0:
230,97,203490,5,8,0:1:0:0:
149,304,203658,1,2,0:0:0:0:
306,162,203826,1,8,0:0:0:0:
139,222,203993,6,0,B|211:219|190:258|275:259,1,140.25000428009,10|0,0:1|0:0,0:0:0:0:
364,222,204328,2,0,P|369:247|375:274,1,46.7500014266968,10|2,0:1|0:0,0:0:0:0:
383,196,204496,2,0,P|391:152|366:103,1,93.5000028533936,8|2,0:0|0:0,0:0:0:0:
152,64,204831,5,14,0:1:0:0:
306,162,204999,1,2,0:0:0:0:
136,226,205166,1,8,0:0:0:0:
367,34,205334,5,10,0:1:0:0:
213,132,205502,1,2,0:0:0:0:
383,196,205669,1,8,0:1:0:0:
271,17,205837,6,0,L|279:71,3,46.7500014266968,10|2|2|2,0:0|0:0|0:0|0:0,0:0:0:0:
306,162,206172,5,10,0:1:0:0:
136,226,206340,1,2,0:0:0:0:
383,196,206507,1,8,0:0:0:0:
213,132,206675,6,0,B|145:118|155:155|58:148,1,140.25000428009,10|0,0:1|0:0,0:0:0:0:
61,146,207010,2,0,P|57:123|52:94,1,46.7500014266968,10|2,0:1|0:0,0:0:0:0:
164,45,207178,1,8,0:0:0:0:
52,231,207345,5,8,0:1:0:0:
52,231,207429,1,0,0:0:0:0:
52,231,207513,1,12,0:0:0:0:
232,188,207680,1,0,3:0:0:0:
141,175,207848,5,8,0:0:0:0:
321,218,208016,1,8,0:1:0:0:
230,231,208183,5,10,0:0:0:0:
410,188,208351,1,8,0:1:0:0:
319,175,208518,5,8,0:0:0:0:
499,218,208686,2,0,L|492:170,1,46.7500014266968,10|0,0:1|0:0,0:0:0:0:
441,101,208854,5,10,0:0:0:0:
379,275,209021,1,8,0:1:0:0:
317,101,209189,5,8,0:0:0:0:
379,275,209356,1,10,0:1:0:0:
317,101,209524,5,8,0:0:0:0:
255,275,209692,1,8,0:1:0:0:
193,101,209859,5,8,0:0:0:0:
255,275,210027,1,10,0:1:0:0:
193,101,210194,5,12,0:0:0:0:
131,275,210362,1,8,0:1:0:0:
349,189,210529,1,8,0:1:0:0:
171,189,210697,5,10,0:0:0:0:
389,275,210865,1,8,0:1:0:0:
327,101,211032,1,8,0:1:0:0:
131,275,211200,5,10,0:0:0:0:
166,286,211284,1,0,0:0:0:0:
202,280,211367,1,2,0:0:0:0:
235,262,211451,1,0,0:0:0:0:
256,231,211535,2,0,P|260:207|265:163,1,46.7500014266968,10|2,0:1|0:0,0:0:0:0:
320,54,211703,2,0,P|324:78|329:122,1,46.7500014266968,10|2,0:0|0:0,0:0:0:0:
407,160,211870,6,0,P|440:163|468:182,2,62.3333352355958,10|2|2,0:1|0:0|0:0,0:0:0:0:
171,189,212205,5,10,0:0:0:0:
362,264,212373,1,0,0:0:0:0:
364,282,212457,1,2,0:0:0:0:
368,302,212541,1,10,0:0:0:0:
211,348,212708,2,2,L|219:296,1,46.7500014266968,0|0,0:0|0:0,1:0:0:0:
407,160,212876,6,2,B|325:137|325:137|281:175|281:175|170:188,1,255,6|2,0:0|0:0,1:0:0:0:
83,66,214049,5,2,0:0:0:0:
83,66,214133,1,2,0:0:0:0:
83,66,214217,2,0,L|74:124,1,42.5,2|0,0:0|0:0,0:0:0:0:
31,301,214552,5,2,0:0:0:0:
155,265,214887,5,2,0:0:0:0:
258,306,215222,6,0,L|328:302,1,63.75,2|0,0:0|0:0,0:0:0:0:
336,310,215557,5,4,0:0:0:0:
176,321,226284,6,0,B|236:305|228:339|309:331,1,118.999996368408,12|2,0:3|0:0,0:0:0:0:
377,289,226786,2,0,P|382:317|386:349,1,59.4999981842042,2|2,0:0|3:3,0:0:0:0:
295,235,227122,2,0,P|298:205|303:176,2,59.4999981842042,2|0|0,0:0|0:0|0:3,0:0:0:0:
385,139,227624,6,0,P|360:99|287:86,1,118.999996368408,2|0,0:0|0:0,0:0:0:0:
210,36,228127,2,0,P|214:124|216:172,1,118.999996368408,2|0,0:0|0:0,0:0:0:0:
123,182,228630,2,0,L|129:111,1,59.4999981842042,2|0,0:0|0:0,0:0:0:0:
196,241,228965,6,0,P|139:232|77:271,1,118.999996368408,2|2,0:0|0:0,0:0:0:0:
271,293,229468,2,0,P|328:302|390:263,1,118.999996368408,2|2,0:0|0:0,0:0:0:0:
301,143,229971,2,0,L|289:202,1,59.4999981842042,2|0,0:0|0:0,0:0:0:0:
185,324,230306,6,0,P|180:253|171:180,1,118.999996368408,2|2,0:0|0:0,0:0:0:0:
91,252,230809,1,0,0:0:0:0:
152,117,230976,2,0,B|205:102|201:138|292:131,1,118.999996368408,2|2,3:3|0:0,0:0:0:0:
440,48,231647,6,0,P|433:94|429:123,1,59.4999981842042,2|0,0:0|0:0,0:0:0:0:
452,288,231982,1,2,0:0:0:0:
468,194,232150,2,0,B|422:199|422:199|407:214|407:214|356:220,1,118.999996368408,2|2,0:0|0:0,0:0:0:0:
271,263,232652,2,0,P|264:217|260:188,1,59.4999981842042,0|2,0:0|0:0,0:0:0:0:
280,71,232988,6,0,P|339:79|346:149,2,118.999996368408,0|2|2,0:0|0:0|3:0,0:0:0:0:
146,180,233993,2,0,P|193:177|255:172,1,89.2499972763062,2|0,0:0|0:0,0:0:0:0:
274,152,234328,5,0,0:0:0:0:
110,135,236004,6,0,P|114:167|119:208,1,59.4999981842042,2|0,0:0|0:0,0:0:0:0:
244,310,236340,2,0,P|248:278|253:237,1,59.4999981842042,2|0,0:0|0:0,0:0:0:0:
416,100,236675,6,0,P|437:138|417:210,1,114.749996498108,2|0,0:0|0:0,0:0:0:0:
407,232,237010,6,0,B|332:210|348:260|251:245,1,152.999995330811,12|0,0:1|0:0,0:0:0:0:
111,143,237345,2,0,P|113:168|116:193,1,50.9999984436036,8|0,0:0|0:0,0:0:0:0:
236,339,237513,2,0,P|240:307|250:225,1,101.999996887207,10|0,0:1|0:0,0:0:0:0:
390,69,237848,1,10,0:1:0:0:
416,100,237932,1,0,0:0:0:0:
411,140,238016,1,8,0:0:0:0:
239,230,238183,2,0,L|307:228,1,50.9999984436036,2|0,0:0|0:0,0:0:0:0:
334,128,238351,6,0,P|259:124|178:120,1,152.999995330811,8|0,0:1|0:0,0:0:0:0:
55,194,238686,2,0,L|48:138,1,50.9999984436036,8|0,0:0|0:0,0:0:0:0:
164,62,238854,2,0,L|170:112,1,50.9999984436036,8|0,0:1|0:0,0:0:0:0:
295,220,239021,2,0,P|220:224|133:232,1,152.999995330811,2|0,0:0|0:0,0:0:0:0:
108,256,239356,2,0,P|94:309|117:354,1,101.999996887207,10|0,0:0|3:0,0:0:0:0:
370,324,239692,6,0,P|295:320|214:316,1,152.999995330811,10|0,0:1|0:0,0:0:0:0:
181,300,240027,1,8,0:0:0:0:
306,214,240194,2,0,P|320:161|297:116,1,101.999996887207,10|0,0:1|0:0,0:0:0:0:
122,69,240529,1,10,0:1:0:0:
96,100,240613,1,0,0:0:0:0:
101,140,240697,1,8,0:0:0:0:
221,285,240865,2,0,L|216:232,1,50.9999984436036,2|0,0:0|0:0,0:0:0:0:
184,128,241032,5,8,0:1:0:0:
393,170,241200,1,8,0:1:0:0:
125,223,241367,1,8,0:0:0:0:
296,110,241535,1,8,0:1:0:0:
116,44,241703,6,0,L|121:95,1,50.9999984436036,2|0,0:0|0:0,0:0:0:0:
221,285,241870,2,0,L|216:234,1,50.9999984436036,8|0,0:1|0:0,0:0:0:0:
94,177,242038,2,0,B|180:189|161:137|240:153,1,152.999995330811,10|0,0:0|0:0,0:0:0:0:
281,173,242373,6,0,P|268:121|291:67,1,101.999996887207,6|0,0:0|0:0,0:0:0:0:
440,203,242708,1,8,0:0:0:0:
254,270,242876,2,0,B|312:285|350:246|350:246|368:294|431:303,1,203.999993774414,10|8,0:1|0:1,0:0:0:0:
194,356,243379,1,8,0:0:0:0:
283,180,243546,2,0,L|217:188,1,50.9999984436036,2|2,0:0|0:0,0:0:0:0:
145,81,243714,6,0,B|180:61|180:61|213:81|213:81|286:86,1,152.999995330811,8|0,0:1|0:0,0:0:0:0:
435,137,244049,2,0,L|431:71,1,50.9999984436036,8|0,0:0|0:0,0:0:0:0:
324,18,244217,2,0,P|329:122|335:231,1,203.999993774414,10|8,0:1|0:1,0:0:0:0:
194,356,244719,2,0,L|201:294,1,50.9999984436036,8|0,0:0|0:0,0:0:0:0:
464,294,244887,5,2,0:0:0:0:
464,294,244971,1,2,0:0:0:0:
464,294,245055,2,0,B|396:270|407:326|317:317,1,152.999995330811,10|0,0:1|0:0,0:0:0:0:
284,304,245390,1,8,0:0:0:0:
117,229,245557,2,0,P|110:280|105:336,1,101.999996887207,10|0,0:1|0:0,0:0:0:0:
284,304,245893,1,10,0:1:0:0:
217,99,246060,2,0,P|222:149|228:200,1,101.999996887207,8|0,0:0|0:0,0:0:0:0:
389,351,246395,5,10,0:1:0:0:
424,322,246479,1,2,3:2:0:0:
443,279,246563,1,2,3:2:0:0:
443,233,246647,1,2,3:2:0:0:
421,192,246731,1,8,0:0:0:0:
235,86,246898,2,0,P|240:123|246:159,1,50.9999984436036,12|0,0:0|0:0,0:0:0:0:
345,258,247066,5,0,0:0:0:0:
189,369,247233,2,0,P|194:331|200:296,1,50.9999984436036,8|8,0:1|0:1,0:0:0:0:
351,264,247401,6,0,L|279:260,1,63.75,8|0,0:0|0:0,0:0:0:0:
162,185,247736,6,0,B|202:167|202:167|238:183|238:183|318:179,1,152.999995330811,12|0,0:1|0:0,0:0:0:0:
273,39,248071,2,0,L|262:98,1,50.9999984436036,8|0,0:0|0:0,0:0:0:0:
112,267,248239,2,0,B|76:228|76:228|65:180,1,101.999996887207,10|0,0:1|0:0,0:0:0:0:
146,29,248574,1,10,0:1:0:0:
176,55,248658,1,0,0:0:0:0:
179,95,248742,1,8,0:0:0:0:
24,299,248909,2,0,L|35:241,1,50.9999984436036,2|0,0:0|0:0,0:0:0:0:
101,95,249077,6,0,P|48:100|-1:105,1,101.999996887207,8|8,0:1|0:1,0:0:0:0:
162,185,249412,1,10,0:0:0:0:
293,105,249580,1,8,0:1:0:0:
109,287,249747,2,0,P|161:292|211:297,1,101.999996887207,2|8,0:0|0:1,0:0:0:0:
47,360,250083,2,0,P|10:295|36:226,1,152.999995330811,10|0,0:0|3:0,0:0:0:0:
81,205,250418,6,0,P|74:154|69:102,1,101.999996887207,10|0,0:1|0:0,0:0:0:0:
212,283,250753,1,8,0:0:0:0:
355,85,250921,2,0,P|350:135|343:186,1,101.999996887207,10|0,0:1|0:0,0:0:0:0:
203,33,251256,1,10,0:1:0:0:
339,197,251423,2,0,B|269:175|284:219|184:202,1,152.999995330811,8|0,0:0|0:0,0:0:0:0:
156,185,251759,6,0,P|190:147|237:155,1,101.999996887207,8|8,0:1|0:1,0:0:0:0:
366,284,252094,2,0,P|332:280|303:278,1,50.9999984436036,8|0,0:0|0:0,0:0:0:0:
162,359,252261,2,0,P|195:355|225:353,1,50.9999984436036,8|0,0:1|0:0,0:0:0:0:
376,294,252429,6,0,P|380:243|385:192,1,101.999996887207,2|8,0:0|0:1,0:0:0:0:
490,369,252764,2,0,B|441:352|441:352|416:376|416:376|336:386,1,152.999995330811,10|0,0:0|0:0,0:0:0:0:
300,377,253099,6,0,P|293:325|284:267,1,101.999996887207,12|0,0:1|0:0,0:0:0:0:
237,127,253435,1,8,0:0:0:0:
354,0,253602,2,0,P|347:52|338:110,1,101.999996887207,10|0,0:1|0:0,0:0:0:0:
188,227,253937,2,0,P|133:211|78:215,1,101.999996887207,10|8,0:1|0:0,0:0:0:0:
237,127,254273,1,2,0:0:0:0:
209,333,254440,6,0,B|262:323|285:276|285:276|318:307|371:298,1,152.999995330811,8|0,0:1|0:0,0:0:0:0:
426,278,254775,1,10,0:0:0:0:
188,227,254943,1,8,0:1:0:0:
333,158,255110,2,0,P|336:107|314:63,1,101.999996887207,2|8,0:0|0:1,0:0:0:0:
99,195,255446,2,0,P|95:245|118:290,1,101.999996887207,10|0,0:0|0:0,0:0:0:0:
308,371,255781,6,0,P|318:270|332:149,1,203.999993774414,10|8,0:1|0:0,0:0:0:0:
170,17,256284,2,0,P|177:68|185:125,1,101.999996887207,10|0,0:1|0:0,0:0:0:0:
353,284,256619,1,8,0:1:0:0:
103,243,256786,2,0,B|141:221|141:221|178:236|178:236|282:249,1,152.999995330811,10|0,0:0|0:0,0:0:0:0:
353,284,257122,5,10,0:1:0:0:
358,256,257205,1,2,0:0:0:0:
358,228,257289,1,2,0:0:0:0:
354,200,257373,1,2,0:0:0:0:
345,174,257457,1,14,0:0:0:0:
335,146,257541,1,0,0:0:0:0:
331,119,257624,1,2,3:2:0:0:
331,91,257708,1,2,3:2:0:0:
336,64,257792,2,0,P|365:68|402:76,1,50.9999984436036,8|0,3:1|3:0,0:0:0:0:
433,155,257960,5,8,0:0:0:0:
391,176,258043,1,8,0:0:0:0:
345,174,258127,1,8,0:0:0:0:
301,159,258211,1,0,3:0:0:0:
256,165,258295,1,8,0:3:0:0:
228,190,258379,1,4,0:3:0:0:
218,221,258462,6,0,P|216:174|193:122,1,101.999996887207,12|0,0:1|0:0,0:0:0:0:
118,283,258798,5,8,0:0:0:0:
298,240,258965,1,8,0:1:0:0:
207,227,259133,5,8,0:0:0:0:
387,270,259300,1,8,0:1:0:0:
296,283,259468,5,8,0:0:0:0:
476,240,259636,1,8,0:1:0:0:
356,183,259803,5,12,0:0:0:0:
418,357,259971,1,8,0:1:0:0:
442,112,260138,5,8,0:0:0:0:
380,286,260306,2,0,L|386:229,1,50.9999984436036,8|8,0:1|0:1,0:0:0:0:
356,41,260474,5,8,0:0:0:0:
418,215,260641,1,10,0:1:0:0:
356,41,260809,5,10,0:0:0:0:
294,215,260976,2,0,L|377:205,1,50.9999984436036,10|0,0:1|0:0,0:0:0:0:
448,126,261144,6,0,B|400:107|400:107|373:122|373:122|286:115,1,152.999995330811,12|0,0:1|0:0,0:0:0:0:
256,112,261479,1,4,0:3:0:0:
102,229,261647,6,0,B|150:210|150:210|177:225|177:225|264:218,1,152.999995330811,12|0,0:1|0:0,0:0:0:0:
294,215,261982,1,4,0:3:0:0:
266,366,262150,6,0,L|278:308,1,50.9999984436036,8|0,0:0|0:0,0:0:0:0:
397,179,262317,2,0,L|407:228,1,50.9999984436036,2|2,0:0|0:0,0:0:0:0:
432,320,262485,6,0,B|384:301|384:301|357:316|357:316|279:308,1,152.999995330811,12|0,0:0|0:0,0:0:0:0:
112,295,263155,6,0,P|152:343|186:250,1,203.999993774414
115,112,263658,5,10,0:1:0:0:
85,138,263742,1,10,0:1:0:0:
82,178,263826,1,12,0:1:0:0:
302,207,263993,1,8,0:1:0:0:
186,242,264161,1,8,0:1:0:0:
478,243,264328,5,10,0:0:0:0:
258,273,264496,1,8,0:1:0:0:
374,308,264664,1,8,0:1:0:0:
82,309,264831,5,10,0:0:0:0:
302,339,264999,1,8,0:1:0:0:
49,207,265166,5,10,0:0:0:0:
225,342,265334,1,8,0:1:0:0:
91,78,265502,5,8,0:1:0:0:
176,282,265669,1,10,0:0:0:0:
183,65,265837,5,8,0:1:0:0:
99,269,266004,1,8,0:1:0:0:
267,178,266172,5,10,0:0:0:0:
49,207,266340,1,8,0:1:0:0:
371,243,266507,5,10,0:0:0:0:
151,214,266675,1,8,0:1:0:0:
267,178,266842,1,8,0:1:0:0:
88,65,267010,5,10,0:0:0:0:
308,95,267178,1,8,0:1:0:0:
191,130,267345,1,8,0:1:0:0:
487,208,267513,5,10,0:0:0:0:
487,208,267848,5,10,0:0:0:0:
267,238,268016,1,8,0:1:0:0:
383,273,268183,5,10,0:1:0:0:
151,203,268351,1,8,0:0:0:0:
410,201,268518,5,10,0:1:0:0:
178,271,268686,1,8,0:1:0:0:
460,260,268854,5,12,0:0:0:0:
227,190,269021,1,8,0:1:0:0:
434,130,269189,5,12,0:1:0:0:
345,207,269524,1,8,0:1:0:0:
230,182,269859,1,8,0:1:0:0:
198,67,270194,1,8,0:1:0:0:
315,15,270362,5,2,0:0:0:0:
320,46,270446,1,2,0:0:0:0:
306,73,270529,1,10,0:1:0:0:
206,60,270697,1,2,0:0:0:0:
201,167,270865,5,10,0:1:0:0:
301,154,271032,1,2,0:0:0:0:
306,261,271200,5,10,0:1:0:0:
206,248,271367,1,2,0:0:0:0:
201,355,271535,5,10,0:1:0:0:
301,342,271703,1,2,0:0:0:0:
196,162,271870,6,0,P|156:167|131:202,1,85,12|0,0:0|0:0,0:0:0:0:
301,342,272205,5,10,0:0:0:0:
201,167,272373,1,8,0:0:0:0:
201,355,272541,5,10,0:0:0:0:
301,154,272708,1,8,0:0:0:0:
306,261,272876,5,10,0:0:0:0:
206,60,273043,1,8,0:0:0:0:
206,248,273211,5,10,0:0:0:0:
306,73,273379,1,8,0:0:0:0:
314,270,273546,1,8,0:0:0:0:
215,51,273714,2,0,L|205:109,1,50.9999984436036,0|0,3:0|3:0,0:0:0:0:
115,277,273881,5,8,0:0:0:0:
274,185,274049,5,8,0:3:0:0:
405,255,274217,5,4,0:3:0:0:
425,367,274384,5,2,0:0:0:0:
414,375,274468,1,2,0:0:0:0:
402,379,274552,2,0,B|391:385|360:393|297:403|252:400|199:353|119:286|134:205|133:182|225:21|288:12|389:-2|469:77|554:197|513:226|480:293|426:340|355:380|274:373|183:286|238:163|322:155|363:197,1,1088,12|0,0:1|0:0,0:0:0:0:
