osu file format v14

[General]
AudioFilename: audio.mp3
AudioLeadIn: 0
PreviewTime: 63895
Countdown: 1
SampleSet: Soft
StackLeniency: 0.6
Mode: 0
LetterboxInBreaks: 0
WidescreenStoryboard: 1

[Editor]
DistanceSpacing: 1.3
BeatDivisor: 4
GridSize: 32
TimelineZoom: 2.6

[Metadata]
Title:Rinne
TitleUnicode:輪廻
Artist:Yamamoto Mineko
ArtistUnicode:山本美禰子
Creator:-Brethia
Version:Dubturt's Insane
Source:さくら、もゆ。-as the Night's, Reincarnation-
Tags:Japanese Sakura Moyu Night 2nd Opening op2 Favorite Eroge Complete Album Original Soundtrack video game 石倉誉之 小高光太郎 Ishikura Takayuki Odaka Kotaro _kotachi_ kotachi dubturt Satellite
BeatmapID:2272506
BeatmapSetID:999356

[Difficulty]
HPDrainRate:5
CircleSize:4
OverallDifficulty:8
ApproachRate:9
SliderMultiplier:1.5
SliderTickRate:1

[Events]
//Background and Video events
0,0,"BG.jpg",0,0
//Break Periods
2,215757,225684
2,234528,235404
//Storyboard Layer 0 (Background)
//Storyboard Layer 1 (Fail)
//Storyboard Layer 2 (Pass)
//Storyboard Layer 3 (Foreground)
//Storyboard Layer 4 (Overlay)
//Storyboard Sound Samples

[TimingPoints]
-308,335.195530726257,4,2,1,40,1,0
1032,-133.333333333333,4,2,3,40,0,0
11759,-111.111111111111,4,2,1,40,0,0
17122,-100,4,2,2,70,0,0
17289,-100,4,2,1,70,0,0
22485,-142.857142857143,4,2,1,70,0,0
23658,-142.857142857143,4,2,1,20,0,0
23826,-133.333333333333,4,2,1,40,0,0
43602,-133.333333333333,4,2,1,20,0,0
43854,-133.333333333333,4,2,1,5,0,0
43937,-133.333333333333,4,2,1,40,0,0
46619,-111.111111111111,4,2,1,50,0,0
57345,-99.9999999999999,4,2,1,60,0,0
65055,-133.333333333333,4,2,1,60,0,0
65306,-133.333333333333,4,2,1,5,0,0
65390,-83.3333333333333,4,2,1,70,0,1
70753,-83.3333333333333,4,2,2,70,0,1
71088,-83.3333333333333,4,2,1,70,0,1
89524,-83.3333333333333,4,2,2,70,0,1
90865,-83.3333333333333,4,2,1,70,0,1
92205,-100,4,2,2,70,0,0
92541,-100,4,2,1,70,0,0
100250,-100,4,2,2,70,0,0
101591,-100,4,2,1,70,0,0
102932,-111.111111111111,4,2,1,60,0,0
113658,-100,4,2,1,60,0,0
119021,-100,4,2,1,65,0,0
120362,-100,4,2,2,65,0,0
120697,-100,4,2,1,65,0,0
124384,-111.111111111111,4,2,1,50,0,0
135110,-100,4,2,1,60,0,0
141647,-100,4,2,2,70,0,0
141982,-100,4,2,1,70,0,0
142652,-100,4,2,1,55,0,0
142820,-100,4,2,1,70,0,0
143155,-83.3333333333333,4,2,1,70,0,1
148518,-83.3333333333333,4,2,2,70,0,1
148854,-83.3333333333333,4,2,1,70,0,1
167289,-83.3333333333333,4,2,2,70,0,1
168630,-90.9090909090909,4,2,1,70,0,1
169971,-100,4,2,1,65,0,0
170055,-100,4,2,2,65,0,0
190250,-100,4,2,2,45,0,0
190418,-100,4,2,2,65,0,0
190753,-100,4,2,2,65,0,0
191423,-90.9090909090909,4,2,1,70,0,0
192764,-90.9090909090909,4,2,1,70,0,0
194105,-90.9090909090909,4,2,2,70,0,0
194440,-90.9090909090909,4,2,1,70,0,0
196786,-90.9090909090909,4,2,2,70,0,0
197122,-90.9090909090909,4,2,1,70,0,0
207513,-90.9090909090909,4,2,1,70,0,0
212876,-71.4285714285714,4,2,1,70,0,0
214552,-333.333333333333,4,2,1,50,0,0
215557,-333.333333333333,4,2,3,50,0,0
225278,-200,4,2,3,50,0,0
225613,-166.666666666667,4,2,3,50,0,0
225948,-142.857142857143,4,2,3,50,0,0
226284,-133.333333333333,4,2,3,50,0,0
234328,-100,4,2,3,50,0,0
236004,-200,4,2,3,50,0,0
236256,-200,4,2,3,5,0,0
236340,-133.333333333333,4,2,3,50,0,0
236591,-133.333333333333,4,2,3,5,0,0
236675,-83.3333333333333,4,2,3,50,0,0
236926,-83.3333333333333,4,2,3,5,0,0
237010,-83.3333333333333,4,2,1,70,0,1
242373,-83.3333333333333,4,2,2,70,0,1
242708,-83.3333333333333,4,2,1,70,0,1
261144,-83.3333333333333,4,2,2,70,0,1
262485,-83.3333333333333,4,2,1,70,0,1
263826,-90.9090909090909,4,2,2,70,0,0
264161,-90.9090909090909,4,2,1,70,0,0
271870,-90.9090909090909,4,2,2,70,0,0
274384,-90.9090909090909,4,2,1,70,0,0
274552,-172.413793103448,4,2,1,100,0,0
278574,-172.413793103448,4,2,1,70,0,0
279245,-172.413793103448,4,2,1,50,0,0
279580,-172.413793103448,4,2,1,25,0,0
279915,-172.413793103448,4,2,1,5,0,0

[Colours]
Combo1 : 128,255,128
Combo2 : 255,159,207
Combo3 : 255,87,171
Combo4 : 255,255,111

[HitObjects]
374,369,1032,6,0,P|378:312|392:242,1,112.500004291535,4|0,0:0|0:0,0:0:0:0:
436,149,1535,1,0,0:0:0:0:
434,137,1870,1,0,0:0:0:0:
432,125,2205,1,2,0:0:0:0:
432,125,2708,5,0,0:0:0:0:
337,168,2876,2,0,L|214:158,1,112.500004291535,2|0,0:0|0:0,0:0:0:0:
120,143,3379,1,2,0:0:0:0:
120,143,3714,6,0,P|116:101|36:72,1,112.500004291535,4|0,0:0|0:0,0:0:0:0:
17,165,4217,1,2,0:0:0:0:
19,176,4552,1,0,0:0:0:0:
21,187,4887,6,0,B|123:148|123:244|246:181,1,225.000008583069,2|2,0:0|0:0,0:0:0:0:
177,112,5725,2,0,P|256:93|327:149,1,168.750006437302,2|0,0:0|0:0,0:0:0:0:
322,141,6395,6,0,P|332:98|364:27,1,112.500004291535,4|0,0:0|0:0,0:0:0:0:
237,187,6898,2,0,P|227:144|195:73,1,112.500004291535,0|0,0:0|0:0,0:0:0:0:
120,180,7401,1,2,0:0:0:0:
120,180,7736,6,0,L|131:255,1,56.2500021457673,2|0,0:0|0:0,0:0:0:0:
194,319,8071,1,0,0:0:0:0:
233,219,8239,2,0,P|182:211|115:250,1,112.500004291535,2|0,0:0|0:0,0:0:0:0:
198,323,8742,1,2,0:0:0:0:
198,323,9077,6,0,P|166:279|99:250,1,112.500004291535,4|0,0:0|0:0,0:0:0:0:
6,322,9580,1,0,0:0:0:0:
17,324,9915,1,2,0:0:0:0:
28,325,10250,1,2,0:0:0:0:
332,265,10585,5,0,0:0:0:0:
320,262,10921,2,0,P|278:266|239:276,1,56.2500021457673,2|0,0:0|0:0,0:0:0:0:
176,296,11256,1,2,0:0:0:0:
263,150,11423,1,0,0:0:0:0:
263,150,11759,6,0,P|279:195|239:277,1,134.999995880127,12|0,0:1|0:0,0:0:0:0:
116,189,12261,2,0,L|198:204,1,67.4999979400635,0|0,0:0|0:0,0:0:0:0:
365,133,12597,1,2,0:0:0:0:
331,233,12764,1,2,0:0:0:0:
263,150,12932,1,2,0:0:0:0:
365,133,13099,6,0,P|435:114|450:105,1,67.4999979400635,0|0,0:0|0:2,0:0:0:0:
295,34,13435,1,0,0:0:0:0:
275,37,13518,1,0,0:0:0:0:
256,45,13602,2,0,P|237:67|235:80,1,33.7499989700318,0|0,0:0|0:0,0:0:0:0:
228,166,13770,1,0,0:0:0:0:
208,160,13854,1,0,0:0:0:0:
188,153,13937,1,0,0:0:0:0:
168,148,14021,1,0,0:0:0:0:
148,144,14105,2,0,P|157:197|161:240,1,67.4999979400635,2|0,0:0|0:0,0:0:0:0:
88,367,14440,6,0,P|81:327|53:228,1,134.999995880127,2|2,0:0|0:0,0:0:0:0:
178,146,14943,2,0,P|158:210|153:241,1,67.4999979400635,2|0,0:0|0:0,0:0:0:0:
168,56,15278,2,0,P|108:87|83:105,1,67.4999979400635,2|0,0:0|0:0,0:0:0:0:
251,94,15613,6,0,B|289:100|289:100|344:82,1,67.4999979400635,2|0,0:0|0:0,0:0:0:0:
453,17,15948,2,0,L|449:65,1,33.7499989700318,2|0,0:0|0:0,0:0:0:0:
407,116,16116,2,0,L|417:211,1,67.4999979400635,0|2,0:0|0:0,0:0:0:0:
425,316,16451,2,0,P|394:274|292:270,1,134.999995880127,0|0,0:0|0:0,0:0:0:0:
194,304,16954,1,8,0:1:0:0:
316,259,17122,6,0,B|328:215|328:215|286:163|323:90,1,150,12|8,0:0|0:1,0:0:0:0:
462,158,17624,2,0,P|419:162|382:154,1,75,8|0,0:0|0:1,0:0:0:0:
427,51,17960,1,8,0:1:0:0:
313,189,18127,2,0,P|306:137|324:94,1,75,10|8,0:0|0:1,0:0:0:0:
446,347,18462,6,0,P|392:339|370:311,1,75,10|8,0:0|0:1,0:0:0:0:
313,189,18798,2,0,P|331:220|328:257,1,75,10|8,0:1|0:0,0:0:0:0:
237,375,19133,2,0,P|254:343|287:327,1,75,10|8,0:1|0:1,0:0:0:0:
446,347,19468,2,0,P|392:339|370:311,1,75,8|8,0:0|0:1,0:0:0:0:
393,131,19803,6,0,P|415:182|431:282,1,150,10|8,0:0|0:1,0:0:0:0:
481,127,20306,1,10,0:0:0:0:
347,261,20474,2,0,P|342:219|319:172,1,75,2|8,0:0|0:1,0:0:0:0:
206,142,20809,2,0,L|110:155,1,75,8|8,0:0|0:1,0:0:0:0:
300,87,21144,6,0,L|396:100,1,75,8|10,0:1|0:0,0:0:0:0:
206,142,21479,1,8,0:1:0:0:
190,28,21647,1,8,0:1:0:0:
337,181,21814,2,0,P|348:216|341:252,1,75,8|0,0:0|0:0,0:0:0:0:
168,253,22150,2,0,P|161:218|173:180,1,75,12|0,0:0|0:0,0:0:0:0:
256,359,22485,6,0,B|274:322|321:239|205:141|205:141|190:191|151:228|175:273,1,367.49998878479,12|0,0:1|0:0,0:0:0:0:
104,369,23826,6,0,P|100:328|98:321,3,28.1250010728836,0|0|2|2,0:0|0:0|0:0|0:0,0:0:0:0:
37,278,24161,2,0,P|41:237|43:230,3,28.1250010728836,2|2|8|2,0:0|0:0|0:3|0:0,0:0:0:0:
96,185,24496,1,2,0:0:0:0:
112,187,24579,1,2,0:0:0:0:
129,190,24663,1,4,0:3:0:0:
145,193,24747,1,2,0:0:0:0:
162,195,24831,2,0,P|210:180|250:143,1,84.3750032186509,4|2,0:3|0:0,0:0:0:0:
229,107,25166,6,0,L|248:235,2,112.500004291535,12|0|0,0:1|0:0|0:0,0:0:0:0:
261,303,26172,1,2,0:0:0:0:
340,244,26340,1,0,0:0:0:0:
261,303,26507,6,0,P|211:298|145:280,1,112.500004291535,2|0,0:0|0:0,0:0:0:0:
266,211,27010,2,0,P|316:216|382:234,1,112.500004291535,2|0,0:0|0:0,0:0:0:0:
470,280,27512,1,2,0:0:0:0:
385,332,27680,1,8,0:1:0:0:
376,231,27848,6,0,P|369:190|375:99,1,112.500004291535,10|0,0:1|0:0,0:0:0:0:
458,54,28351,2,0,P|464:87|457:115,1,56.2500021457673,2|0,0:0|0:0,0:0:0:0:
287,108,28686,2,0,P|282:81|288:54,1,56.2500021457673,2|0,0:0|0:0,0:0:0:0:
371,119,29021,1,0,0:0:0:0:
256,203,29189,6,0,L|120:185,1,112.500004291535,2|0,0:0|0:1,0:0:0:0:
144,188,29692,1,8,0:1:0:0:
226,284,29859,2,0,L|308:297,1,56.2500021457673,2|0,0:0|0:0,0:0:0:0:
209,123,30194,2,0,L|127:110,1,56.2500021457673,2|8,0:0|0:1,0:0:0:0:
256,203,30529,6,0,P|268:169|292:78,2,112.500004291535,10|0|0,0:1|0:0|0:0,0:0:0:0:
311,22,31535,1,2,0:0:0:0:
396,86,31703,1,0,0:0:0:0:
311,22,31870,6,0,P|235:25|197:29,1,112.500004291535,2|0,0:0|0:0,0:0:0:0:
28,89,32373,2,0,P|104:92|142:96,1,112.500004291535,2|8,0:0|0:1,0:0:0:0:
224,172,32876,1,2,0:0:0:0:
309,106,33043,1,8,0:1:0:0:
224,172,33211,6,0,P|214:213|222:283,1,112.500004291535,10|0,0:1|0:0,0:0:0:0:
306,362,33714,2,0,L|387:353,1,56.2500021457673,2|0,0:0|0:0,0:0:0:0:
221,282,34049,2,0,L|140:291,1,56.2500021457673,0|2,0:0|0:0,0:0:0:0:
306,362,34384,1,0,0:0:0:0:
347,266,34552,6,0,P|350:224|351:185,1,56.2500021457673,0|2,0:0|0:0,0:0:0:0:
292,41,34887,1,2,0:0:0:0:
292,127,35055,1,8,0:1:0:0:
147,209,35222,1,2,0:0:0:0:
147,123,35390,1,8,0:1:0:0:
249,219,35557,2,0,P|257:262|256:294,1,56.2500021457673,2|0,0:0|0:0,0:0:0:0:
147,209,35893,6,0,P|145:163|202:104,2,112.500004291535,10|0|0,0:1|0:0|0:0,0:0:0:0:
250,71,36898,1,2,0:0:0:0:
173,15,37066,1,0,0:0:0:0:
250,71,37233,6,0,L|385:61,1,112.500004291535,10|0,0:1|0:0,0:0:0:0:
466,145,37736,2,0,L|331:155,1,112.500004291535,2|0,0:0|0:0,0:0:0:0:
257,195,38239,1,2,0:0:0:0:
337,255,38407,1,0,0:0:0:0:
353,153,38574,6,0,P|334:126|260:91,1,112.500004291535,10|0,0:1|0:0,0:0:0:0:
202,208,39077,2,0,L|273:191,1,56.2500021457673,2|0,0:0|0:0,0:0:0:0:
155,132,39412,1,2,0:0:0:0:
243,287,39580,2,0,L|314:270,1,56.2500021457673,0|8,0:0|0:1,0:0:0:0:
202,208,39915,6,0,P|168:235|157:321,1,112.500004291535,10|2,0:1|0:0,0:0:0:0:
151,299,40418,1,8,0:1:0:0:
51,378,40585,2,0,L|41:312,1,56.2500021457673,2|0,0:0|0:0,0:0:0:0:
142,221,40921,2,0,L|152:287,1,56.2500021457673,10|0,0:1|0:0,0:0:0:0:
31,226,41256,6,0,L|18:93,2,112.500004291535,10|0|0,0:1|0:0|0:0,0:0:0:0:
112,52,42261,1,2,0:0:0:0:
22,24,42429,1,0,0:0:0:0:
112,52,42597,6,0,P|161:47|227:37,1,112.500004291535,10|0,0:1|0:0,0:0:0:0:
363,130,43099,2,0,P|314:125|248:115,1,112.500004291535,2|0,0:0|0:0,0:0:0:0:
103,141,43602,2,0,L|128:247,1,84.3750032186509,4|0,0:0|0:0,0:0:0:0:
133,248,43937,6,0,P|165:245|200:216,1,56.2500021457673,10|0,0:1|0:0,0:0:0:0:
229,109,44273,2,0,P|215:138|223:183,1,56.2500021457673,8|0,0:1|0:0,0:0:0:0:
307,260,44608,2,0,P|288:233|245:217,1,56.2500021457673,8|0,0:1|0:0,0:0:0:0:
229,311,44943,1,8,0:1:0:0:
229,109,45110,6,0,P|215:138|223:183,1,56.2500021457673,12|0,0:0|0:0,0:0:0:0:
229,311,45446,1,2,0:0:0:0:
268,221,45613,1,4,0:3:0:0:
166,239,45781,1,8,0:3:0:0:
379,299,45948,2,0,P|377:241|372:221,1,56.2500021457673,0|4,0:0|0:3,0:0:0:0:
268,116,46284,1,8,0:1:0:0:
268,221,46451,1,2,0:0:0:0:
184,101,46619,6,0,P|205:62|292:33,1,134.999995880127,12|8,0:1|0:1,0:0:0:0:
268,116,47122,1,0,0:0:0:0:
378,19,47289,2,0,L|381:108,1,67.4999979400635,8|0,0:1|0:0,0:0:0:0:
265,183,47624,2,0,L|268:94,1,67.4999979400635,8|0,0:1|0:0,0:0:0:0:
370,172,47960,6,0,P|411:167|461:78,1,134.999995880127,10|8,0:1|0:1,0:0:0:0:
267,115,48462,2,0,L|265:183,1,67.4999979400635,2|8,0:0|0:1,0:0:0:0:
261,283,48798,1,2,0:0:0:0:
178,91,48965,2,0,L|176:159,1,67.4999979400635,8|2,0:1|0:0,0:0:0:0:
261,283,49300,6,0,P|308:283|373:361,1,134.999995880127,8|8,0:1|0:1,0:0:0:0:
204,337,49803,2,0,P|185:302|192:253,1,67.4999979400635,2|8,0:0|0:1,0:0:0:0:
75,185,50138,2,0,P|114:186|153:216,1,67.4999979400635,2|8,0:0|0:1,0:0:0:0:
236,202,50474,1,2,0:0:0:0:
85,319,50641,6,0,L|75:185,1,134.999995880127,10|8,0:1|0:1,0:0:0:0:
236,202,51144,2,0,L|227:286,1,67.4999979400635,2|8,0:0|0:1,0:0:0:0:
157,162,51479,1,2,0:0:0:0:
324,229,51647,2,0,L|315:313,1,67.4999979400635,8|2,0:1|0:0,0:0:0:0:
267,164,51982,6,0,P|325:150|409:193,1,134.999995880127,8|8,0:1|0:1,0:0:0:0:
316,296,52485,2,0,L|324:229,1,67.4999979400635,2|8,0:0|0:1,0:0:0:0:
219,309,52820,1,2,0:0:0:0:
421,207,52988,1,8,0:1:0:0:
407,308,53155,1,2,0:0:0:0:
219,187,53323,6,0,P|182:176|135:177,1,67.4999979400635,8|0,0:1|0:0,0:0:0:0:
43,272,53658,2,0,P|71:245|93:204,1,67.4999979400635,8|2,0:1|0:0,0:0:0:0:
58,75,53993,2,0,P|66:112|91:152,1,67.4999979400635,8|0,0:1|0:0,0:0:0:0:
219,187,54328,2,0,P|182:176|135:177,1,67.4999979400635,10|0,0:1|0:0,0:0:0:0:
301,138,54664,6,0,P|334:135|442:100,1,134.999995880127,8|8,0:1|0:1,0:0:0:0:
364,218,55166,2,0,P|328:225|281:226,1,67.4999979400635,0|8,0:0|0:1,0:0:0:0:
368,129,55502,1,2,0:0:0:0:
362,305,55669,2,0,P|326:312|279:313,1,67.4999979400635,8|0,0:1|0:0,0:0:0:0:
82,245,56004,6,0,B|118:236|118:236|232:275,1,134.999995880127,10|8,0:1|0:1,0:0:0:0:
210,267,56507,1,0,0:0:0:0:
76,177,56675,2,0,L|83:263,1,67.4999979400635,8|8,0:1|0:1,0:0:0:0:
206,165,57010,1,8,0:0:0:0:
206,68,57178,1,2,0:0:0:0:
76,177,57345,6,0,B|112:186|112:186|234:145,1,150,12|8,0:1|0:0,0:0:0:0:
436,177,57848,2,0,B|400:186|400:186|278:145,1,150,10|8,0:1|0:1,0:0:0:0:
402,95,58351,1,8,0:0:0:0:
352,253,58518,1,2,0:0:0:0:
402,95,58686,6,0,L|312:69,1,75,12|8,0:0|0:0,0:0:0:0:
293,64,58937,1,8,0:3:0:0:
293,64,59021,1,4,0:3:0:0:
223,174,59189,2,0,B|296:179|296:179|359:250,1,150,4|8,0:3|0:1,0:0:0:0:
447,320,59692,1,8,0:0:0:0:
477,211,59859,1,2,0:0:0:0:
346,236,60027,6,0,B|273:231|273:231|210:160,1,150,12|8,0:1|0:0,0:0:0:0:
117,101,60529,2,0,L|131:285,1,150,10|4,0:1|0:3,0:0:0:0:
135,287,60948,1,8,0:1:0:0:
135,287,61032,2,0,P|177:277|237:288,1,75,8|0,0:0|0:0,0:0:0:0:
356,361,61367,5,8,0:0:0:0:
359,338,61450,1,8,0:0:0:0:
362,316,61534,1,8,0:1:0:0:
366,294,61618,1,8,0:1:0:0:
369,272,61702,1,8,0:0:0:0:
319,161,61870,2,0,P|287:133|186:185,1,150,12|8,0:1|0:1,0:0:0:0:
256,279,62373,2,0,L|256:189,1,75,8|8,0:0|0:1,0:0:0:0:
259,166,62624,1,8,0:1:0:0:
259,166,62708,5,8,0:0:0:0:
330,55,62876,1,10,0:1:0:0:
124,117,63043,1,10,0:1:0:0:
330,55,63211,5,8,0:0:0:0:
182,55,63379,1,10,0:1:0:0:
388,117,63546,1,8,0:1:0:0:
256,19,63714,5,8,0:0:0:0:
171,207,63881,1,12,0:0:0:0:
171,207,64217,5,12,0:0:0:0:
388,117,64384,1,8,0:0:0:0:
388,117,64719,1,8,0:0:0:0:
412,145,64802,1,8,0:0:0:0:
436,174,64886,1,4,0:3:0:0:
413,201,64970,1,4,0:3:0:0:
387,228,65055,2,0,P|338:225|287:197,1,84.3750032186509,8|0,0:0|0:0,0:0:0:0:
297,120,65390,6,0,L|315:310,1,179.999994506836,12|10,0:1|0:0,0:0:0:0:
397,194,65893,2,0,L|388:96,1,89.9999972534181,10|0,0:1|0:0,0:0:0:0:
216,218,66228,2,0,L|225:316,1,89.9999972534181,10|8,0:1|0:0,0:0:0:0:
301,161,66563,1,2,0:0:0:0:
139,48,66731,5,8,0:1:0:0:
126,168,66898,1,8,0:1:0:0:
301,161,67066,2,0,P|352:165|401:124,1,89.9999972534181,8|8,0:0|0:1,0:0:0:0:
362,31,67401,2,0,P|311:27|262:68,1,89.9999972534181,2|8,0:0|0:1,0:0:0:0:
194,131,67736,2,0,L|211:242,1,89.9999972534181,10|0,0:0|3:0,0:0:0:0:
139,344,68071,6,0,P|83:344|22:238,1,179.999994506836,10|8,0:1|0:0,0:0:0:0:
119,157,68574,2,0,P|128:204|106:255,1,89.9999972534181,10|0,0:1|0:0,0:0:0:0:
12,143,68909,2,0,P|3:96|25:45,1,89.9999972534181,8|8,0:1|0:0,0:0:0:0:
111,12,69245,1,2,0:0:0:0:
223,141,69412,5,8,0:1:0:0:
288,49,69580,1,8,0:1:0:0:
111,12,69747,2,0,L|119:116,1,89.9999972534181,8|8,0:0|0:1,0:0:0:0:
145,251,70083,2,0,B|180:267|180:267|241:259,1,89.9999972534181,2|8,0:0|0:1,0:0:0:0:
365,185,70418,2,0,B|330:169|330:169|269:177,1,89.9999972534181,10|0,0:0|0:0,0:0:0:0:
410,269,70753,6,0,P|446:224|410:108,1,179.999994506836,6|8,0:0|0:0,0:0:0:0:
500,46,71256,2,0,P|468:17|400:16,1,89.9999972534181,10|0,0:1|0:0,0:0:0:0:
217,77,71591,1,8,0:1:0:0:
340,64,71759,1,8,0:0:0:0:
217,77,71926,1,2,0:0:0:0:
297,183,72094,5,10,0:1:0:0:
340,64,72261,1,8,0:1:0:0:
217,77,72429,1,8,0:0:0:0:
265,264,72597,2,0,P|325:262|369:144,1,179.999994506836,10|8,0:1|0:1,0:0:0:0:
217,77,73099,2,0,L|237:179,1,89.9999972534181,8|2,0:0|0:0,0:0:0:0:
245,209,73351,1,2,0:0:0:0:
245,209,73435,6,0,P|194:199|58:207,1,179.999994506836,10|10,0:1|0:0,0:0:0:0:
170,296,73937,2,0,P|232:302|276:315,1,89.9999972534181,10|0,0:1|0:0,0:0:0:0:
359,325,74273,1,10,0:1:0:0:
157,196,74440,2,0,P|219:202|263:215,1,89.9999972534181,8|0,0:0|0:0,0:0:0:0:
436,181,74775,5,10,0:1:0:0:
409,182,74858,1,2,3:2:0:0:
382,178,74942,1,2,3:2:0:0:
356,169,75026,1,2,3:2:0:0:
333,157,75110,1,8,0:0:0:0:
241,39,75278,5,12,0:0:0:0:
241,39,75613,1,8,0:1:0:0:
241,39,75697,1,8,0:1:0:0:
241,39,75781,2,0,L|253:196,1,134.999995880127,8|0,0:0|0:0,0:0:0:0:
280,261,76116,6,0,P|260:185|142:145,1,179.999994506836,12|8,0:1|0:0,0:0:0:0:
130,47,76619,2,0,P|180:38|230:54,1,89.9999972534181,10|0,0:1|0:0,0:0:0:0:
197,228,76954,2,0,P|147:237|97:221,1,89.9999972534181,10|8,0:1|0:0,0:0:0:0:
23,131,77289,1,2,0:0:0:0:
24,312,77456,5,8,0:1:0:0:
109,227,77624,1,8,0:1:0:0:
183,366,77792,2,0,L|291:351,1,89.9999972534181,10|8,0:0|0:1,0:0:0:0:
405,300,78127,2,0,P|416:258|392:205,1,89.9999972534181,2|8,0:0|0:1,0:0:0:0:
250,176,78462,2,0,P|239:218|263:271,1,89.9999972534181,10|0,0:0|3:0,0:0:0:0:
435,353,78798,6,0,P|455:289|427:164,1,179.999994506836,10|8,0:1|0:0,0:0:0:0:
335,127,79300,2,0,L|211:149,1,89.9999972534181,10|0,0:1|0:0,0:0:0:0:
225,25,79636,2,0,L|349:3,1,89.9999972534181,10|8,0:1|0:0,0:0:0:0:
407,57,79971,1,2,0:0:0:0:
306,246,80138,5,8,0:1:0:0:
246,142,80306,1,8,0:1:0:0:
145,251,80474,2,0,P|90:237|58:216,1,89.9999972534181,8|8,0:0|0:1,0:0:0:0:
246,142,80809,2,0,L|225:248,1,89.9999972534181,2|8,0:0|0:1,0:0:0:0:
119,134,81144,2,0,L|140:28,1,89.9999972534181,10|0,0:0|0:0,0:0:0:0:
21,142,81479,6,0,P|62:220|145:251,1,179.999994506836,12|8,0:1|0:0,0:0:0:0:
277,318,81982,2,0,P|222:320|171:346,1,89.9999972534181,10|0,0:1|0:0,0:0:0:0:
306,224,82317,2,0,P|348:239|392:238,1,89.9999972534181,10|8,0:1|0:0,0:0:0:0:
217,203,82652,1,2,0:0:0:0:
347,352,82820,5,8,0:1:0:0:
392,238,82988,1,8,0:1:0:0:
217,203,83155,2,0,L|104:172,1,89.9999972534181,8|8,0:0|0:1,0:0:0:0:
237,89,83490,2,0,L|350:58,1,89.9999972534181,2|8,0:0|0:1,0:0:0:0:
468,88,83826,2,0,P|485:132|470:203,1,89.9999972534181,8|0,0:0|0:0,0:0:0:0:
469,217,84077,1,0,0:0:0:0:
469,217,84161,6,0,P|420:211|289:203,1,179.999994506836,10|8,0:1|0:0,0:0:0:0:
155,308,84664,2,0,P|204:302|335:294,1,179.999994506836,10|8,0:1|0:1,0:0:0:0:
197,201,85166,2,0,P|149:195|78:177,1,89.9999972534181,8|0,0:0|0:0,0:0:0:0:
16,62,85502,5,10,0:1:0:0:
17,88,85585,1,2,0:0:0:0:
18,115,85669,1,10,0:1:0:0:
19,142,85753,1,2,0:0:0:0:
21,169,85837,2,0,L|46:274,1,89.9999972534181,12|0,0:0|0:0,0:0:0:0:
107,341,86172,1,8,0:1:0:0:
239,256,86340,1,8,0:0:0:0:
239,256,86423,1,8,0:0:0:0:
239,256,86507,2,0,L|314:265,1,44.999998626709,8|8,0:0|0:3,0:0:0:0:
446,224,86675,2,0,L|384:245,1,44.999998626709,4|4,0:3|0:3,0:0:0:0:
275,281,86842,6,0,L|158:264,1,89.9999972534181,12|0,0:1|0:0,0:0:0:0:
340,107,87178,1,8,0:0:0:0:
332,198,87345,1,8,0:1:0:0:
251,141,87513,1,8,0:0:0:0:
259,50,87680,1,8,0:1:0:0:
340,107,87848,5,8,0:0:0:0:
235,236,88016,1,8,0:1:0:0:
173,85,88183,5,12,0:0:0:0:
339,107,88350,1,8,0:1:0:0:
314,273,88518,1,8,0:0:0:0:
151,252,88686,1,8,0:1:0:0:
151,252,88770,1,8,0:1:0:0:
151,252,88854,2,0,L|39:233,1,89.9999972534181,8|10,0:0|0:1,0:0:0:0:
211,188,89189,1,10,0:0:0:0:
361,252,89356,1,10,0:1:0:0:
361,252,89440,1,8,0:1:0:0:
361,252,89524,6,0,L|473:233,1,89.9999972534181,12|2,0:1|0:0,0:0:0:0:
301,188,89859,1,4,0:3:0:0:
421,316,90027,2,0,L|533:297,1,89.9999972534181,12|2,0:1|0:0,0:0:0:0:
361,252,90362,1,4,0:3:0:0:
344,372,90529,1,12,0:1:0:0:
467,216,90697,1,2,0:0:0:0:
467,216,90781,1,2,0:0:0:0:
467,216,90865,5,12,0:0:0:0:
467,216,92038,1,8,0:1:0:0:
467,216,92122,1,8,0:1:0:0:
467,216,92205,6,0,P|391:220|298:211,1,150,12|8,0:1|0:1,0:0:0:0:
199,172,92708,2,0,L|214:278,1,75,8|0,0:0|0:0,0:0:0:0:
281,141,93043,1,8,0:1:0:0:
112,196,93211,2,0,L|127:302,1,75,10|0,0:0|0:0,0:0:0:0:
281,141,93546,6,0,L|266:35,1,75,8|8,0:0|0:1,0:0:0:0:
199,172,93881,2,0,L|214:278,1,75,8|8,0:1|0:0,0:0:0:0:
363,117,94217,2,0,L|348:11,1,75,10|0,0:1|0:0,0:0:0:0:
112,196,94552,2,0,L|127:302,1,75,10|0,0:0|0:0,0:0:0:0:
212,118,94887,6,0,P|165:74|67:66,1,150,10|8,0:0|0:1,0:0:0:0:
15,181,95390,2,0,P|66:164|110:172,1,75,10|0,0:0|0:0,0:0:0:0:
196,212,95725,1,8,0:1:0:0:
298,267,95893,2,0,P|335:265|369:251,1,75,8|0,0:0|0:0,0:0:0:0:
196,212,96228,6,0,L|181:299,1,75,10|0,0:0|0:0,0:0:0:0:
311,119,96563,2,0,L|326:206,1,75,10|8,0:1|0:0,0:0:0:0:
162,296,96898,2,0,L|174:222,1,75,10|0,0:1|0:0,0:0:0:0:
347,177,97233,2,0,L|334:103,1,75,10|0,0:0|0:0,0:0:0:0:
200,62,97569,6,0,B|128:42|128:98|39:61,2,150,12|8|8,0:1|0:1|0:1,0:0:0:0:
426,176,98574,2,0,P|378:182|318:251,1,125,8|2,0:1|0:0,0:0:0:0:
310,254,98909,6,0,L|210:228,1,75,10|2,0:1|0:0,0:0:0:0:
108,195,99245,1,10,0:1:0:0:
108,195,99412,1,2,0:0:0:0:
169,307,99580,1,10,0:1:0:0:
169,307,99747,1,0,0:0:0:0:
40,356,99915,1,10,0:1:0:0:
40,356,100083,1,0,0:0:0:0:
237,235,100250,6,0,P|260:275|269:317,1,75,14|0,0:0|0:0,0:0:0:0:
406,169,100585,1,10,0:0:0:0:
284,169,100753,1,8,0:0:0:0:
377,268,100921,1,10,0:0:0:0:
499,268,101089,1,8,0:0:0:0:
390,150,101256,1,10,0:0:0:0:
268,150,101424,1,8,0:0:0:0:
168,236,101591,6,0,P|162:279|177:323,1,75,10|10,0:1|0:0,0:0:0:0:
342,309,101926,5,10,3:2:0:0:
348,287,102009,1,2,3:2:0:0:
350,265,102093,1,2,3:2:0:0:
346,243,102177,1,2,3:2:0:0:
338,221,102261,2,0,P|337:185|345:157,3,37.5,10|2|2|2,0:1|0:0|0:0|0:0,0:0:0:0:
439,182,102597,2,0,P|434:146|422:119,3,37.5,2|2|2|2,0:0|0:0|0:0|0:0,0:0:0:0:
347,88,102932,6,0,P|379:51|476:36,1,134.999995880127,12|8,0:1|0:1,0:0:0:0:
437,124,103435,1,0,0:0:0:0:
344,190,103602,2,0,L|261:162,1,67.4999979400635,8|0,0:1|0:0,0:0:0:0:
180,132,103937,1,10,0:1:0:0:
193,243,104105,1,0,0:0:0:0:
180,132,104273,6,0,P|163:75|101:22,1,134.999995880127,10|8,0:1|0:1,0:0:0:0:
13,118,104775,2,0,P|30:175|92:228,1,134.999995880127,2|0,0:0|0:0,0:0:0:0:
213,218,105278,1,10,0:1:0:0:
99,318,105446,1,2,0:0:0:0:
216,319,105613,6,0,P|265:315|380:332,1,134.999995880127,10|10,0:1|0:1,0:0:0:0:
481,274,106116,2,0,P|436:262|407:248,1,67.4999979400635,2|8,0:0|0:1,0:0:0:0:
271,222,106451,2,0,P|316:210|345:196,1,67.4999979400635,2|8,0:0|0:1,0:0:0:0:
431,143,106786,1,2,0:3:0:0:
481,274,106954,6,0,P|420:255|337:204,1,134.999995880127,8|8,0:1|0:1,0:0:0:0:
268,152,107457,1,2,0:0:0:0:
188,224,107624,2,0,L|200:296,1,67.4999979400635,8|0,0:1|3:0,0:0:0:0:
268,152,107960,1,8,0:1:0:0:
156,118,108127,1,8,0:0:0:0:
65,277,108295,6,0,P|126:258|209:207,1,134.999995880127,10|8,0:1|0:1,0:0:0:0:
268,152,108798,1,0,0:0:0:0:
325,253,108965,2,0,L|304:336,1,67.4999979400635,8|0,0:1|0:0,0:0:0:0:
268,152,109300,1,10,0:1:0:0:
390,157,109468,1,0,0:0:0:0:
250,72,109636,6,0,P|214:88|190:188,1,134.999995880127,10|8,0:1|0:1,0:0:0:0:
101,307,110138,2,0,P|91:238|73:155,1,134.999995880127,2|2,0:0|0:3,0:0:0:0:
6,85,110641,1,10,0:1:0:0:
100,13,110809,1,0,0:0:0:0:
181,105,110976,6,0,B|247:77|247:137|336:96,1,134.999995880127,10|8,0:1|0:1,0:0:0:0:
449,115,111479,2,0,P|414:155|405:191,1,67.4999979400635,2|8,0:0|0:1,0:0:0:0:
312,105,111814,2,0,P|296:75|272:52,1,67.4999979400635,2|8,0:0|0:1,0:0:0:0:
167,12,112150,1,2,0:0:0:0:
79,139,112317,6,0,L|165:127,1,67.4999979400635,8|2,0:1|0:0,0:0:0:0:
278,127,112652,1,10,0:1:0:0:
278,236,112820,1,0,0:0:0:0:
152,360,112988,1,10,0:1:0:0:
152,251,113156,1,0,0:0:0:0:
300,323,113323,2,0,L|387:295,1,67.4999979400635,10|0,0:0|0:0,0:0:0:0:
278,236,113658,6,0,P|237:239|102:217,1,150,12|8,0:1|0:0,0:0:0:0:
32,177,114161,1,0,0:0:0:0:
134,55,114328,2,0,L|120:145,1,75,8|8,0:1|0:1,0:0:0:0:
51,20,114664,1,2,0:0:0:0:
225,81,114831,6,0,L|199:255,1,150,10|8,0:0|0:1,0:0:0:0:
259,331,115334,1,8,0:0:0:0:
259,331,115502,2,0,P|310:329|346:316,1,75,2|0,0:0|0:1,0:0:0:0:
453,289,115837,1,8,0:1:0:0:
368,131,116004,1,8,0:0:0:0:
340,228,116172,1,2,0:0:0:0:
368,131,116340,6,0,P|342:78|246:42,1,150,10|8,0:1|0:0,0:0:0:0:
168,94,116842,2,0,L|184:181,1,75,2|8,0:0|0:1,0:0:0:0:
298,240,117178,2,0,L|282:153,1,75,10|0,0:1|0:0,0:0:0:0:
174,278,117513,6,0,P|122:294|40:228,1,150,10|8,0:0|0:1,0:0:0:0:
208,211,118016,2,0,P|247:248|241:301,1,75,10|0,0:0|0:0,0:0:0:0:
134,176,118351,2,0,P|146:123|195:102,1,75,10|0,0:1|0:0,0:0:0:0:
137,255,118686,2,0,P|85:270|42:238,1,75,10|0,0:0|0:0,0:0:0:0:
208,211,119021,6,0,L|363:204,2,150,12|8|8,0:1|0:0|0:1,0:0:0:0:
116,152,119859,1,10,0:1:0:0:
144,318,120027,1,8,0:0:0:0:
51,247,120194,1,2,0:0:0:0:
144,318,120362,6,0,P|209:320|321:343,1,150,6|8,0:0|0:0,0:0:0:0:
255,232,120865,2,0,P|322:252|355:273,1,75,2|8,0:0|0:1,0:0:0:0:
204,161,121200,2,0,P|169:175|132:183,1,75,10|8,0:1|0:0,0:0:0:0:
261,61,121535,1,2,0:0:0:0:
351,157,121703,6,0,L|333:251,1,75,10|0,0:1|3:0,0:0:0:0:
441,332,122038,2,0,L|459:238,1,75,8|0,0:0|3:0,0:0:0:0:
330,133,122373,2,0,L|312:227,1,75,8|10,0:0|0:1,0:0:0:0:
313,247,122624,1,0,0:0:0:0:
313,247,122708,1,8,0:0:0:0:
412,119,122876,6,0,P|388:73|336:59,1,75,10|0,0:1|0:0,0:0:0:0:
187,84,123211,1,10,0:1:0:0:
280,122,123379,1,12,0:0:0:0:
259,21,123546,1,0,3:0:0:0:
259,21,123630,1,0,3:0:0:0:
259,21,123714,1,8,0:0:0:0:
199,180,123881,1,8,0:3:0:0:
118,110,124049,1,4,0:3:0:0:
280,122,124217,1,8,0:1:0:0:
280,122,124300,1,0,0:0:0:0:
280,122,124384,6,0,P|302:157|319:274,1,134.999995880127,12|8,0:1|0:1,0:0:0:0:
216,203,124887,1,0,0:0:0:0:
281,316,125055,2,0,L|201:309,1,67.4999979400635,8|0,0:1|0:0,0:0:0:0:
126,201,125390,2,0,L|206:194,1,67.4999979400635,10|0,0:1|0:0,0:0:0:0:
358,165,125725,6,0,P|309:148|223:83,1,134.999995880127,10|8,0:1|0:1,0:0:0:0:
425,113,126228,2,0,P|441:152|437:188,1,67.4999979400635,2|0,0:0|0:0,0:0:0:0:
347,85,126563,1,0,0:0:0:0:
512,184,126731,2,0,P|495:222|467:245,1,67.4999979400635,10|0,0:1|0:0,0:0:0:0:
375,316,127066,6,0,B|313:284|313:349|220:303,1,134.999995880127,10|8,0:1|0:1,0:0:0:0:
156,186,127569,2,0,P|176:214|186:265,1,67.4999979400635,2|8,0:0|0:1,0:0:0:0:
115,374,127904,2,0,P|129:342|168:308,1,67.4999979400635,2|8,0:0|0:1,0:0:0:0:
279,237,128239,1,0,0:0:0:0:
151,318,128407,6,0,L|18:286,1,134.999995880127,10|8,0:1|0:1,0:0:0:0:
185,245,128909,2,0,L|275:238,1,67.4999979400635,2|0,0:0|0:0,0:0:0:0:
360,225,129245,1,0,0:1:0:0:
154,155,129412,2,0,L|244:148,1,67.4999979400635,10|0,0:1|0:0,0:0:0:0:
392,108,129747,6,0,P|379:66|274:28,1,134.999995880127,10|8,0:1|0:1,0:0:0:0:
221,149,130250,2,0,L|294:115,1,67.4999979400635,2|8,0:0|0:1,0:0:0:0:
67,83,130585,1,0,0:0:0:0:
129,170,130753,1,8,0:1:0:0:
181,69,130921,1,2,0:0:0:0:
49,183,131088,6,0,P|63:216|101:247,1,67.4999979400635,10|0,0:1|0:0,0:0:0:0:
232,244,131423,2,0,P|196:239|150:257,1,67.4999979400635,10|0,0:1|0:0,0:0:0:0:
84,369,131759,2,0,P|105:340|113:291,1,67.4999979400635,10|0,0:1|0:0,0:0:0:0:
49,183,132094,2,0,P|63:216|101:247,1,67.4999979400635,10|0,0:1|0:0,0:0:0:0:
283,295,132429,6,0,P|242:257|151:252,1,134.999995880127,10|8,0:1|0:1,0:0:0:0:
265,181,132932,2,0,P|296:197|321:222,1,67.4999979400635,2|8,0:0|0:1,0:0:0:0:
393,289,133267,1,0,0:0:0:0:
311,114,133435,2,0,P|342:130|367:155,1,67.4999979400635,10|0,0:1|0:0,0:0:0:0:
234,175,133770,6,0,B|201:159|201:159|179:40,1,134.999995880127,10|8,0:1|0:1,0:0:0:0:
183,62,134273,1,0,0:0:0:0:
119,193,134440,2,0,L|109:113,1,67.4999979400635,8|8,0:1|0:1,0:0:0:0:
204,223,134776,1,8,0:0:0:0:
204,318,134943,1,2,0:0:0:0:
430,286,135110,6,0,P|397:264|286:288,1,150,12|8,0:1|0:0,0:0:0:0:
82,286,135613,2,0,P|115:264|226:288,1,150,10|8,0:1|0:1,0:0:0:0:
360,348,136116,1,8,0:0:0:0:
379,213,136284,1,2,0:0:0:0:
360,348,136451,2,0,L|445:323,1,75,12|8,0:0|0:0,0:0:0:0:
468,316,136703,1,8,0:3:0:0:
468,316,136786,1,4,0:3:0:0:
379,213,136954,2,0,P|345:141|404:76,1,150,4|8,0:3|0:1,0:0:0:0:
477,154,137457,1,8,0:0:0:0:
486,35,137624,1,2,0:0:0:0:
321,145,137792,6,0,L|330:294,1,150,12|8,0:1|0:0,0:0:0:0:
236,355,138295,2,0,L|225:184,1,150,10|4,0:1|0:3,0:0:0:0:
225,167,138714,1,8,0:1:0:0:
225,167,138798,2,0,P|181:187|141:187,1,75,8|0,0:0|0:0,0:0:0:0:
45,270,139133,5,8,0:0:0:0:
53,249,139216,1,8,0:0:0:0:
60,227,139300,1,8,0:1:0:0:
65,205,139384,1,8,0:1:0:0:
68,183,139468,1,8,0:0:0:0:
13,74,139636,2,0,B|50:89|50:89|175:54,1,150,12|8,0:1|0:1,0:0:0:0:
336,62,140138,2,0,P|289:69|264:110,1,75,8|8,0:0|0:1,0:0:0:0:
258,125,140390,1,8,0:1:0:0:
258,125,140474,5,8,0:0:0:0:
187,230,140641,1,10,0:1:0:0:
390,269,140809,1,10,0:1:0:0:
258,125,140976,5,8,0:0:0:0:
286,256,141143,1,0,0:0:0:0:
450,116,141312,1,8,0:1:0:0:
187,230,141479,5,8,0:0:0:0:
372,179,141647,1,12,0:0:0:0:
372,179,141982,5,8,0:0:0:0:
296,22,142150,2,0,B|256:20|256:20|175:55,1,112.5,8|8,0:0|0:0,0:0:0:0:
160,78,142485,1,8,3:1:0:0:
135,106,142568,1,0,3:0:0:0:
116,136,142652,1,8,0:0:0:0:
127,172,142736,1,8,0:0:0:0:
143,208,142820,2,0,P|173:206|196:196,1,37.5,8|8,0:0|0:0,0:0:0:0:
326,174,142988,2,0,P|301:191|287:211,1,37.5,8|8,0:0|0:0,0:0:0:0:
236,313,143155,6,0,P|248:254|221:122,1,179.999994506836,12|8,0:1|0:0,0:0:0:0:
151,40,143658,2,0,P|126:86|131:123,1,89.9999972534181,10|0,0:1|0:0,0:0:0:0:
281,192,143993,2,0,P|306:146|301:109,1,89.9999972534181,10|8,0:1|0:0,0:0:0:0:
166,203,144328,1,2,0:0:0:0:
249,336,144496,5,8,0:1:0:0:
347,251,144664,1,8,0:1:0:0:
166,203,144831,2,0,L|60:189,1,89.9999972534181,8|8,0:0|0:1,0:0:0:0:
23,67,145166,2,0,L|129:81,1,89.9999972534181,2|8,0:0|0:1,0:0:0:0:
242,123,145502,2,0,P|297:103|343:49,1,89.9999972534181,10|0,0:0|3:0,0:0:0:0:
470,28,145837,6,0,B|417:30|417:30|435:155,1,179.999994506836,10|8,0:1|0:0,0:0:0:0:
466,303,146340,2,0,P|431:273|366:252,1,89.9999972534181,10|0,0:1|0:0,0:0:0:0:
224,336,146675,2,0,P|268:339|312:329,1,89.9999972534181,10|8,0:1|0:0,0:0:0:0:
226,213,147010,1,2,0:0:0:0:
97,368,147178,5,8,0:1:0:0:
64,252,147345,1,8,0:1:0:0:
226,213,147513,2,0,P|269:190|306:126,1,89.9999972534181,8|8,0:0|0:1,0:0:0:0:
377,42,147848,2,0,L|385:147,1,89.9999972534181,2|8,0:0|0:1,0:0:0:0:
494,229,148183,2,0,L|486:124,1,89.9999972534181,10|0,0:0|0:0,0:0:0:0:
294,158,148518,6,0,L|306:348,1,179.999994506836,6|8,0:0|0:0,0:0:0:0:
390,237,149021,2,0,L|382:132,1,89.9999972534181,10|0,0:1|0:0,0:0:0:0:
192,105,149356,1,8,0:1:0:0:
294,158,149524,1,8,0:0:0:0:
192,105,149692,1,2,0:0:0:0:
208,246,149859,5,10,0:1:0:0:
294,158,150027,1,8,0:1:0:0:
192,105,150194,1,8,0:0:0:0:
321,245,150362,2,0,P|371:210|332:87,1,179.999994506836,10|8,0:1|0:1,0:0:0:0:
192,105,150865,2,0,P|248:142|294:154,1,89.9999972534181,8|2,0:0|0:0,0:0:0:0:
315,166,151116,1,2,0:0:0:0:
315,166,151200,6,0,P|290:212|260:346,1,179.999994506836,10|10,0:1|0:0,0:0:0:0:
181,274,151703,2,0,P|195:222|216:178,1,89.9999972534181,10|0,0:1|0:0,0:0:0:0:
265,98,152038,1,10,0:1:0:0:
286,250,152205,2,0,P|300:198|321:154,1,89.9999972534181,8|0,0:0|0:0,0:0:0:0:
428,49,152541,5,10,0:1:0:0:
447,67,152624,1,2,3:2:0:0:
463,89,152708,1,2,3:2:0:0:
475,113,152792,1,2,3:2:0:0:
482,139,152876,1,8,0:0:0:0:
452,289,153043,5,12,0:0:0:0:
452,289,153379,1,8,0:1:0:0:
452,289,153462,1,8,0:1:0:0:
452,289,153546,2,0,L|276:279,1,134.999995880127,8|0,0:0|0:0,0:0:0:0:
238,258,153881,6,0,P|298:270|360:395,1,179.999994506836,12|8,0:1|0:0,0:0:0:0:
188,321,154384,2,0,P|161:278|176:210,1,89.9999972534181,10|0,0:1|0:0,0:0:0:0:
290,200,154719,2,0,P|317:243|302:311,1,89.9999972534181,10|8,0:1|0:0,0:0:0:0:
183,128,155055,1,2,0:0:0:0:
85,241,155222,5,8,0:1:0:0:
188,321,155390,1,8,0:1:0:0:
290,200,155557,2,0,L|276:69,1,89.9999972534181,10|8,0:0|0:1,0:0:0:0:
168,21,155893,2,0,P|110:17|71:40,1,89.9999972534181,2|8,0:0|0:1,0:0:0:0:
97,137,156228,2,0,P|155:141|194:118,1,89.9999972534181,10|0,0:0|3:0,0:0:0:0:
8,95,156563,6,0,L|30:292,1,179.999994506836,10|8,0:1|0:0,0:0:0:0:
124,347,157066,2,0,L|113:235,1,89.9999972534181,10|0,0:1|0:0,0:0:0:0:
182,127,157401,2,0,L|193:239,1,89.9999972534181,10|8,0:1|0:0,0:0:0:0:
100,136,157736,1,2,0:0:0:0:
263,29,157904,5,8,0:1:0:0:
340,112,158072,1,8,0:1:0:0:
190,216,158239,2,0,L|182:127,1,89.9999972534181,8|8,0:0|0:1,0:0:0:0:
302,205,158574,2,0,L|294:294,1,89.9999972534181,2|8,0:0|0:1,0:0:0:0:
261,135,158909,2,0,P|307:124|362:151,1,89.9999972534181,10|0,0:0|0:0,0:0:0:0:
190,216,159245,6,0,P|138:195|100:75,1,179.999994506836,12|8,0:1|0:0,0:0:0:0:
232,145,159747,2,0,P|269:177|269:233,1,89.9999972534181,10|0,0:1|0:0,0:0:0:0:
194,358,160083,2,0,P|203:309|251:281,1,89.9999972534181,10|8,0:1|0:0,0:0:0:0:
336,299,160418,1,2,0:0:0:0:
357,124,160585,5,8,0:1:0:0:
274,215,160753,1,0,0:0:0:0:
205,122,160921,2,0,L|196:23,1,89.9999972534181,10|8,0:0|0:1,0:0:0:0:
87,90,161256,2,0,L|96:189,1,89.9999972534181,2|8,0:0|0:1,0:0:0:0:
19,290,161591,2,0,P|79:282|119:302,1,89.9999972534181,10|0,0:0|0:0,0:0:0:0:
146,311,161842,1,0,0:0:0:0:
146,311,161926,6,0,L|338:286,1,179.999994506836,10|8,0:1|0:0,0:0:0:0:
500,221,162429,2,0,L|308:196,1,179.999994506836,10|8,0:1|0:1,0:0:0:0:
231,140,162932,2,0,P|220:69|258:32,1,89.9999972534181,8|0,0:0|0:0,0:0:0:0:
406,23,163267,5,10,0:1:0:0:
432,28,163350,1,2,0:0:0:0:
456,41,163434,1,10,0:1:0:0:
475,60,163518,1,2,0:0:0:0:
486,85,163602,2,0,L|475:188,1,89.9999972534181,12|8,0:0|0:0,0:0:0:0:
414,271,163937,1,10,0:1:0:0:
280,193,164105,1,8,0:0:0:0:
280,193,164188,1,8,0:0:0:0:
280,193,164273,2,0,P|285:235|281:262,1,44.999998626709,8|8,0:0|0:3,0:0:0:0:
317,360,164440,2,0,P|341:325|363:308,1,44.999998626709,4|8,0:3|0:1,0:0:0:0:
254,256,164608,6,0,P|248:185|235:147,1,89.9999972534181,12|0,0:1|0:0,0:0:0:0:
100,77,164943,1,8,0:0:0:0:
189,110,165110,1,8,0:1:0:0:
29,145,165278,1,8,0:0:0:0:
118,178,165445,1,8,0:1:0:0:
100,77,165613,5,8,0:0:0:0:
130,257,165781,1,8,0:1:0:0:
276,159,165948,5,12,0:0:0:0:
118,178,166116,1,8,0:1:0:0:
140,334,166284,1,8,0:0:0:0:
296,313,166451,1,8,0:1:0:0:
296,313,166535,1,8,0:1:0:0:
296,313,166619,2,0,L|325:197,1,89.9999972534181,8|10,0:0|0:1,0:0:0:0:
256,128,166954,1,10,0:0:0:0:
216,313,167122,1,10,0:1:0:0:
216,313,167206,1,8,0:1:0:0:
216,313,167290,6,0,L|187:197,1,89.9999972534181,12|2,0:1|0:0,0:0:0:0:
256,128,167624,1,4,0:3:0:0:
130,356,167792,2,0,L|101:240,1,89.9999972534181,8|2,0:1|0:0,0:0:0:0:
295,257,168127,1,4,0:3:0:0:
194,225,168295,1,8,0:0:0:0:
283,358,168462,1,2,0:0:0:0:
283,358,168546,1,2,0:0:0:0:
283,358,168630,5,10,0:1:0:0:
331,274,168798,2,0,P|284:254|192:319,1,165.000005035401,8|0,0:0|3:0,0:0:0:0:
116,374,169300,1,8,0:0:0:0:
16,287,169468,1,4,0:3:0:0:
16,287,169552,1,4,0:3:0:0:
16,287,169636,2,0,L|6:175,1,82.5000025177003,14|2,0:0|0:0,0:0:0:0:
63,94,169971,6,0,P|119:94|157:124,1,75,12|0,3:1|3:0,0:0:0:0:
230,160,170306,2,0,P|286:160|324:130,1,75,2|0,3:2|3:0,0:0:0:0:
51,75,170641,2,0,P|107:75|145:105,1,75,2|0,3:2|3:2,0:0:0:0:
218,141,170976,2,0,P|274:141|312:111,1,75,2|0,3:2|3:2,0:0:0:0:
323,115,171228,1,8,3:2:0:0:
323,115,171312,6,0,L|313:280,1,150,10|2,3:2|3:2,0:0:0:0:
313,264,171814,1,0,3:0:0:0:
410,178,171982,2,0,L|415:70,1,75,2|0,3:2|3:0,0:0:0:0:
490,215,172317,2,0,L|485:323,1,75,2|0,3:2|3:0,0:0:0:0:
389,353,172652,6,0,P|328:325|296:329,1,75,6|0,3:2|3:0,0:0:0:0:
218,342,172988,2,0,P|181:334|150:313,1,75,2|0,3:2|0:0,0:0:0:0:
407,345,173323,2,0,P|346:317|314:321,1,75,2|0,3:2|3:0,0:0:0:0:
236,334,173659,2,0,P|199:326|168:305,1,75,2|0,3:2|3:0,0:0:0:0:
143,278,173909,1,8,0:0:0:0:
143,278,173993,6,0,L|127:101,1,150,10|2,3:2|3:2,0:0:0:0:
235,214,174496,2,0,L|241:117,1,75,0|2,3:2|3:2,0:0:0:0:
339,52,174831,2,0,L|345:149,1,75,0|2,3:2|3:2,0:0:0:0:
231,37,175166,1,0,3:2:0:0:
231,37,175250,1,0,3:0:0:0:
231,37,175334,6,0,B|172:52|137:40|137:40|119:69|66:75,1,150,6|2,3:2|3:2,0:0:0:0:
92,69,175837,1,0,3:0:0:0:
5,161,176004,2,0,P|57:167|92:186,1,75,2|0,3:2|3:0,0:0:0:0:
145,253,176340,1,2,3:2:0:0:
282,156,176507,1,0,3:0:0:0:
282,156,176591,1,8,3:2:0:0:
282,156,176675,6,0,P|215:160|162:247,1,150,10|2,3:2|3:2,0:0:0:0:
257,311,177178,2,0,P|255:269|241:229,1,75,0|2,3:2|3:2,0:0:0:0:
342,199,177513,2,0,P|310:170|272:152,1,75,0|2,3:2|3:2,0:0:0:0:
346,290,177848,2,0,P|379:286|405:277,1,37.5,0|0,3:2|3:0,0:0:0:0:
450,231,178016,6,0,L|463:78,1,150,6|2,3:2|3:2,0:0:0:0:
368,16,178518,2,0,P|312:19|283:42,1,75,0|2,3:2|3:2,0:0:0:0:
208,74,178854,1,0,3:0:0:0:
143,149,179021,2,0,P|108:163|71:161,1,75,2|0,3:2|3:2,0:0:0:0:
34,153,179273,1,8,0:0:0:0:
34,153,179356,6,0,B|59:194|59:194|21:323,1,150,10|2,3:2|3:2,0:0:0:0:
99,373,179859,2,0,P|155:370|184:347,1,75,0|2,3:0|3:2,0:0:0:0:
259,315,180195,1,0,3:0:0:0:
324,240,180362,2,0,P|358:225|395:227,1,75,2|0,3:2|3:0,0:0:0:0:
418,138,180697,6,0,P|374:130|274:164,1,150,6|2,3:2|3:2,0:0:0:0:
276,162,181200,1,0,3:2:0:0:
191,280,181367,2,0,P|186:237|159:200,1,75,2|0,3:2|3:0,0:0:0:0:
121,104,181703,1,2,3:2:0:0:
65,178,181870,1,0,3:0:0:0:
65,178,181954,1,8,3:2:0:0:
65,178,182038,6,0,L|231:110,1,150,10|2,3:2|3:2,0:0:0:0:
285,52,182541,2,0,P|309:88|308:129,1,75,0|2,3:2|3:2,0:0:0:0:
401,120,182876,2,0,P|392:162|362:190,1,75,0|2,3:2|3:2,0:0:0:0:
255,217,183211,1,0,3:2:0:0:
255,217,183295,1,0,3:0:0:0:
255,217,183379,6,0,P|305:211|372:292,1,150,6|2,3:2|3:2,0:0:0:0:
370,277,183881,1,0,3:0:0:0:
234,326,184049,2,0,L|138:302,1,75,2|0,3:2|3:0,0:0:0:0:
22,243,184384,1,2,3:2:0:0:
53,358,184552,1,0,3:0:0:0:
53,358,184636,1,8,3:2:0:0:
53,358,184719,5,10,3:2:0:0:
148,210,184887,2,0,P|98:193|19:248,1,150,0|0,3:2|3:2,0:0:0:0:
103,295,185390,1,2,3:2:0:0:
224,220,185557,2,0,P|215:171|170:140,1,75,0|2,3:2|3:2,0:0:0:0:
186,288,185893,1,0,3:0:0:0:
304,363,186060,6,0,P|339:341|364:289,1,75,6|0,3:2|3:0,0:0:0:0:
340,204,186395,2,0,P|361:173|393:154,1,75,2|0,3:2|3:0,0:0:0:0:
310,382,186731,2,0,P|345:360|370:308,1,75,2|0,3:2|3:0,0:0:0:0:
346,223,187066,2,0,P|367:192|399:173,1,75,2|0,3:2|3:2,0:0:0:0:
435,162,187317,1,8,3:2:0:0:
435,162,187401,6,0,L|265:142,1,150,10|2,3:2|3:2,0:0:0:0:
178,199,187904,2,0,P|222:215|243:248,1,75,0|2,3:0|3:2,0:0:0:0:
120,267,188239,1,0,3:0:0:0:
50,178,188407,2,0,L|41:92,1,75,2|0,3:2|0:0,0:0:0:0:
131,30,188742,6,0,B|181:19|181:19|295:59,1,150,6|2,3:2|3:2,0:0:0:0:
374,131,189245,2,0,P|384:79|366:30,1,75,0|2,3:2|3:2,0:0:0:0:
261,134,189580,2,0,P|251:186|269:235,1,75,0|2,3:2|3:2,0:0:0:0:
396,333,189915,5,0,3:0:0:0:
362,206,190083,1,6,3:2:0:0:
262,290,190250,1,8,0:0:0:0:
168,173,190418,2,0,L|156:80,1,75,10|8,0:0|0:0,0:0:0:0:
24,164,190753,2,0,L|36:257,1,75,10|8,3:2|3:3,0:0:0:0:
39,260,191004,1,8,3:3:0:0:
46,281,191088,1,4,3:3:0:0:
61,297,191172,1,4,3:3:0:0:
80,308,191256,1,2,3:2:0:0:
101,315,191340,1,2,3:2:0:0:
131,318,191423,6,0,B|212:303|212:303|307:347,2,165.000005035401,12|8|0,0:1|0:0|0:0,0:0:0:0:
23,192,192261,1,8,0:1:0:0:
46,281,192429,1,8,0:0:0:0:
130,200,192597,1,2,0:0:0:0:
107,111,192764,6,0,P|166:74|261:95,1,165.000005035401,10|8,0:1|0:0,0:0:0:0:
379,196,193267,2,0,P|320:233|225:212,1,165.000005035401,10|8,0:1|0:1,0:0:0:0:
107,111,193770,2,0,L|124:220,1,82.5000025177003,8|0,0:0|0:0,0:0:0:0:
47,323,194105,6,0,B|76:306|76:306|229:343,1,165.000005035401,6|8,0:0|0:0,0:0:0:0:
319,381,194608,2,0,P|338:329|308:196,1,165.000005035401,10|10,0:1|0:1,0:0:0:0:
205,153,195110,2,0,P|194:201|203:241,1,82.5000025177003,8|2,0:0|0:0,0:0:0:0:
300,40,195446,5,8,0:1:0:0:
352,129,195613,1,10,0:1:0:0:
205,153,195781,2,0,L|108:124,1,82.5000025177003,8|10,0:0|0:1,0:0:0:0:
298,77,196116,2,0,L|395:48,1,82.5000025177003,2|10,0:0|0:1,0:0:0:0:
205,153,196451,1,8,0:0:0:0:
202,54,196619,1,0,0:0:0:0:
310,167,196786,6,0,P|321:220|326:333,1,165.000005035401,6|8,0:0|0:0,0:0:0:0:
432,239,197289,2,0,P|421:186|416:73,1,165.000005035401,10|8,0:1|0:1,0:0:0:0:
316,19,197792,2,0,P|267:17|213:55,1,82.5000025177003,8|0,0:0|0:0,0:0:0:0:
202,53,198043,1,0,0:0:0:0:
202,53,198127,6,0,P|186:118|187:213,1,123.75000377655,10|2,0:1|0:0,0:0:0:0:
187,215,198462,1,8,0:0:0:0:
291,178,198630,1,10,0:1:0:0:
253,303,198798,2,0,P|316:285|391:297,1,123.75000377655,2|2,0:0|0:0,0:0:0:0:
413,300,199133,2,0,P|426:246|412:210,1,82.5000025177003,8|2,0:0|0:0,0:0:0:0:
297,132,199468,6,0,B|215:106|215:176|111:120,1,165.000005035401,10|8,0:1|0:0,0:0:0:0:
216,50,199971,2,0,P|269:41|314:50,1,82.5000025177003,8|0,0:1|0:0,0:0:0:0:
376,96,200306,1,8,0:1:0:0:
241,213,200474,1,10,0:0:0:0:
226,127,200641,1,2,0:1:0:0:
366,210,200809,5,4,0:3:0:0:
366,210,200893,1,0,0:0:0:0:
366,210,200976,2,0,L|364:283,1,41.2500012588501,0|0,3:0|3:0,0:0:0:0:
308,325,201144,1,8,0:0:0:0:
140,274,201312,5,12,0:0:0:0:
140,274,201647,1,8,0:1:0:0:
140,274,201731,1,8,0:1:0:0:
140,274,201814,2,0,P|122:218|88:172,1,82.5000025177003,8|2,0:0|0:1,0:0:0:0:
52,68,202150,5,14,0:1:0:0:
140,112,202317,1,2,0:0:0:0:
136,13,202485,1,8,0:0:0:0:
15,151,202652,5,10,0:1:0:0:
30,241,202820,1,2,0:0:0:0:
50,332,202988,1,8,0:1:0:0:
204,231,203155,2,0,P|159:239|125:270,1,82.5000025177003,8|2,0:0|0:0,0:0:0:0:
313,291,203490,5,8,0:1:0:0:
342,193,203658,1,2,0:0:0:0:
204,231,203826,1,8,0:0:0:0:
423,209,203993,2,0,P|414:162|302:120,1,165.000005035401,10|10,0:1|0:1,0:0:0:0:
276,128,204412,1,2,0:0:0:0:
276,128,204496,2,0,L|171:120,1,82.5000025177003,8|2,0:0|0:0,0:0:0:0:
93,208,204831,5,14,0:1:0:0:
126,323,204999,1,2,0:0:0:0:
218,247,205166,1,8,0:0:0:0:
93,208,205334,5,10,0:1:0:0:
48,105,205502,1,2,0:0:0:0:
229,129,205669,1,8,0:1:0:0:
170,24,205837,2,0,L|274:9,1,82.5000025177003,10|0,0:0|0:0,0:0:0:0:
423,102,206172,5,10,0:1:0:0:
308,94,206340,1,2,0:0:0:0:
407,191,206507,1,8,0:0:0:0:
323,6,206675,2,0,P|260:25|228:140,1,165.000005035401,10|10,0:1|0:1,0:0:0:0:
223,151,207094,1,2,0:0:0:0:
223,151,207178,2,0,L|243:253,1,82.5000025177003,8|8,0:0|0:1,0:0:0:0:
362,337,207513,6,0,P|369:289|367:227,1,82.5000025177003,12|0,0:0|3:0,0:0:0:0:
149,336,207848,2,0,P|143:296|142:255,1,82.5000025177003,8|8,0:0|0:1,0:0:0:0:
386,340,208183,2,0,P|393:292|391:230,1,82.5000025177003,10|8,0:0|0:1,0:0:0:0:
126,340,208518,2,0,P|119:292|121:230,1,82.5000025177003,10|10,0:0|0:1,0:0:0:0:
153,233,208770,1,2,0:0:0:0:
153,233,208854,6,0,P|149:190|131:144,1,82.5000025177003,10|8,0:0|0:1,0:0:0:0:
118,121,209105,1,2,0:0:0:0:
118,121,209189,2,0,P|158:114|195:98,1,82.5000025177003,8|10,0:0|0:1,0:0:0:0:
330,36,209524,2,0,P|296:72|294:114,1,82.5000025177003,8|8,0:0|0:1,0:0:0:0:
290,144,209775,1,2,0:0:0:0:
290,144,209859,1,8,0:0:0:0:
343,238,210027,1,10,0:1:0:0:
500,149,210194,6,0,L|403:137,1,82.5000025177003,12|8,0:0|0:1,0:0:0:0:
510,239,210529,1,8,0:1:0:0:
496,55,210697,2,0,L|399:43,1,82.5000025177003,10|8,0:0|0:1,0:0:0:0:
226,120,211032,1,8,0:1:0:0:
223,17,211200,5,12,0:0:0:0:
233,39,211283,1,2,0:0:0:0:
242,62,211367,1,2,0:0:0:0:
250,85,211451,1,2,0:0:0:0:
255,109,211535,1,10,0:1:0:0:
257,133,211619,1,2,0:0:0:0:
254,157,211703,1,10,0:0:0:0:
250,181,211786,1,2,0:0:0:0:
239,203,211870,2,0,P|202:202|163:192,2,55.0000016784668,2|2|2,0:0|0:0|0:0,0:0:0:0:
289,290,212205,6,0,L|390:261,1,82.5000025177003,8|0,0:0|0:0,0:0:0:0:
408,256,212457,1,2,0:0:0:0:
408,256,212541,2,0,P|416:202|431:154,1,82.5000025177003,8|2,0:0|0:0,0:0:0:0:
467,56,212876,5,12,0:1:0:0:
256,192,212960,12,2,214217,0:0:0:0:
467,56,214552,5,2,0:0:0:0:
478,59,214887,1,2,0:0:0:0:
490,65,215222,1,2,0:0:0:0:
501,71,215557,5,4,0:0:0:0:
404,52,226284,5,12,0:3:0:0:
404,52,226619,1,2,0:0:0:0:
329,108,226786,2,0,L|260:101,1,56.2500021457673,2|2,0:0|3:3,0:0:0:0:
279,187,227122,2,0,L|210:180,1,56.2500021457673,2|0,0:0|0:0,0:0:0:0:
88,232,227457,2,0,P|134:233|184:291,1,112.500004291535,0|0,0:3|0:0,0:0:0:0:
289,347,227960,5,2,0:0:0:0:
294,336,228295,1,2,3:3:0:0:
300,326,228630,1,2,0:0:0:0:
306,316,228965,6,0,P|324:252|330:189,1,112.500004291535,0|2,0:0|0:0,0:0:0:0:
414,247,229468,1,2,0:0:0:0:
414,258,229803,1,2,0:0:0:0:
414,269,230138,1,2,0:0:0:0:
414,269,230976,5,2,3:3:0:0:
403,265,231312,1,2,0:0:0:0:
392,260,231647,6,0,P|323:251|265:257,1,112.500004291535,2|2,0:0|0:0,0:0:0:0:
151,309,232150,2,0,P|183:313|208:329,1,56.2500021457673,2|2,0:0|3:0,0:0:0:0:
87,253,232485,2,0,P|112:233|141:226,1,56.2500021457673,2|0,0:0|0:0,0:0:0:0:
227,175,232820,2,0,P|234:138|166:79,1,112.500004291535,2|0,0:0|0:0,0:0:0:0:
18,33,233323,6,0,L|29:102,1,56.2500021457673,2|0,0:0|0:0,0:0:0:0:
144,46,233658,2,0,L|133:115,1,56.2500021457673,2|0,3:0|0:0,0:0:0:0:
14,172,233993,2,0,L|25:241,1,56.2500021457673,2|0,0:0|0:0,0:0:0:0:
100,297,234328,5,0,0:0:0:0:
100,297,236004,6,0,L|163:277,1,56.25,2|0,0:0|0:0,0:0:0:0:
200,345,236340,6,0,L|294:312,1,84.3750032186509,2|0,0:0|0:0,0:0:0:0:
335,377,236675,6,0,L|479:323,1,134.999995880127,2|0,0:0|0:0,0:0:0:0:
503,250,237010,6,0,P|501:192|401:120,1,179.999994506836,12|8,0:1|0:0,0:0:0:0:
294,181,237513,2,0,P|230:176|199:163,1,89.9999972534181,10|0,0:1|0:0,0:0:0:0:
19,175,237848,2,0,P|83:180|114:193,1,89.9999972534181,10|8,0:1|0:0,0:0:0:0:
185,268,238183,1,2,0:0:0:0:
319,153,238351,5,8,0:1:0:0:
159,100,238518,1,8,0:1:0:0:
185,268,238686,2,0,L|195:365,1,89.9999972534181,8|8,0:0|0:1,0:0:0:0:
308,268,239021,2,0,L|298:171,1,89.9999972534181,2|8,0:0|0:1,0:0:0:0:
202,117,239356,2,0,P|150:116|104:141,1,89.9999972534181,10|0,0:0|3:0,0:0:0:0:
298,178,239692,6,0,P|343:164|366:35,1,179.999994506836,10|8,0:1|0:0,0:0:0:0:
245,113,240194,2,0,P|212:151|222:211,1,89.9999972534181,10|0,0:1|0:0,0:0:0:0:
347,285,240529,2,0,P|343:240|313:209,1,89.9999972534181,10|8,0:1|0:0,0:0:0:0:
192,310,240865,1,2,0:0:0:0:
134,129,241032,5,8,0:1:0:0:
60,218,241200,1,8,0:1:0:0:
192,310,241367,2,0,P|252:289|285:256,1,89.9999972534181,8|8,0:0|0:1,0:0:0:0:
361,162,241703,2,0,L|376:257,1,89.9999972534181,2|8,0:0|0:1,0:0:0:0:
467,160,242038,2,0,L|452:65,1,89.9999972534181,10|0,0:0|0:0,0:0:0:0:
304,27,242373,6,0,B|212:1|212:59|95:22,1,179.999994506836,6|8,0:0|0:0,0:0:0:0:
10,74,242876,2,0,L|22:167,1,89.9999972534181,10|0,0:1|0:0,0:0:0:0:
176,216,243211,1,8,0:1:0:0:
100,137,243379,1,8,0:0:0:0:
86,287,243546,1,2,0:0:0:0:
100,137,243714,5,8,0:1:0:0:
272,151,243881,1,8,0:1:0:0:
176,216,244049,1,8,0:0:0:0:
246,75,244217,2,0,P|311:82|346:183,1,179.999994506836,10|8,0:1|0:1,0:0:0:0:
390,334,244719,2,0,L|414:231,1,89.9999972534181,8|2,0:0|0:0,0:0:0:0:
424,205,244971,1,2,0:0:0:0:
424,205,245055,6,0,P|344:169|351:58,1,179.999994506836,10|8,0:1|0:0,0:0:0:0:
459,35,245557,2,0,P|445:88|405:123,1,89.9999972534181,10|0,0:1|0:0,0:0:0:0:
329,180,245893,1,10,0:1:0:0:
304,3,246060,2,0,P|331:50|328:103,1,89.9999972534181,8|0,0:0|0:0,0:0:0:0:
218,153,246395,5,10,0:1:0:0:
191,153,246478,1,2,3:2:0:0:
164,148,246562,1,2,3:2:0:0:
139,139,246646,1,2,3:2:0:0:
116,125,246730,1,8,0:0:0:0:
17,23,246898,5,12,0:0:0:0:
17,23,247233,1,8,0:1:0:0:
17,23,247317,1,8,0:1:0:0:
17,23,247401,2,0,L|34:199,1,134.999995880127,8|0,0:0|0:0,0:0:0:0:
34,262,247736,6,0,P|31:208|135:147,1,179.999994506836,12|8,0:1|0:0,0:0:0:0:
222,227,248239,2,0,P|276:231|313:209,1,89.9999972534181,10|0,0:1|0:0,0:0:0:0:
382,90,248574,2,0,P|328:86|291:108,1,89.9999972534181,10|8,0:1|0:0,0:0:0:0:
422,189,248909,1,2,0:0:0:0:
483,41,249077,5,8,0:1:0:0:
365,71,249245,1,8,0:1:0:0:
422,189,249412,2,0,L|420:298,1,89.9999972534181,10|8,0:0|0:1,0:0:0:0:
305,364,249747,2,0,L|307:255,1,89.9999972534181,2|8,0:0|0:1,0:0:0:0:
212,189,250083,2,0,P|156:183|109:218,1,89.9999972534181,10|0,0:0|3:0,0:0:0:0:
228,287,250418,6,0,P|276:266|301:146,1,179.999994506836,10|8,0:1|0:0,0:0:0:0:
383,58,250921,2,0,L|394:154,1,89.9999972534181,10|0,0:1|0:0,0:0:0:0:
237,97,251256,2,0,L|248:1,1,89.9999972534181,10|8,0:1|0:0,0:0:0:0:
303,151,251591,1,2,0:0:0:0:
173,234,251759,5,8,0:1:0:0:
135,105,251926,1,8,0:1:0:0:
303,151,252094,2,0,P|353:168|401:199,1,89.9999972534181,8|8,0:0|0:1,0:0:0:0:
465,301,252429,2,0,L|488:205,1,89.9999972534181,2|8,0:0|0:1,0:0:0:0:
416,70,252764,2,0,L|393:166,1,89.9999972534181,10|0,0:0|0:0,0:0:0:0:
308,264,253099,6,0,P|253:287|105:262,1,179.999994506836,12|8,0:1|0:0,0:0:0:0:
284,171,253602,2,0,P|351:172|381:213,1,89.9999972534181,10|0,0:1|0:0,0:0:0:0:
419,347,253937,2,0,P|386:288|406:241,1,89.9999972534181,10|8,0:1|0:0,0:0:0:0:
482,201,254273,1,2,0:0:0:0:
308,264,254440,5,8,0:1:0:0:
349,98,254608,1,0,0:0:0:0:
210,128,254775,2,0,L|240:256,1,89.9999972534181,10|8,0:0|0:1,0:0:0:0:
144,335,255110,2,0,L|114:207,1,89.9999972534181,2|8,0:0|0:1,0:0:0:0:
257,314,255446,2,0,P|306:302|342:247,1,89.9999972534181,10|0,0:0|0:0,0:0:0:0:
354,234,255697,1,0,0:0:0:0:
354,234,255781,6,0,L|157:183,1,179.999994506836,10|8,0:1|0:0,0:0:0:0:
29,139,256284,2,0,L|226:88,1,179.999994506836,10|8,0:1|0:1,0:0:0:0:
315,19,256786,2,0,P|338:64|326:103,1,89.9999972534181,10|0,0:0|0:0,0:0:0:0:
179,188,257122,5,10,0:1:0:0:
206,188,257205,1,2,0:0:0:0:
232,192,257289,1,2,0:0:0:0:
258,201,257373,1,2,0:0:0:0:
284,218,257457,2,0,P|333:232|388:235,1,89.9999972534181,14|2,0:0|3:2,0:0:0:0:
488,217,257792,1,8,3:1:0:0:
392,65,257960,1,8,0:0:0:0:
392,65,258043,1,8,0:0:0:0:
392,65,258127,2,0,L|394:126,1,44.999998626709,8|0,0:0|3:0,0:0:0:0:
309,245,258295,2,0,L|307:184,1,44.999998626709,8|4,0:3|0:3,0:0:0:0:
216,89,258462,6,0,P|160:90|119:146,1,89.9999972534181,12|0,0:1|0:0,0:0:0:0:
56,218,258798,1,8,0:0:0:0:
89,315,258965,1,8,0:1:0:0:
167,206,259133,1,8,0:0:0:0:
134,109,259300,1,8,0:1:0:0:
56,218,259468,5,8,0:0:0:0:
218,306,259635,1,8,0:1:0:0:
167,79,259803,5,12,0:0:0:0:
167,206,259971,1,8,0:1:0:0:
336,268,260138,1,8,0:0:0:0:
336,141,260306,1,8,0:1:0:0:
336,141,260390,1,8,0:1:0:0:
336,141,260474,2,0,P|337:103|392:41,1,89.9999972534181,8|10,0:0|0:1,0:0:0:0:
256,192,260809,1,10,0:0:0:0:
176,141,260976,1,10,0:1:0:0:
176,141,261060,1,8,0:1:0:0:
176,141,261144,6,0,P|175:103|120:41,1,89.9999972534181,12|2,0:1|0:0,0:0:0:0:
256,192,261479,1,4,0:3:0:0:
126,226,261647,2,0,P|98:199|15:194,1,89.9999972534181,12|2,0:1|0:0,0:0:0:0:
195,325,261982,1,4,0:3:0:0:
179,158,262150,1,8,0:0:0:0:
44,288,262317,1,2,0:0:0:0:
44,288,262401,1,2,0:0:0:0:
44,288,262485,5,12,0:0:0:0:
45,216,263658,1,10,0:1:0:0:
45,216,263742,1,10,0:1:0:0:
45,216,263826,6,0,P|121:220|221:210,1,165.000005035401,12|8,0:1|0:1,0:0:0:0:
335,167,264328,2,0,L|319:277,1,82.5000025177003,10|0,0:0|0:0,0:0:0:0:
253,136,264663,1,8,0:1:0:0:
422,191,264831,2,0,L|406:300,1,82.5000025177003,10|0,0:0|0:1,0:0:0:0:
253,136,265166,6,0,L|268:27,1,82.5000025177003,10|0,0:0|0:1,0:0:0:0:
335,167,265501,2,0,L|319:278,1,82.5000025177003,8|10,0:1|0:0,0:0:0:0:
171,112,265837,2,0,L|187:2,1,82.5000025177003,0|8,0:1|0:1,0:0:0:0:
422,191,266172,2,0,L|406:298,1,82.5000025177003,10|0,0:0|0:1,0:0:0:0:
303,354,266507,6,0,B|236:358|236:358|132:315,1,165.000005035401,10|8,0:0|0:1,0:0:0:0:
0,250,267010,2,0,P|61:238|101:210,1,82.5000025177003,10|0,0:0|0:1,0:0:0:0:
162,149,267345,1,8,0:1:0:0:
258,118,267513,2,0,P|298:122|336:139,1,82.5000025177003,10|8,0:0|0:1,0:0:0:0:
191,248,267848,6,0,P|162:192|175:156,1,82.5000025177003,10|0,0:0|0:1,0:0:0:0:
347,175,268183,2,0,P|346:216|320:248,1,82.5000025177003,10|8,0:1|0:0,0:0:0:0:
162,327,268518,2,0,P|118:288|105:250,1,82.5000025177003,2|8,0:1|0:1,0:0:0:0:
403,267,268854,2,0,P|383:302|350:327,1,82.5000025177003,12|0,0:0|0:0,0:0:0:0:
256,241,269189,6,0,L|256:60,2,165.000005035401,12|8|8,0:1|0:1|0:1,0:0:0:0:
70,364,270194,2,0,P|60:322|47:217,1,137.500004196167,8|2,0:1|0:0,0:0:0:0:
43,201,270529,6,0,P|92:187|125:159,1,82.5000025177003,10|2,0:1|0:0,0:0:0:0:
240,76,270865,1,10,0:1:0:0:
240,76,271032,1,2,0:0:0:0:
201,231,271200,1,10,0:1:0:0:
201,231,271367,1,0,0:0:0:0:
63,115,271535,1,10,0:1:0:0:
63,115,271703,1,0,0:0:0:0:
238,61,271870,6,0,P|291:77|333:121,1,82.5000025177003,14|0,0:0|0:0,0:0:0:0:
386,258,272205,1,10,0:0:0:0:
386,258,272373,1,8,0:0:0:0:
201,172,272541,1,10,0:0:0:0:
316,172,272708,1,8,0:0:0:0:
259,273,272876,1,10,0:0:0:0:
144,273,273043,1,8,0:0:0:0:
189,68,273211,5,10,0:0:0:0:
259,273,273378,1,8,0:0:0:0:
316,172,273546,1,8,0:0:0:0:
124,186,273714,1,0,3:0:0:0:
124,186,273798,1,0,3:0:0:0:
124,186,273881,2,0,L|28:176,1,82.5000025177003,8|8,0:0|0:3,0:0:0:0:
189,68,274217,2,0,L|285:58,1,82.5000025177003,4|2,0:3|0:0,0:0:0:0:
312,56,274468,1,2,0:0:0:0:
312,56,274552,5,12,0:1:0:0:
256,192,274636,12,0,279915,0:0:0:0:
