osu file format v14

[General]
AudioFilename: audio.mp3
AudioLeadIn: 0
PreviewTime: 64350
Countdown: 0
SampleSet: Soft
StackLeniency: 0.4
Mode: 0
LetterboxInBreaks: 0
WidescreenStoryboard: 1

[Editor]
DistanceSpacing: 1
BeatDivisor: 4
GridSize: 4
TimelineZoom: 1

[Metadata]
Title:Rinne
TitleUnicode:輪廻
Artist:Yamamoto Mineko
ArtistUnicode:山本美禰子
Creator:- Nilou -
Version:Normal
Source:さくら、もゆ。-as the Night's, Reincarnation-
Tags:vn video game pop jpop j-pop sakura moyu as the nights reincarnation galgame eroge visual novel opening short version favorite japanese op2 KoldNoodl Kanui supav fujinn Actiol Syndicate_ cjstmdals
BeatmapID:4372987
BeatmapSetID:2084942

[Difficulty]
HPDrainRate:3
CircleSize:3.2
OverallDifficulty:4
ApproachRate:5
SliderMultiplier:0.999999999999999
SliderTickRate:1

[Events]
//Background and Video events
0,0,"bg_Insane.jpg",0,0
Video,-1060,"video.avi"
//Break Periods
//Storyboard Layer 0 (Background)
//Storyboard Layer 1 (Fail)
//Storyboard Layer 2 (Pass)
//Storyboard Layer 3 (Foreground)
//Storyboard Layer 4 (Overlay)
//Storyboard Sound Samples

[TimingPoints]
1082,335.195530726257,4,2,1,40,1,0
11808,-100,4,2,1,50,0,0
17171,-100,4,2,1,75,0,0
17674,-100,4,2,2,75,0,0
17841,-100,4,2,1,75,0,0
18176,-100,4,2,2,75,0,0
18343,-100,4,2,1,75,0,0
20355,-100,4,2,2,75,0,0
20523,-100,4,2,1,75,0,0
21361,-100,4,2,2,75,0,0
21528,-100,4,2,1,75,0,0
22199,-100,4,2,2,75,0,0
22534,-100,4,2,1,60,0,0
23875,-100,4,2,1,36,0,0
24042,-100,4,2,1,39,0,0
24210,-100,4,2,1,42,0,0
24378,-100,4,2,1,45,0,0
24545,-100,4,2,1,48,0,0
24713,-100,4,2,1,51,0,0
24880,-100,4,2,1,54,0,0
25216,-100,4,2,3,60,0,0
43651,-100,4,2,2,60,0,0
43987,-100,4,2,3,60,0,0
45160,-100,4,2,2,60,0,0
46006,-100,4,2,3,60,0,0
46668,-100,4,2,1,60,0,0
47003,-100,4,2,2,60,0,0
57394,-100,4,2,1,65,0,0
58735,-100,4,2,4,65,0,0
59070,-100,4,2,3,65,0,0
59238,-100,4,2,1,65,0,0
60076,-100,4,2,2,65,0,0
60579,-100,4,2,1,65,0,0
62757,-100,4,2,1,70,0,0
63092,-100,4,2,2,70,0,0
63595,-100,4,2,1,70,0,0
63931,-100,4,2,4,75,0,0
64266,-100,4,2,5,75,0,0
64769,-100,4,2,1,75,0,0
65439,-100,4,2,1,85,0,1
65942,-100,4,2,2,85,0,1
70802,-100,4,2,1,85,0,1
71305,-100,4,2,2,85,0,1
75327,-100,4,2,6,85,0,1
75830,-100,4,2,2,85,0,1
76165,-100,4,2,1,85,0,1
76668,-100,4,2,2,85,0,1
86892,-100,4,2,1,85,0,1
87227,-100,4,2,4,85,0,1
87394,-100,4,2,2,85,0,1
87561,-100,4,2,6,85,0,1
87730,-100,4,2,2,85,0,1
87813,-100,4,2,6,85,0,1
88065,-100,4,2,2,85,0,1
88568,-100,4,2,4,85,0,1
88735,-100,4,2,2,85,0,1
88819,-100,4,2,6,85,0,1
89070,-100,4,2,2,85,0,1
89238,-100,4,2,4,85,0,1
89405,-100,4,2,2,85,0,1
89573,-100,4,2,1,85,0,1
89908,-100,4,2,2,85,0,1
90914,-100,4,2,1,70,0,0
92255,-100,4,2,1,75,0,0
92590,-100,4,2,2,75,0,0
93092,-100,4,2,1,75,0,0
93260,-100,4,2,2,75,0,0
93595,-100,4,2,1,75,0,0
93931,-100,4,2,2,75,0,0
94433,-100,4,2,1,75,0,0
95271,-100,4,2,2,75,0,0
95774,-100,4,2,1,75,0,0
95942,-100,4,2,2,75,0,0
96277,-100,4,2,1,75,0,0
96612,-100,4,2,2,75,0,0
97283,-100,4,2,1,75,0,0
97618,-100,4,2,1,70,0,0
97953,-100,4,2,2,70,0,0
98623,-100,4,2,6,70,0,0
98959,-100,4,2,4,70,0,0
99126,-100,4,2,1,70,0,0
99294,-100,4,2,4,70,0,0
99797,-100,4,2,1,70,0,0
99964,-100,4,2,4,70,0,0
100299,-100,4,2,1,60,0,0
100635,-100,4,2,7,63,0,0
100802,-100,4,2,5,63,0,0
100970,-100,4,2,7,66,0,0
101137,-100,4,2,5,66,0,0
101305,-100,4,2,7,69,0,0
101640,-100,4,2,7,72,0,0
101808,-100,4,2,5,72,0,0
101975,-100,4,2,7,72,0,0
102143,-100,4,2,5,72,0,0
102311,-100,4,2,7,75,0,0
102478,-100,4,2,3,75,0,0
102981,-100,4,2,1,75,0,0

[Colours]
Combo1 : 207,207,207
Combo2 : 116,182,248
Combo3 : 198,214,255

[HitObjects]
17,353,1082,6,0,P|73:333|116:334,1,99.9999999999999,2|2,2:0|2:0,2:0:0:0:
161,346,1584,1,2,2:0:0:0:
249,299,1919,1,2,2:0:0:0:
220,202,2255,2,0,L|264:-3,1,200,2|2,2:0|2:0,2:0:0:0:
412,6,3428,1,2,2:0:0:0:
466,89,3763,6,0,L|444:199,1,99.9999999999999,2|2,2:0|2:0,2:0:0:0:
443,237,4266,1,2,2:0:0:0:
346,211,4601,1,2,2:0:0:0:
278,285,4936,1,2,2:0:0:0:
278,285,5104,2,0,L|287:350,2,50,2|2|2,2:0|2:0|2:0,2:0:0:0:
205,216,5774,2,0,P|163:194|111:210,1,99.9999999999999,2|2,2:0|2:0,2:0:0:0:
73,298,6445,6,0,L|181:317,1,99.9999999999999,2|2,2:0|2:0,2:0:0:0:
218,331,6947,1,2,2:0:0:0:
298,204,7450,1,2,2:0:0:0:
245,118,7785,2,0,L|141:98,1,99.9999999999999,2|2,2:0|2:0,2:0:0:0:
96,98,8288,2,0,P|100:30|140:2,1,99.9999999999999,2|2,2:0|2:0,2:0:0:0:
170,6,8791,1,2,2:0:0:0:
242,74,9126,6,0,L|256:177,1,99.9999999999999,2|2,2:0|2:0,2:0:0:0:
249,222,9629,1,2,2:0:0:0:
330,279,9964,1,2,2:0:0:0:
380,192,10299,2,0,L|481:179,1,99.9999999999999,2|2,2:0|2:0,2:0:0:0:
496,277,10970,2,0,P|496:325|463:361,1,99.9999999999999,2|2,2:0|2:0,2:0:0:0:
413,356,11473,1,2,2:0:0:0:
318,323,11808,6,0,P|266:284|214:291,1,99.9999999999999,6|0,1:2|3:0,2:0:0:0:
188,307,12311,1,2,2:0:0:0:
101,267,12646,1,2,2:0:0:0:
101,267,12813,1,2,3:2:0:0:
86,167,13149,2,0,P|145:140|188:151,1,99.9999999999999,2|2,2:0|3:2,2:0:0:0:
224,162,13651,1,2,3:2:0:0:
362,219,14154,1,2,3:2:0:0:
442,160,14489,6,0,L|429:54,1,99.9999999999999,2|2,3:2|3:2,2:0:0:0:
397,22,14992,1,2,2:0:0:0:
316,81,15327,1,2,2:0:0:0:
228,31,15663,1,2,2:0:0:0:
228,31,15830,2,0,L|176:22,2,50,2|2|2,3:2|3:2|3:2,2:0:0:0:
316,81,16500,2,0,L|301:191,1,99.9999999999999,2|0,3:2|3:0,2:0:0:0:
288,279,17171,6,0,P|238:295|191:272,1,99.9999999999999,14|0,2:0|1:0,2:0:0:0:
173,232,17674,2,0,L|158:131,1,99.9999999999999,12|0,2:0|1:0,2:0:0:0:
188,93,18176,2,0,L|179:36,1,50,14|0,2:0|1:0,2:0:0:0:
137,17,18512,1,14,2:0:0:0:
38,3,18847,1,2,1:2:0:0:
0,95,19182,1,2,1:2:0:0:
73,162,19517,1,14,2:0:0:0:
29,251,19852,6,0,L|15:356,1,99.9999999999999,14|0,2:0|1:0,2:0:0:0:
69,359,20355,1,14,2:0:0:0:
69,359,20523,2,0,P|116:318|165:332,1,99.9999999999999,2|12,1:2|2:0,2:0:0:0:
192,347,21026,1,0,1:0:0:0:
290,366,21361,2,0,L|400:343,1,99.9999999999999,12|0,2:0|1:0,2:0:0:0:
437,336,21864,1,14,2:0:0:0:
489,250,22199,1,14,2:0:0:0:
425,172,22534,5,6,1:2:0:0:
44,38,23875,2,0,B|217:63|88:202|256:224,1,300,2|6,3:2|2:3,2:0:0:0:
304,306,25216,6,0,P|352:329|406:313,1,99.9999999999999,6|8,1:2|3:2,2:0:0:0:
481,267,25886,1,8,3:2:0:0:
446,173,26221,2,0,L|461:113,1,50,10|2,3:2|3:2,2:0:0:0:
481,79,26556,2,0,P|422:26|305:42,1,200,8|0,3:2|2:0,2:0:0:0:
272,132,27562,2,0,L|285:197,1,50,10|2,3:2|1:2,2:0:0:0:
302,226,27897,6,0,P|257:272|213:273,1,99.9999999999999,10|10,1:2|3:2,2:0:0:0:
176,260,28400,1,2,3:2:0:0:
91,313,28735,1,2,3:2:0:0:
14,248,29070,1,2,3:2:0:0:
14,248,29238,2,0,L|47:43,1,200,8|8,3:2|3:2,2:0:0:0:
140,18,30244,1,10,3:2:0:0:
173,112,30579,6,0,P|211:147|269:143,1,99.9999999999999,10|8,1:2|3:2,2:0:0:0:
330,80,31249,1,8,3:2:0:0:
389,160,31584,2,0,L|376:214,1,50,10|2,3:2|3:2,2:0:0:0:
392,256,31919,2,0,L|367:367,1,99.9999999999999,8|8,3:2|3:2,2:0:0:0:
321,364,32422,1,0,3:0:0:0:
176,323,32925,2,0,L|107:308,1,50,10|2,3:2|1:2,2:0:0:0:
88,344,33260,6,0,P|60:274|71:243,1,99.9999999999999,10|10,1:2|3:2,2:0:0:0:
99,216,33763,1,2,3:2:0:0:
180,158,34098,1,2,3:2:0:0:
266,208,34433,1,2,3:2:0:0:
266,208,34601,2,0,L|381:228,1,99.9999999999999,8|10,3:2|3:2,2:0:0:0:
462,203,35271,1,10,3:2:0:0:
442,104,35607,1,10,3:2:0:0:
508,28,35942,6,0,P|470:-3|408:5,1,99.9999999999999,10|8,1:2|3:2,2:0:0:0:
328,36,36612,1,8,3:2:0:0:
403,101,36947,2,0,L|389:158,1,50,10|2,3:2|3:2,2:0:0:0:
372,196,37283,2,0,P|318:150|281:156,1,99.9999999999999,8|8,1:2|3:2,2:0:0:0:
250,177,37785,1,0,3:0:0:0:
107,223,38288,2,0,L|42:206,1,50,10|2,3:2|3:2,2:0:0:0:
18,180,38623,6,0,P|14:124|42:86,1,99.9999999999999,10|10,1:2|3:2,2:0:0:0:
68,49,39126,1,2,3:2:0:0:
149,107,39461,1,2,3:2:0:0:
229,47,39797,1,2,1:2:0:0:
229,47,39964,2,0,P|273:48|317:108,1,99.9999999999999,8|10,1:2|3:2,2:0:0:0:
257,169,40635,2,0,L|269:283,1,99.9999999999999,10|10,3:2|1:2,2:0:0:0:
328,347,41305,6,0,P|390:358|436:336,1,99.9999999999999,10|8,1:2|3:2,2:0:0:0:
495,276,41975,1,8,3:2:0:0:
442,190,42311,2,0,L|454:125,1,50,10|2,3:2|3:2,2:0:0:0:
434,93,42646,2,0,P|386:43|341:46,1,99.9999999999999,10|10,1:2|3:2,2:0:0:0:
311,57,43149,1,2,3:2:0:0:
238,125,43484,2,0,L|253:232,1,99.9999999999999,2|0,3:2|2:0,2:0:0:0:
291,254,43987,5,10,1:2:0:0:
240,340,44322,1,8,1:2:0:0:
143,313,44657,1,8,1:2:0:0:
50,350,44992,1,8,1:2:0:0:
50,350,45160,2,0,P|22:283|34:239,1,99.9999999999999,12|2,3:2|3:2,2:0:0:0:
38,209,45663,1,2,1:2:0:0:
130,172,45998,2,0,L|186:181,1,50,2|6,1:2|3:0,2:0:0:0:
228,190,46333,1,6,1:3:0:0:
315,140,46668,6,0,P|335:81|315:35,2,99.9999999999999,6|0|0,1:2|1:0|1:0,2:0:0:0:
270,229,47674,2,0,L|283:290,1,50,2|2,1:2|3:2,2:0:0:0:
303,322,48009,2,0,L|419:348,2,99.9999999999999,0|0|0,1:0|1:0|1:0,2:0:0:0:
210,359,49014,2,0,L|151:368,1,50,2|2,1:2|3:2,2:0:0:0:
115,343,49350,6,0,P|85:272|105:236,1,99.9999999999999,2|2,1:2|1:2,2:0:0:0:
124,218,49852,1,2,3:2:0:0:
218,250,50188,1,2,3:2:0:0:
293,184,50523,1,2,3:2:0:0:
293,184,50690,2,0,P|309:127|298:83,1,99.9999999999999,0|0,1:0|1:0,2:0:0:0:
272,46,51193,1,0,3:0:0:0:
124,20,51696,2,0,L|62:31,1,50,2|2,1:2|3:2,2:0:0:0:
24,34,52031,6,0,P|6:79|36:142,1,99.9999999999999,2|2,1:2|1:2,2:0:0:0:
64,150,52534,2,0,L|39:305,1,150,2|0,3:2|1:0,2:0:0:0:
118,361,53372,1,2,1:2:0:0:
197,300,53707,1,2,1:2:0:0:
287,345,54042,2,0,L|409:364,1,99.9999999999999,2|2,1:2|1:2,2:0:0:0:
473,312,54713,6,0,P|511:256|497:222,1,99.9999999999999,2|2,1:2|1:2,2:0:0:0:
480,185,55216,2,0,L|365:166,1,99.9999999999999,2|0,3:2|3:0,2:0:0:0:
347,132,55718,1,0,1:0:0:0:
266,191,56054,1,2,1:2:0:0:
176,146,56389,2,0,L|128:161,1,50,0|0,1:0|3:0,2:0:0:0:
83,183,56724,1,0,1:0:0:0:
9,115,57059,2,0,P|-2:76|5:50,1,50,10|2,3:2|3:2,2:0:0:0:
30,27,57394,6,0,L|146:50,1,99.9999999999999,6|10,1:2|3:2,2:0:0:0:
175,61,57897,2,0,P|190:107|177:155,1,99.9999999999999,2|0,1:2|1:0,2:0:0:0:
144,193,58400,2,0,L|157:259,1,50,10|2,3:2|2:0,2:0:0:0:
149,291,58735,1,2,1:3:0:0:
226,354,59070,1,10,3:0:0:0:
226,354,59238,2,0,P|266:310|312:320,1,99.9999999999999,2|0,1:2|1:0,2:0:0:0:
348,332,59741,1,10,3:2:0:0:
444,357,60076,6,0,L|464:249,1,99.9999999999999,2|10,1:2|3:2,2:0:0:0:
424,225,60579,2,0,L|444:117,1,99.9999999999999,2|0,1:2|1:0,2:0:0:0:
472,86,61082,1,8,3:2:0:0:
388,31,61417,2,0,P|329:5|283:22,1,99.9999999999999,10|10,3:2|3:2,2:0:0:0:
253,37,61919,1,2,1:2:0:0:
198,121,62255,1,2,1:2:0:0:
198,121,62422,2,0,L|207:185,1,50,8|2,3:2|1:2,2:0:0:0:
228,214,62757,6,0,L|287:227,2,50,10|2|2,3:2|1:2|1:2,2:0:0:0:
195,252,63260,1,10,2:0:0:0:
112,308,63595,2,0,L|121:372,1,50,2|10,1:2|3:2,2:0:0:0:
165,376,63931,2,0,L|274:360,1,99.9999999999999,6|10,1:2|1:3,2:0:0:0:
312,352,64433,1,10,1:3:0:0:
402,308,64769,1,10,2:0:0:0:
360,217,65104,1,10,2:0:0:0:
444,163,65439,6,0,P|476:79|468:56,1,99.9999999999999,6|10,1:2|3:2,2:0:0:0:
441,36,65942,1,2,1:2:0:0:
350,78,66277,1,2,1:2:0:0:
261,31,66612,2,0,L|245:153,1,99.9999999999999,2|0,3:2|1:0,2:0:0:0:
219,171,67115,2,0,L|210:228,1,50,10|0,3:2|1:0,2:0:0:0:
250,251,67450,2,0,L|241:308,1,50,2|0,3:2|1:0,2:0:0:0:
211,340,67785,1,10,3:2:0:0:
112,357,68121,6,0,P|73:304|77:256,1,99.9999999999999,2|10,1:2|3:2,2:0:0:0:
97,229,68623,1,2,1:2:0:0:
45,142,68959,1,2,1:2:0:0:
110,66,69294,1,2,3:2:0:0:
110,66,69461,2,0,L|221:88,1,99.9999999999999,0|8,1:0|3:2,2:0:0:0:
304,111,70132,2,0,L|293:167,1,50,2|0,3:2|1:0,2:0:0:0:
261,197,70467,1,10,3:2:0:0:
289,292,70802,6,0,P|334:337|380:335,1,99.9999999999999,6|10,1:2|3:2,2:0:0:0:
413,320,71305,2,0,L|438:200,1,99.9999999999999,2|0,1:2|1:0,2:0:0:0:
473,192,71808,2,0,L|482:137,1,50,8|2,3:2|3:2,2:0:0:0:
458,97,72143,1,2,1:2:0:0:
389,24,72478,1,10,3:2:0:0:
389,24,72646,2,0,L|278:41,1,99.9999999999999,2|2,1:2|1:2,2:0:0:0:
242,23,73149,1,8,3:2:0:0:
191,109,73484,6,0,P|190:162|221:213,1,99.9999999999999,0|10,1:0|3:2,2:0:0:0:
254,228,73987,1,2,1:2:0:0:
355,252,74322,1,2,1:2:0:0:
355,252,74489,2,0,L|326:371,1,99.9999999999999,10|0,3:2|1:0,2:0:0:0:
231,351,75160,2,0,L|162:338,1,50,10|2,3:2|1:3,2:0:0:0:
136,320,75495,1,2,3:2:0:0:
69,245,75830,1,10,3:2:0:0:
126,163,76165,6,0,P|176:130|231:136,1,99.9999999999999,6|10,1:2|3:2,2:0:0:0:
256,157,76668,1,2,1:2:0:0:
339,212,77003,1,2,1:2:0:0:
420,153,77338,2,0,P|433:107|406:51,1,99.9999999999999,2|0,3:2|1:0,2:0:0:0:
375,28,77841,2,0,L|319:22,1,50,10|0,3:2|1:0,2:0:0:0:
276,13,78176,1,2,3:2:0:0:
205,84,78512,1,10,3:2:0:0:
117,36,78847,6,0,P|79:108|91:141,1,99.9999999999999,2|10,1:2|3:2,2:0:0:0:
121,151,79350,1,2,1:2:0:0:
66,235,79685,1,2,1:2:0:0:
142,299,80020,2,0,L|258:319,1,99.9999999999999,2|0,3:2|1:0,2:0:0:0:
275,351,80523,2,0,L|337:360,1,50,8|0,3:2|1:0,2:0:0:0:
365,328,80858,1,2,3:2:0:0:
457,365,81193,1,10,3:2:0:0:
511,281,81528,6,0,L|491:165,1,99.9999999999999,2|10,1:2|3:2,2:0:0:0:
450,157,82031,1,2,1:2:0:0:
463,58,82366,1,2,1:2:0:0:
374,11,82702,2,0,P|321:3|270:28,1,99.9999999999999,2|0,3:2|1:0,2:0:0:0:
243,54,83204,2,0,L|256:114,1,50,10|0,3:2|1:0,2:0:0:0:
298,126,83540,2,0,L|311:186,1,50,2|0,3:2|1:0,2:0:0:0:
306,224,83875,1,10,3:2:0:0:
237,297,84210,6,0,P|175:329|129:311,1,99.9999999999999,2|10,1:2|3:2,2:0:0:0:
101,307,84713,1,2,1:2:0:0:
40,227,85048,1,2,1:2:0:0:
40,227,85216,2,0,P|101:148|205:159,1,200,10|8,3:2|3:2,2:0:0:0:
265,221,86221,2,0,L|327:237,1,50,0|8,1:0|3:2,2:0:0:0:
360,251,86556,1,10,3:2:0:0:
450,294,86892,6,0,P|494:238|487:199,1,99.9999999999999,6|10,1:2|2:3,2:0:0:0:
455,179,87394,2,0,L|464:125,1,50,2|10,1:2|2:3,2:0:0:0:
504,100,87730,2,0,L|513:46,1,50,2|10,1:2|2:3,2:0:0:0:
481,11,88065,1,2,1:2:0:0:
381,12,88400,1,2,1:2:0:0:
381,12,88568,2,0,L|273:33,1,99.9999999999999,10|10,2:3|2:3,2:0:0:0:
241,59,89070,1,2,1:2:0:0:
241,59,89238,2,0,L|253:121,1,50,10|2,2:3|1:2,2:0:0:0:
280,148,89573,5,14,2:0:0:0:
237,238,89908,1,2,1:2:0:0:
237,238,90076,2,0,P|187:210|130:219,1,99.9999999999999,14|0,3:2|1:0,2:0:0:0:
101,235,90579,2,0,L|90:293,1,50,12|0,3:2|1:0,2:0:0:0:
75,331,90914,1,12,3:2:0:0:
326,19,92255,6,0,L|436:43,1,99.9999999999999,14|2,2:0|1:2,2:0:0:0:
473,36,92757,2,0,P|493:89|470:137,1,99.9999999999999,14|0,2:0|1:0,2:0:0:0:
442,161,93260,1,14,3:2:0:0:
369,229,93595,1,12,3:2:0:0:
275,193,93931,2,0,L|256:86,2,99.9999999999999,2|2|14,1:2|1:2|3:2,2:0:0:0:
268,292,94936,6,0,P|210:334|171:333,1,99.9999999999999,14|0,3:2|1:0,2:0:0:0:
138,314,95439,2,0,L|124:206,1,99.9999999999999,14|0,2:0|1:0,2:0:0:0:
84,185,95942,1,14,3:2:0:0:
142,103,96277,1,14,3:2:0:0:
236,135,96612,1,2,1:2:0:0:
312,70,96947,1,2,1:2:0:0:
400,117,97283,1,14,3:2:0:0:
362,209,97618,6,0,L|381:324,2,99.9999999999999,14|0|0,2:0|1:0|1:0,2:0:0:0:
400,117,98623,1,2,1:3:0:0:
325,49,98959,2,0,L|226:33,1,99.9999999999999,2|2,1:3|1:3,2:0:0:0:
186,124,99629,2,0,L|87:108,1,99.9999999999999,2|2,1:3|1:3,2:0:0:0:
14,176,100299,5,14,1:2:0:0:
51,269,100635,2,0,L|43:326,1,50,8|8,1:3|3:0,2:0:0:0:
77,355,100970,2,0,L|134:363,1,50,8|8,1:3|3:0,2:0:0:0:
173,343,101305,1,8,1:3:0:0:
255,286,101640,2,0,P|285:243|273:185,1,99.9999999999999,10|8,1:3|1:3,2:0:0:0:
246,169,102143,1,8,3:0:0:0:
246,169,102311,2,0,L|257:104,1,50,8|8,1:3|3:0,2:0:0:0:
288,82,102646,1,4,3:0:0:0:
227,2,102981,5,6,1:0:0:0:
256,192,103065,12,0,108344,2:0:0:0:
