osu file format v14

[General]
AudioFilename: audio.mp3
AudioLeadIn: 0
PreviewTime: 64350
Countdown: 0
SampleSet: Soft
StackLeniency: 0.7
Mode: 0
LetterboxInBreaks: 0
WidescreenStoryboard: 1

[Editor]
DistanceSpacing: 0.2
BeatDivisor: 4
GridSize: 4
TimelineZoom: 1

[Metadata]
Title:Rinne
TitleUnicode:輪廻
Artist:Yamamoto Mineko
ArtistUnicode:山本美禰子
Creator:- Nilou -
Version:Kanui's Insane
Source:さくら、もゆ。-as the Night's, Reincarnation-
Tags:vn video game pop jpop j-pop sakura moyu as the nights reincarnation galgame eroge visual novel opening short version favorite japanese op2 KoldNoodl Kanui supav fujinn Actiol Syndicate_ cjstmdals
BeatmapID:4445672
BeatmapSetID:2084942

[Difficulty]
HPDrainRate:5
CircleSize:4
OverallDifficulty:8
ApproachRate:9
SliderMultiplier:1.8
SliderTickRate:1

[Events]
//Background and Video events
Video,-1060,"video.avi"
0,0,"bg_Insane.jpg",0,0
//Break Periods
//Storyboard Layer 0 (Background)
//Storyboard Layer 1 (Fail)
//Storyboard Layer 2 (Pass)
//Storyboard Layer 3 (Foreground)
//Storyboard Layer 4 (Overlay)
//Storyboard Sound Samples

[TimingPoints]
1082,335.195530726257,4,2,1,40,1,0
1082,-133.333333333333,4,2,1,40,0,0
11808,-117.647058823529,4,2,1,50,0,0
17003,-117.647058823529,4,2,2,50,0,0
17087,-117.647058823529,4,2,1,50,0,0
17171,-100,4,2,1,75,0,0
17674,-100,4,2,2,75,0,0
17841,-100,4,2,1,75,0,0
18176,-100,4,2,2,75,0,0
18344,-100,4,2,1,75,0,0
19014,-100,4,2,2,75,0,0
19182,-100,4,2,1,75,0,0
20355,-100,4,2,2,75,0,0
20523,-100,4,2,1,75,0,0
21361,-100,4,2,2,75,0,0
21528,-100,4,2,1,75,0,0
22199,-100,4,2,2,75,0,0
22534,-166.666666666667,4,2,1,60,0,0
23875,-133.333333333333,4,2,1,36,0,0
24042,-133.333333333333,4,2,1,39,0,0
24210,-133.333333333333,4,2,1,42,0,0
24378,-133.333333333333,4,2,1,45,0,0
24545,-133.333333333333,4,2,1,48,0,0
24713,-133.333333333333,4,2,1,51,0,0
24880,-111.111111111111,4,2,1,54,0,0
25048,-111.111111111111,4,2,1,57,0,0
25216,-125,4,2,3,60,0,0
43651,-125,4,2,2,60,0,0
43987,-125,4,2,3,60,0,0
45160,-125,4,2,2,60,0,0
45495,-100,4,2,2,60,0,0
45830,-111.111111111111,4,2,1,60,0,0
45998,-111.111111111111,4,2,3,60,0,0
46165,-125,4,2,3,60,0,0
46668,-111.111111111111,4,2,1,60,0,0
47003,-111.111111111111,4,2,2,60,0,0
57394,-99.9999999999999,4,2,1,65,0,0
58735,-99.9999999999999,4,2,4,65,0,0
58903,-99.9999999999999,4,2,1,65,0,0
59070,-99.9999999999999,4,2,3,65,0,0
59238,-99.9999999999999,4,2,1,65,0,0
60076,-99.9999999999999,4,2,2,65,0,0
60579,-99.9999999999999,4,2,1,65,0,0
62757,-99.9999999999999,4,2,1,70,0,0
63093,-99.9999999999999,4,2,2,70,0,0
63595,-99.9999999999999,4,2,1,70,0,0
63931,-99.9999999999999,4,2,4,75,0,0
64266,-99.9999999999999,4,2,5,75,0,0
64769,-99.9999999999999,4,2,1,75,0,0
64852,-99.9999999999999,4,2,3,75,0,0
64936,-99.9999999999999,4,2,1,75,0,0
65439,-100,4,2,1,85,0,1
65942,-100,4,2,2,85,0,1
69461,-105.263157894737,4,2,2,85,0,1
70132,-90.9090909090909,4,2,2,85,0,1
70802,-100,4,2,1,85,0,1
71305,-100,4,2,2,85,0,1
75327,-100,4,2,6,85,0,1
75495,-100,4,2,2,85,0,1
76165,-100,4,2,1,85,0,1
76668,-100,4,2,2,85,0,1
78512,-90.9090909090909,4,2,2,85,0,1
78847,-100,4,2,2,85,0,1
80858,-83.3333333333333,4,2,2,85,0,1
81528,-100,4,2,2,85,0,1
86054,-100,4,2,1,85,0,1
86221,-100,4,2,2,85,0,1
86640,-100,4,2,1,85,0,1
86724,-100,4,2,3,85,0,1
86892,-100,4,2,1,85,0,1
87227,-100,4,2,4,85,0,1
87394,-100,4,2,2,85,0,1
87562,-100,4,2,6,85,0,1
87730,-100,4,2,2,85,0,1
87813,-100,4,2,6,85,0,1
88065,-100,4,2,2,85,0,1
88568,-100,4,2,4,85,0,1
88735,-100,4,2,2,85,0,1
88819,-100,4,2,6,85,0,1
89070,-100,4,2,2,85,0,1
89238,-100,4,2,4,85,0,1
89406,-100,4,2,2,85,0,1
89489,-100,4,2,1,85,0,1
89741,-100,4,2,2,85,0,1
90914,-100,4,2,1,70,0,1
92087,-100,4,2,1,75,0,1
92255,-100,4,2,1,75,0,0
92590,-100,4,2,2,75,0,0
93093,-100,4,2,1,75,0,0
93260,-100,4,2,2,75,0,0
93428,-100,4,2,1,75,0,0
93931,-100,4,2,2,75,0,0
94433,-100,4,2,1,75,0,0
95271,-100,4,2,2,75,0,0
95774,-100,4,2,1,75,0,0
95942,-100,4,2,2,75,0,0
96109,-100,4,2,1,75,0,0
96612,-100,4,2,2,75,0,0
97115,-100,4,2,1,75,0,0
97450,-100,4,2,2,75,0,0
97618,-111.111111111111,4,2,1,70,0,0
97953,-111.111111111111,4,2,2,70,0,0
98623,-111.111111111111,4,2,6,70,0,0
98791,-111.111111111111,4,2,1,70,0,0
98959,-111.111111111111,4,2,4,70,0,0
99126,-111.111111111111,4,2,1,70,0,0
99294,-111.111111111111,4,2,4,70,0,0
99461,-111.111111111111,4,2,1,70,0,0
99629,-111.111111111111,4,2,4,70,0,0
99797,-111.111111111111,4,2,1,70,0,0
99964,-111.111111111111,4,2,4,70,0,0
100132,-111.111111111111,4,2,1,70,0,0
100299,-111.111111111111,4,2,1,60,0,0
100635,-111.111111111111,4,2,7,63,0,0
100802,-111.111111111111,4,2,5,63,0,0
100970,-111.111111111111,4,2,7,66,0,0
101137,-111.111111111111,4,2,5,66,0,0
101305,-111.111111111111,4,2,7,69,0,0
101473,-111.111111111111,4,2,5,69,0,0
101640,-111.111111111111,4,2,7,72,0,0
101808,-111.111111111111,4,2,5,72,0,0
101975,-111.111111111111,4,2,7,72,0,0
102143,-111.111111111111,4,2,5,72,0,0
102311,-111.111111111111,4,2,7,75,0,0
102478,-111.111111111111,4,2,3,75,0,0
102981,-111.111111111111,4,2,1,75,0,0
103065,-111.111111111111,4,2,1,75,0,0
108344,-111.111111111111,4,2,1,5,0,0

[Colours]
Combo1 : 207,207,207
Combo2 : 116,182,248
Combo3 : 204,255,255

[HitObjects]
256,46,1082,5,2,2:2:0:0:
394,219,1417,1,2,2:2:0:0:
471,196,1584,2,0,B|491:124|460:40,1,135.000005149842,2|2,2:2|2:2,0:0:0:0:
394,219,2255,2,0,B|374:291|405:375,1,135.000005149842,2|2,2:2|2:2,0:0:0:0:
397,352,2757,1,2,2:2:0:0:
241,331,2925,1,2,2:2:0:0:
144,313,3428,1,2,2:2:0:0:
144,313,3763,6,0,B|99:325|-10:327,1,135.000005149842,2|2,2:2|2:2,0:0:0:0:
206,236,4266,1,2,2:2:0:0:
206,236,4601,2,0,B|127:230|61:210,1,135.000005149842,2|2,2:2|2:2,0:0:0:0:
56,194,5104,2,0,L|130:180,1,67.5000025749208,2|2,2:2|2:2,0:0:0:0:
39,112,5439,2,0,L|113:98,1,67.5000025749208,2|2,2:2|2:2,0:0:0:0:
252,36,5774,1,2,2:2:0:0:
170,22,5942,1,2,2:2:0:0:
261,29,6109,2,0,B|263:80|255:179,1,135.000005149842,2|2,2:2|2:2,0:0:0:0:
509,206,6780,5,2,2:2:0:0:
431,234,6947,2,0,B|429:183|437:84,1,135.000005149842,2|0,2:2|0:0,0:0:0:0:
357,268,7450,2,0,B|373:302|407:333,1,67.5000025749208,2|0,2:2|0:0,0:0:0:0:
340,130,7785,1,2,2:2:0:0:
340,130,8121,1,2,2:2:0:0:
216,190,8288,2,0,L|76:179,1,135.000005149842,2|2,2:2|2:2,0:0:0:0:
128,285,8791,2,0,B|136:246|132:199,1,67.5000025749208,2|0,2:2|0:0,0:0:0:0:
17,109,9126,6,0,B|-26:167|9:237,1,135.000005149842,2|2,2:2|2:2,0:0:0:0:
209,158,9629,2,0,B|244:89|200:31,1,135.000005149842,2|2,2:2|2:2,0:0:0:0:
200,31,10299,1,2,2:2:0:0:
430,141,10635,1,2,2:2:0:0:
225,286,10970,1,2,2:2:0:0:
287,153,11305,1,2,2:2:0:0:
362,209,11473,1,2,2:2:0:0:
362,209,11808,6,0,B|276:210|189:202,1,153.000002918243,6|0,1:2|3:3,0:0:0:0:
442,307,12311,1,2,2:2:0:0:
442,307,12646,2,0,B|386:301|345:291,1,76.5000014591217,2|2,2:2|3:2,0:0:0:0:
210,375,12981,1,2,2:2:0:0:
123,348,13149,2,0,B|96:316|89:262,1,76.5000014591217,2|2,3:2|3:2,0:0:0:0:
91,279,13400,1,0,3:3:0:0:
91,279,13484,1,2,3:2:0:0:
206,367,13651,2,0,L|186:196,1,153.000002918243,2|0,3:2|3:3,0:0:0:0:
288,117,14154,5,2,3:2:0:0:
288,117,14238,1,0,0:0:0:0:
288,117,14322,1,0,3:3:0:0:
288,117,14406,1,0,3:3:0:0:
288,117,14489,2,0,B|330:162|336:222|279:283,1,153.000002918243,2|2,3:2|3:2,0:0:0:0:
195,131,14992,2,0,B|183:88|199:38,1,76.5000014591217,2|0,2:2|3:3,0:0:0:0:
84,168,15327,2,0,B|96:211|80:261,1,76.5000014591217,2|0,2:2|3:3,0:0:0:0:
217,314,15663,1,2,2:2:0:0:
291,353,15830,6,0,B|381:337|443:334,1,153.000002918243,2|2,3:2|3:2,0:0:0:0:
497,246,16333,1,2,3:2:0:0:
497,246,16417,1,0,0:0:0:0:
497,246,16500,2,0,L|407:226,1,76.5000014591217,2|0,3:2|3:3,0:0:0:0:
331,156,16836,2,0,L|407:136,1,76.5000014591217,0|0,3:3|1:1,0:0:0:0:
265,35,17171,6,0,B|202:-10|119:44|140:123,1,180,14|0,2:2|1:1,0:0:0:0:
180,258,17674,1,12,2:2:0:0:
116,324,17841,2,0,L|25:305,1,90,0|0,1:1|1:1,0:0:0:0:
248,182,18176,2,0,B|279:278,1,90,14|0,2:2|1:1,0:0:0:0:
349,357,18512,6,0,B|376:318|371:267,1,90,14|0,2:2|1:1,0:0:0:0:
290,85,18847,1,2,1:2:0:0:
383,149,19014,1,12,2:2:0:0:
290,85,19182,2,0,B|246:88|199:84,1,90,2|0,1:2|1:1,0:0:0:0:
438,17,19517,2,0,B|394:14|347:17,1,90,14|0,2:2|1:1,0:0:0:0:
148,143,19852,6,0,B|153:82|245:48|292:87,1,180,14|0,2:2|1:1,0:0:0:0:
159,229,20355,1,14,2:2:0:0:
270,310,20523,2,0,B|323:262|293:171|238:165,1,180,2|12,1:2|2:2,0:0:0:0:
352,155,21026,2,0,L|400:241,1,90,0|0,1:1|1:1,0:0:0:0:
200,254,21361,2,0,B|148:300|55:262|62:206,1,180,12|0,2:2|1:1,0:0:0:0:
201,102,21864,1,14,2:2:0:0:
146,190,22031,1,0,1:1:0:0:
288,302,22199,2,0,P|292:262|289:213,1,90,14|0,2:2|0:0,0:0:0:0:
148,189,22534,6,0,B|227:157|377:254|481:171,1,323.999990112305,6|0,1:2|0:0,0:0:0:0:
486,299,23707,1,0,3:3:0:0:
486,299,23791,1,0,3:3:0:0:
486,299,23875,2,0,B|414:307|349:338,1,135.000005149842,2|2,3:2|2:2,0:0:0:0:
414,221,24378,1,10,2:3:0:0:
232,112,24713,1,6,2:3:0:0:
255,33,24880,2,0,B|275:81|237:151|256:193,1,161.999995056153,6|6,2:3|1:2,0:0:0:0:
255,192,25551,5,8,3:2:0:0:
255,192,25718,2,0,B|106:173,1,144,0|0,3:3|3:3,0:0:0:0:
36,159,26221,1,10,3:2:0:0:
198,310,26556,2,0,B|234:276|303:292|321:346,1,144,8|8,3:2|3:2,0:0:0:0:
246,376,27059,2,0,B|254:309|245:218,1,144,0|0,3:3|3:3,0:0:0:0:
246,232,27562,1,10,3:2:0:0:
373,167,27730,1,2,1:2:0:0:
461,119,27897,6,0,B|453:186|462:277,1,144,10|10,1:2|3:2,0:0:0:0:
377,171,28400,1,2,3:2:0:0:
377,171,28735,2,0,B|348:120|277:118|237:165,1,144,2|2,3:2|3:2,0:0:0:0:
178,36,29238,2,0,B|185:92|136:131|89:117,1,144,8|8,3:2|3:2,0:0:0:0:
88,224,29741,1,0,1:1:0:0:
0,149,29908,2,0,L|160:142,1,144,8|10,3:2|3:2,0:0:0:0:
147,298,30411,1,2,1:2:0:0:
232,285,30579,6,0,L|401:295,1,144,10|8,1:2|3:2,0:0:0:0:
375,293,31082,1,0,3:3:0:0:
430,119,31417,1,0,3:3:0:0:
430,119,31584,2,0,B|483:131|513:201|476:257,1,144,10|8,3:2|3:2,0:0:0:0:
262,111,32255,1,8,3:2:0:0:
212,182,32422,2,0,B|172:211|108:193|96:134,1,144,0|0,3:3|1:1,0:0:0:0:
179,37,32925,2,0,B|183:87|174:131,1,72,10|2,3:2|1:2,0:0:0:0:
9,172,33260,6,0,B|5:122|14:78,1,72,10|0,1:2|3:3,0:0:0:0:
97,139,33595,1,10,3:2:0:0:
212,182,33763,2,0,B|257:217|322:203|358:150,1,144,2|2,3:2|3:2,0:0:0:0:
177,287,34266,1,8,3:2:0:0:
177,287,34601,6,0,B|175:343|178:374,1,72,8|2,3:2|3:2,0:0:0:0:
335,358,34936,2,0,B|337:343|335:287,1,72,10|2,3:2|1:2,0:0:0:0:
198,192,35271,1,10,3:2:0:0:
256,250,35439,1,2,1:2:0:0:
314,192,35607,1,10,3:2:0:0:
256,134,35774,2,0,B|209:137|169:152,1,72,2|10,3:2|1:2,0:0:0:0:
361,45,36277,5,8,3:2:0:0:
361,45,36445,2,0,B|431:17|481:62|481:112,1,144,0|0,3:3|3:3,0:0:0:0:
485,184,36947,2,0,L|411:164,1,72,10|2,3:2|3:2,0:0:0:0:
296,277,37283,2,0,B|328:311|408:296|419:255,1,144,8|8,1:2|3:2,0:0:0:0:
296,277,37785,1,0,3:3:0:0:
129,55,38288,1,10,3:2:0:0:
162,132,38455,1,2,3:2:0:0:
52,125,38623,6,0,B|53:206|64:286,1,144,10|10,1:2|3:2,0:0:0:0:
158,143,39126,2,0,B|157:62|146:-18,1,144,2|2,3:2|3:2,0:0:0:0:
307,268,39797,1,2,1:2:0:0:
307,268,39964,2,0,B|348:300|415:283|429:215,1,144,8|10,1:2|3:2,0:0:0:0:
256,192,40467,1,0,1:1:0:0:
325,130,40635,2,0,B|336:96|333:58,1,72,10|0,3:2|3:3,0:0:0:0:
178,58,40970,2,0,B|176:96|187:130,1,72,10|0,1:2|3:3,0:0:0:0:
205,268,41305,6,0,B|164:300|97:283|83:215,1,144,10|8,1:2|3:2,0:0:0:0:
0,103,41975,1,8,3:2:0:0:
96,82,42143,1,0,3:3:0:0:
0,103,42311,2,0,B|9:166|9:208,1,72,10|2,3:2|3:2,0:0:0:0:
197,63,42646,1,10,1:2:0:0:
197,63,42981,1,10,3:2:0:0:
297,103,43149,2,0,B|449:89,1,144,2|2,3:2|3:2,0:0:0:0:
246,234,43651,2,0,B|218:264|142:260|116:197,1,144,10|10,2:3|1:2,0:0:0:0:
263,324,44154,5,0,3:3:0:0:
330,272,44322,2,0,B|340:237|331:199,1,72,8|0,1:2|3:3,0:0:0:0:
426,303,44657,2,0,B|412:376,1,72,8|0,1:2|3:3,0:0:0:0:
412,373,44992,1,8,1:2:0:0:
509,172,45160,1,12,3:2:0:0:
509,172,45495,6,0,B|466:162|408:157,1,90,2|2,3:2|1:2,0:0:0:0:
298,207,45830,6,0,B|257:192|220:182,1,80.9999975280763,10|2,3:3|1:2,0:0:0:0:
115,210,46165,6,0,B|74:184|30:161,1,72,6|6,3:3|1:3,0:0:0:0:
53,173,46668,6,0,B|30:108|93:51|155:70,1,161.999995056153,6|0,1:2|1:1,0:0:0:0:
229,97,47171,1,0,3:3:0:0:
311,57,47338,2,0,B|355:57|404:42,1,80.9999975280763,0|0,1:1|3:3,0:0:0:0:
387,179,47674,2,0,B|349:165|299:158,1,80.9999975280763,2|2,1:2|3:2,0:0:0:0:
153,165,48009,2,0,B|141:242|161:346,1,161.999995056153,0|0,1:1|1:1,0:0:0:0:
312,321,48512,2,0,B|324:244|304:140,1,161.999995056153,0|0,3:3|3:3,0:0:0:0:
235,246,49014,1,2,1:2:0:0:
235,246,49182,1,2,3:2:0:0:
216,114,49350,5,2,1:2:0:0:
216,114,49685,1,2,1:2:0:0:
155,176,49852,2,0,B|114:175|82:147,1,80.9999975280763,2|0,3:2|1:1,0:0:0:0:
303,110,50188,2,0,B|324:74|364:60,1,80.9999975280763,2|0,3:2|1:1,0:0:0:0:
365,60,50523,1,2,3:2:0:0:
486,150,50690,2,0,B|445:113|363:132|351:209,1,161.999995056153,0|0,1:1|1:1,0:0:0:0:
284,321,51193,1,0,3:3:0:0:
379,359,51361,2,0,B|372:318|369:278,1,80.9999975280763,0|2,1:1|2:3,0:0:0:0:
203,378,51696,2,0,B|201:338|193:297,1,80.9999975280763,2|2,1:2|3:2,0:0:0:0:
279,172,52031,6,0,B|280:258|295:358,1,161.999995056153,2|2,1:2|1:2,0:0:0:0:
101,311,52534,2,0,B|85:254|128:190|213:204,1,161.999995056153,2|0,3:2|3:3,0:0:0:0:
193,297,53037,2,0,B|201:338|203:378,1,80.9999975280763,0|2,1:1|3:2,0:0:0:0:
313,272,53372,2,0,B|338:111,1,161.999995056153,2|2,1:2|1:2,0:0:0:0:
190,31,53875,1,0,3:3:0:0:
180,115,54042,2,0,B|222:114|255:87,1,80.9999975280763,2|0,1:2|3:3,0:0:0:0:
367,25,54378,2,0,B|367:68|345:101,1,80.9999975280763,2|0,1:2|3:3,0:0:0:0:
175,198,54713,5,2,1:2:0:0:
175,198,55048,1,2,1:2:0:0:
98,141,55216,2,0,B|55:139|6:133,1,80.9999975280763,2|0,3:2|1:1,0:0:0:0:
244,258,55551,2,0,B|333:265|420:281,1,161.999995056153,0|0,3:3|3:3,0:0:0:0:
491,293,56054,1,2,1:2:0:0:
491,293,56389,2,0,L|416:260,1,80.9999975280763,0|0,1:1|3:3,0:0:0:0:
374,347,56724,2,0,L|272:362,1,80.9999975280763,0|0,1:1|1:1,0:0:0:0:
220,127,57059,2,0,B|285:206|322:256,1,161.999995056153,10|6,3:2|1:2,0:0:0:0:
24,372,57730,5,10,3:2:0:0:
67,292,57897,2,0,B|88:208|63:98,1,180,2|0,1:2|1:1,0:0:0:0:
183,271,58400,2,0,L|159:358,1,90,10|2,3:2|2:2,0:0:0:0:
159,357,58735,1,2,1:3:0:0:
25,202,58903,2,0,B|58:168|106:169,1,90,8|10,2:2|3:3,0:0:0:0:
268,231,59238,2,0,B|302:297|390:294|431:244,1,180,2|0,1:2|1:1,0:0:0:0:
512,112,59741,2,0,L|356:136,1,135,10|0,3:2|0:0,0:0:0:0:
357,138,60076,5,2,1:2:0:0:
39,46,60411,1,10,3:2:0:0:
104,129,60579,2,0,L|152:45,1,90,2|0,1:2|3:3,0:0:0:0:
255,7,60914,1,0,1:1:0:0:
255,7,60998,1,0,1:1:0:0:
255,7,61082,2,0,L|226:201,1,180,8|10,3:2|3:2,0:0:0:0:
76,229,61584,1,0,1:1:0:0:
88,268,61668,1,0,1:1:0:0:
100,307,61752,1,10,3:2:0:0:
246,182,61919,2,0,B|351:169|414:255,1,180,2|2,1:2|1:2,0:0:0:0:
240,293,62422,2,0,B|273:323|322:325,1,90,8|2,3:2|1:2,0:0:0:0:
508,180,62757,5,10,3:2:0:0:
407,204,62925,1,2,1:2:0:0:
368,106,63093,1,2,1:2:0:0:
467,91,63260,5,10,2:2:0:0:
396,220,63428,1,2,1:2:0:0:
262,172,63595,1,2,1:2:0:0:
181,343,63763,1,10,3:2:0:0:
0,171,63931,6,0,B|26:180|46:205|46:205|100:197|174:242,1,180,6|10,1:2|1:3,0:0:0:0:
415,362,64433,1,10,1:3:0:0:
512,346,64769,5,10,2:2:0:0:
512,346,64852,1,8,2:3:0:0:
512,346,64936,1,0,1:1:0:0:
512,346,65020,1,0,1:1:0:0:
512,346,65104,2,0,B|526:298|500:233,1,90,10|0,2:2|0:0,0:0:0:0:
338,146,65439,6,0,B|310:91|367:16|429:27,1,180,6|10,1:2|3:2,0:0:0:0:
512,144,65942,2,0,B|457:136|395:102,1,90,2|0,1:2|3:3,0:0:0:0:
245,40,66277,2,0,B|243:88|247:133,1,90,2|8,1:2|3:2,0:0:0:0:
164,244,66612,1,2,3:2:0:0:
164,244,66696,1,0,3:3:0:0:
164,244,66780,2,0,B|139:63,1,180,0|10,1:1|3:2,0:0:0:0:
330,194,67283,2,0,L|353:15,1,180,0|0,1:1|1:1,0:0:0:0:
270,274,67785,2,0,B|269:323|301:358,1,90,10|0,3:2|3:3,0:0:0:0:
323,355,68037,1,0,3:3:0:0:
333,335,68121,6,0,B|331:254|232:224|170:273,1,180,2|10,1:2|3:2,0:0:0:0:
120,354,68623,2,0,B|66:310|12:302,1,90,2|0,1:2|3:3,0:0:0:0:
39,203,68959,2,0,B|104:178|138:135,1,90,2|8,1:2|3:2,0:0:0:0:
257,159,69294,1,2,3:2:0:0:
171,29,69461,2,0,L|184:117,1,85.4999977169037,0|0,1:1|1:1,0:0:0:0:
341,29,69797,2,0,L|327:117,1,85.4999977169037,8|0,3:2|1:1,0:0:0:0:
395,279,70132,2,0,L|378:175,1,99.0000030212403,2|0,3:2|1:1,0:0:0:0:
117,279,70467,2,0,L|133:175,1,99.0000030212403,10|0,3:2|3:3,0:0:0:0:
259,170,70802,6,0,B|291:258|271:352,1,180,6|10,1:2|3:2,0:0:0:0:
42,373,71305,2,0,B|10:285|30:191,1,180,2|0,1:2|1:1,0:0:0:0:
157,339,71808,2,0,P|149:291|145:250,1,90,8|2,3:2|3:2,0:0:0:0:
144,224,72059,1,0,3:3:0:0:
144,224,72143,1,2,1:2:0:0:
382,319,72478,1,10,3:2:0:0:
425,243,72646,2,0,B|472:238|512:259,1,90,2|0,1:2|3:3,0:0:0:0:
307,362,72981,2,0,B|251:350|222:298,1,90,2|8,1:2|3:2,0:0:0:0:
336,164,73316,5,2,3:2:0:0:
336,164,73400,1,0,3:3:0:0:
336,164,73484,2,0,B|404:162|444:98|411:32,1,180,0|10,1:1|3:2,0:0:0:0:
511,112,73987,2,0,L|491:212,1,90,2|0,1:2|3:3,0:0:0:0:
493,200,74322,1,2,1:2:0:0:
334,78,74489,2,0,B|219:65|174:52,1,135,10|0,3:2|3:3,0:0:0:0:
187,55,74825,5,0,1:1:0:0:
242,232,74992,1,0,3:3:0:0:
419,177,75160,1,10,3:2:0:0:
364,0,75327,1,2,1:3:0:0:
319,69,75663,5,0,1:1:0:0:
319,69,75746,1,0,1:1:0:0:
319,69,75830,2,0,B|327:140|339:194,1,90,10|0,3:2|3:3,0:0:0:0:
180,302,76165,6,0,B|143:331|46:281|4:317,1,180,6|10,1:2|3:2,0:0:0:0:
222,222,76668,2,0,B|252:240|307:248,1,90,2|0,1:2|3:3,0:0:0:0:
131,229,77003,2,0,B|119:184|118:141,1,90,2|8,1:2|3:2,0:0:0:0:
256,39,77338,1,2,3:2:0:0:
256,39,77422,1,0,3:3:0:0:
256,39,77506,1,0,1:1:0:0:
256,137,77674,1,0,1:1:0:0:
373,121,77841,2,0,L|388:16,1,90,10|0,3:2|1:1,0:0:0:0:
139,121,78176,2,0,L|124:15,1,90,2|0,3:2|1:1,0:0:0:0:
211,213,78512,2,0,B|260:234|314:208,1,99.0000030212403,10|0,3:2|3:3,0:0:0:0:
256,137,78847,6,0,B|252:226|259:332,1,180,2|10,1:2|3:2,0:0:0:0:
432,378,79350,2,0,B|436:272,1,90,2|0,1:2|3:3,0:0:0:0:
356,119,79685,1,2,1:2:0:0:
448,185,79852,1,8,3:2:0:0:
345,241,80020,1,2,3:2:0:0:
345,241,80104,1,0,3:3:0:0:
345,241,80188,2,0,B|298:287|212:265|194:209,1,180,0|8,1:1|3:2,0:0:0:0:
194,210,80690,1,0,1:1:0:0:
220,10,80858,2,0,B|226:73|242:118,1,107.999996704102,2|0,3:2|1:1,0:0:0:0:
23,166,81193,2,0,B|17:107|-2:56,1,107.999996704102,10|0,3:2|3:3,0:0:0:0:
85,0,81528,6,0,B|142:73|128:171,1,180,2|10,1:2|3:2,0:0:0:0:
302,266,82031,2,0,B|376:203|468:207,1,180,2|2,1:2|1:2,0:0:0:0:
278,111,82534,1,8,3:2:0:0:
228,187,82702,2,0,B|181:268|176:386,1,180,2|0,3:2|1:1,0:0:0:0:
82,302,83204,2,0,B|94:268|102:214,1,90,10|0,3:2|1:1,0:0:0:0:
296,268,83540,2,0,B|279:318|277:367,1,90,2|0,3:2|1:1,0:0:0:0:
191,284,83875,1,10,3:2:0:0:
383,224,84042,5,0,3:3:0:0:
383,224,84126,1,0,3:3:0:0:
383,224,84210,2,0,B|455:211|502:271|488:338,1,180,2|10,1:2|3:2,0:0:0:0:
296,268,84713,2,0,B|249:211|277:140|342:119,1,180,2|2,1:2|1:2,0:0:0:0:
439,54,85216,2,0,P|428:102|420:142,1,90,10|0,3:2|3:3,0:0:0:0:
297,50,85551,2,0,L|195:38,1,90,0|0,1:1|1:1,0:0:0:0:
124,181,85886,2,0,B|172:171|203:133,1,90,8|8,3:2|3:3,0:0:0:0:
0,295,86221,1,0,1:1:0:0:
28,147,86389,1,8,3:2:0:0:
28,177,86473,1,8,3:2:0:0:
33,207,86556,1,10,3:2:0:0:
47,233,86640,1,8,2:3:0:0:
69,253,86724,1,8,3:3:0:0:
96,266,86808,1,4,3:3:0:0:
126,272,86892,1,6,1:2:0:0:
126,272,87227,5,10,2:3:0:0:
324,204,87394,2,0,B|336:273|354:317,1,90,2|10,1:2|2:3,0:0:0:0:
185,168,87730,2,0,B|193:149|205:80,1,90,2|10,1:2|2:3,0:0:0:0:
289,12,88065,1,2,1:2:0:0:
289,12,88149,1,0,0:0:0:0:
289,12,88232,1,12,2:2:0:0:
205,80,88400,1,2,1:2:0:0:
340,124,88568,2,0,L|442:108,1,90,10|2,2:3|1:2,0:0:0:0:
155,253,88903,2,0,L|49:237,1,90,10|2,2:3|1:2,0:0:0:0:
385,284,89238,1,10,2:3:0:0:
256,369,89406,5,2,1:2:0:0:
256,369,89489,1,0,1:1:0:0:
256,369,89573,1,14,2:2:0:0:
155,253,89741,2,0,B|149:187|131:129,1,90,0|2,1:1|1:2,0:0:0:0:
256,369,90076,1,14,3:2:0:0:
361,253,90244,2,0,B|367:187|385:129,1,90,0|0,1:1|1:1,0:0:0:0:
256,12,90579,1,12,3:2:0:0:
263,199,90746,1,0,1:1:0:0:
263,199,90830,1,0,1:1:0:0:
263,199,90914,1,12,3:2:0:0:
362,94,92087,5,2,1:2:0:0:
362,94,92171,1,0,1:1:0:0:
362,94,92255,2,0,B|263:91|183:76,1,180,14|2,2:2|1:2,0:0:0:0:
150,290,92757,2,0,B|249:293|329:308,1,180,14|0,2:2|1:1,0:0:0:0:
301,182,93260,2,0,B|257:192|212:197,1,90,14|0,3:2|1:1,0:0:0:0:
15,239,93595,1,12,3:2:0:0:
15,239,93931,1,2,1:2:0:0:
150,333,94098,1,12,2:2:0:0:
225,384,94266,2,0,B|247:341|236:296,1,90,2|0,1:2|1:1,0:0:0:0:
98,163,94601,2,0,B|116:207|160:224,1,90,14|0,3:2|1:1,0:0:0:0:
334,158,94936,6,0,B|385:125|463:160|458:233,1,180,14|0,3:2|1:1,0:0:0:0:
314,74,95439,1,14,2:2:0:0:
254,213,95607,2,0,B|241:155|245:124,1,90,0|0,1:1|1:1,0:0:0:0:
376,234,95942,2,0,B|379:265|366:323,1,90,14|0,3:2|1:1,0:0:0:0:
191,355,96277,2,0,L|83:339,1,90,14|0,3:2|1:1,0:0:0:0:
23,204,96612,2,0,L|127:236,1,90,2|12,1:2|2:2,0:0:0:0:
321,355,96947,2,0,L|429:339,1,90,2|0,1:2|1:1,0:0:0:0:
489,204,97283,2,0,L|385:236,1,90,14|0,3:2|1:1,0:0:0:0:
256,293,97618,6,0,B|283:243|220:177|254:127,3,161.999995056153,14|0|0|2,2:2|1:1|1:1|1:3,0:0:0:0:
164,87,98791,1,2,3:2:0:0:
164,87,98875,1,2,3:2:0:0:
164,87,98959,2,0,B|119:96|74:98,1,80.9999975280763,2|2,1:3|3:2,0:0:0:0:
215,190,99294,2,0,B|170:181|125:179,1,80.9999975280763,2|2,1:3|3:2,0:0:0:0:
317,37,99629,2,0,B|272:46|227:48,1,80.9999975280763,2|2,1:3|3:2,0:0:0:0:
379,238,99964,2,0,B|334:229|289:227,1,80.9999975280763,2|2,1:3|3:2,0:0:0:0:
406,6,100299,5,14,1:2:0:0:
406,6,100635,2,0,B|421:98,1,80.9999975280763,8|8,1:3|3:3,0:0:0:0:
249,127,100970,2,0,B|235:47,1,80.9999975280763,8|8,1:3|3:3,0:0:0:0:
331,71,101305,1,8,1:3:0:0:
331,71,101473,1,8,3:3:0:0:
154,101,101640,5,10,1:3:0:0:
188,254,101808,1,8,3:3:0:0:
75,277,101975,1,8,1:3:0:0:
54,124,102143,1,8,3:3:0:0:
54,124,102227,1,8,3:3:0:0:
54,124,102311,1,8,1:3:0:0:
114,189,102478,2,0,L|157:181,2,40.4999987640381,8|0|4,3:3|3:3|3:3,0:0:0:0:
257,155,102813,5,6,3:3:0:0:
261,160,102897,1,2,3:2:0:0:
260,167,102981,1,6,1:1:0:0:
256,192,103065,12,0,108344,0:0:0:0:
