osu file format v14

[General]
AudioFilename: audio.mp3
AudioLeadIn: 0
PreviewTime: 64350
Countdown: 0
SampleSet: Soft
StackLeniency: 0.4
Mode: 0
LetterboxInBreaks: 0
WidescreenStoryboard: 0

[Editor]
DistanceSpacing: 0.3
BeatDivisor: 4
GridSize: 4
TimelineZoom: 1

[Metadata]
Title:Rinne
TitleUnicode:輪廻
Artist:Yamamoto Mineko
ArtistUnicode:山本美禰子
Creator:- Nilou -
Version:Afterglow
Source:さくら、もゆ。-as the Night's, Reincarnation-
Tags:vn video game pop jpop j-pop sakura moyu as the nights reincarnation galgame eroge visual novel opening short version favorite japanese op2 KoldNoodl Kanui supav fujinn Actiol Syndicate_ cjstmdals
BeatmapID:4367347
BeatmapSetID:2084942

[Difficulty]
HPDrainRate:5.5
CircleSize:4.2
OverallDifficulty:8.7
ApproachRate:9.2
SliderMultiplier:1.72
SliderTickRate:1

[Events]
//Background and Video events
0,0,"bg_Insane.jpg",0,0
Video,-1060,"video.avi"
//Break Periods
//Storyboard Layer 0 (Background)
//Storyboard Layer 1 (Fail)
//Storyboard Layer 2 (Pass)
//Storyboard Layer 3 (Foreground)
//Storyboard Layer 4 (Overlay)
//Storyboard Sound Samples

[TimingPoints]
1082,335.195530726257,4,2,1,40,1,0
1082,-166.666666666667,4,2,1,40,0,0
11808,-125,4,2,1,50,0,0
17003,-125,4,2,2,50,0,0
17171,-125,4,2,1,75,0,0
17674,-125,4,2,2,75,0,0
17841,-125,4,2,1,75,0,0
18176,-125,4,2,2,75,0,0
18344,-125,4,2,1,75,0,0
19014,-125,4,2,2,75,0,0
19182,-125,4,2,1,75,0,0
20355,-125,4,2,2,75,0,0
20523,-125,4,2,1,75,0,0
21361,-125,4,2,2,75,0,0
21528,-125,4,2,1,75,0,0
22199,-125,4,2,2,75,0,0
22534,-125,4,2,1,60,0,0
23875,-200,4,2,1,36,0,0
24042,-200,4,2,1,39,0,0
24210,-200,4,2,1,42,0,0
24377,-200,4,2,1,45,0,0
24713,-200,4,2,1,51,0,0
24880,-200,4,2,1,54,0,0
25047,-200,4,2,1,57,0,0
25216,-142.857142857143,4,2,3,60,0,0
40215,-142.857142857143,4,2,3,5,0,0
40299,-142.857142857143,4,2,3,60,0,0
40886,-142.857142857143,4,2,3,5,0,0
40970,-142.857142857143,4,2,3,60,0,0
41556,-142.857142857143,4,2,3,5,0,0
41640,-142.857142857143,4,2,3,60,0,0
43651,-142.857142857143,4,2,2,60,0,0
43987,-142.857142857143,4,2,3,60,0,0
45160,-142.857142857143,4,2,2,60,0,0
45830,-142.857142857143,4,2,1,60,0,0
45998,-142.857142857143,4,2,3,60,0,0
46668,-117.647058823529,4,2,1,60,0,0
47003,-117.647058823529,4,2,2,60,0,0
57394,-117.647058823529,4,2,1,65,0,0
58735,-117.647058823529,4,2,4,65,0,0
58903,-117.647058823529,4,2,1,65,0,0
59070,-117.647058823529,4,2,3,65,0,0
59238,-117.647058823529,4,2,1,65,0,0
60076,-117.647058823529,4,2,2,65,0,0
60579,-117.647058823529,4,2,1,65,0,0
61919,-100,4,2,1,65,0,0
62757,-100,4,2,1,70,0,0
63093,-100,4,2,2,70,0,0
63595,-100,4,2,1,70,0,0
63931,-100,4,2,4,75,0,0
64266,-100,4,2,5,75,0,0
64769,-100,4,2,1,75,0,0
64852,-100,4,2,3,75,0,0
64936,-100,4,2,1,75,0,0
65439,-86.9565217391304,4,2,1,85,0,1
65942,-86.9565217391304,4,2,2,85,0,1
70802,-86.9565217391304,4,2,1,85,0,1
71305,-86.9565217391304,4,2,2,85,0,1
75327,-86.9565217391304,4,2,6,85,0,1
75663,-86.9565217391304,4,2,2,85,0,1
75830,-125,4,2,2,85,0,1
76165,-86.9565217391304,4,2,1,85,0,1
76668,-86.9565217391304,4,2,2,85,0,1
86053,-86.9565217391304,4,2,1,85,0,1
86221,-86.9565217391304,4,2,2,85,0,1
86639,-86.9565217391304,4,2,1,85,0,1
86724,-86.9565217391304,4,2,3,85,0,1
86892,-86.9565217391304,4,2,1,85,0,1
87227,-86.9565217391304,4,2,4,85,0,1
87394,-86.9565217391304,4,2,2,85,0,1
87562,-86.9565217391304,4,2,6,85,0,1
87730,-86.9565217391304,4,2,2,85,0,1
87813,-86.9565217391304,4,2,6,85,0,1
88065,-86.9565217391304,4,2,2,85,0,1
88568,-86.9565217391304,4,2,4,85,0,1
88735,-86.9565217391304,4,2,2,85,0,1
88819,-86.9565217391304,4,2,6,85,0,1
89070,-86.9565217391304,4,2,2,85,0,1
89238,-86.9565217391304,4,2,4,85,0,1
89406,-86.9565217391304,4,2,2,85,0,1
89489,-86.9565217391304,4,2,1,85,0,1
89741,-86.9565217391304,4,2,2,85,0,1
90914,-166.666666666667,4,2,1,70,0,0
92255,-100,4,2,1,75,0,0
92590,-100,4,2,2,75,0,0
93093,-100,4,2,1,75,0,0
93260,-100,4,2,2,75,0,0
93427,-100,4,2,1,75,0,0
93931,-100,4,2,2,75,0,0
94433,-100,4,2,1,75,0,0
95271,-100,4,2,2,75,0,0
95774,-100,4,2,1,75,0,0
95942,-100,4,2,2,75,0,0
96109,-100,4,2,1,75,0,0
96612,-100,4,2,2,75,0,0
97114,-100,4,2,1,75,0,0
97450,-100,4,2,2,75,0,0
97618,-100,4,2,1,70,0,0
97953,-100,4,2,2,70,0,0
98623,-100,4,2,6,70,0,0
98959,-100,4,2,4,70,0,0
99126,-100,4,2,1,70,0,0
99294,-100,4,2,4,70,0,0
99461,-100,4,2,1,70,0,0
99629,-100,4,2,4,70,0,0
99796,-100,4,2,1,70,0,0
99964,-100,4,2,4,70,0,0
100131,-100,4,2,1,70,0,0
100299,-100,4,2,1,60,0,0
100635,-100,4,2,7,63,0,0
100802,-100,4,2,5,63,0,0
100970,-100,4,2,7,66,0,0
101137,-100,4,2,5,66,0,0
101305,-100,4,2,7,69,0,0
101472,-100,4,2,5,69,0,0
101640,-100,4,2,7,72,0,0
101808,-100,4,2,5,72,0,0
101975,-100,4,2,7,72,0,0
102143,-100,4,2,5,72,0,0
102311,-100,4,2,7,75,0,0
102478,-100,4,2,3,75,0,0
102981,-100,4,2,1,75,0,0

[Colours]
Combo1 : 207,207,207
Combo2 : 116,182,248
Combo3 : 198,214,255

[HitObjects]
223,367,1082,6,0,P|215:316|205:266,1,103.199996850586,2|2,2:0|2:0,2:0:0:0:
121,178,1584,2,0,P|130:202|136:228,1,51.599998425293,2|0,2:0|2:0,2:0:0:0:
242,196,1919,2,0,P|233:171|227:146,1,51.599998425293,2|2,2:0|2:0,2:0:0:0:
95,92,2255,6,0,P|55:123|4:119,1,103.199996850586,2|2,2:0|2:0,2:0:0:0:
34,44,2757,1,2,2:0:0:0:
141,3,2925,1,2,2:0:0:0:
141,3,3428,1,2,2:0:0:0:
267,79,3763,6,0,B|290:81|314:98|314:98|335:76|366:71,1,103.199996850586,2|2,2:0|2:0,2:0:0:0:
307,7,4266,1,2,2:0:0:0:
307,7,4601,1,2,2:0:0:0:
374,150,4936,1,2,2:0:0:0:
374,150,5104,6,0,L|427:162,2,51.599998425293,2|2|2,2:0|2:0|2:0,2:0:0:0:
300,181,5607,1,2,2:0:0:0:
393,293,5774,2,0,L|493:315,1,103.199996850586,2|2,2:0|2:0,2:0:0:0:
493,315,6445,5,2,2:0:0:0:
351,366,6780,1,2,2:0:0:0:
351,366,6947,1,2,2:0:0:0:
167,252,7450,1,2,2:0:0:0:
124,322,7785,6,0,P|84:352|34:346,1,103.199996850586,2|2,2:0|2:0,2:0:0:0:
94,219,8288,2,0,P|44:213|4:244,1,103.199996850586,0|2,2:0|2:0,2:0:0:0:
167,252,8791,2,0,P|200:257|229:264,1,51.599998425293,2|0,2:0|2:0,2:0:0:0:
338,304,9126,5,2,2:0:0:0:
458,182,9461,1,2,2:0:0:0:
458,182,9629,1,2,2:0:0:0:
379,31,9964,1,2,2:0:0:0:
182,157,10299,6,0,P|237:173|287:184,1,103.199996850586,2|2,2:0|2:0,2:0:0:0:
385,39,10970,2,0,P|335:24|285:12,1,103.199996850586,2|2,2:0|2:0,2:0:0:0:
203,36,11473,1,2,2:0:0:0:
203,36,11808,6,0,P|230:96|202:157,1,137.6,6|0,1:2|3:0,2:0:0:0:
132,109,12311,2,0,P|99:99|66:92,1,68.8,2|0,2:0|3:0,2:0:0:0:
97,186,12646,2,0,P|104:220|116:259,1,68.8,2|2,2:0|3:2,2:0:0:0:
48,382,12981,6,0,P|34:314|11:237,1,137.6,2|2,2:0|3:2,2:0:0:0:
20,216,13400,1,0,3:0:0:0:
20,216,13484,1,2,3:2:0:0:
113,252,13651,2,0,B|191:232|191:232|214:263|252:264,1,137.6,2|0,3:2|3:0,2:0:0:0:
315,151,14154,2,0,P|282:160|259:185,1,68.8,2|0,3:2|3:0,2:0:0:0:
229,353,14489,6,0,P|315:325|367:316,1,137.6,2|2,3:2|3:2,2:0:0:0:
450,306,14992,2,0,P|437:343|455:383,1,68.8,2|0,2:0|3:0,2:0:0:0:
512,235,15327,2,0,P|478:228|439:216,1,68.8,2|0,2:0|3:0,2:0:0:0:
348,141,15663,1,2,2:0:0:0:
293,258,15830,5,2,3:2:0:0:
220,216,15998,1,2,3:2:0:0:
228,217,16082,1,2,3:0:0:0:
223,223,16165,1,2,3:2:0:0:
337,145,16333,1,2,3:2:0:0:
267,107,16500,2,0,P|216:131|126:139,1,137.6,2|0,3:2|3:0,2:0:0:0:
21,104,17003,1,0,1:0:0:0:
124,41,17171,5,14,2:0:0:0:
103,130,17338,1,0,1:0:0:0:
81,218,17506,1,0,1:0:0:0:
178,354,17674,5,12,2:0:0:0:
70,216,17841,1,0,1:0:0:0:
0,291,18009,1,0,1:0:0:0:
167,202,18176,5,14,2:0:0:0:
72,384,18344,1,0,1:0:0:0:
231,253,18512,5,14,2:0:0:0:
354,319,18679,1,0,1:0:0:0:
354,319,18847,1,2,1:2:0:0:
512,220,19014,1,12,2:0:0:0:
473,376,19182,2,0,P|467:342|460:309,1,68.8,2|0,1:2|1:0,2:0:0:0:
291,132,19517,2,0,P|296:165|304:199,1,68.8,14|0,2:0|1:0,2:0:0:0:
512,104,19852,5,14,2:0:0:0:
423,82,20019,1,0,1:0:0:0:
335,60,20187,1,0,1:0:0:0:
381,236,20355,5,14,2:0:0:0:
304,199,20523,1,2,1:2:0:0:
231,253,20690,1,0,1:0:0:0:
144,125,20858,5,12,2:0:0:0:
312,290,21026,1,0,1:0:0:0:
146,356,21193,5,0,1:0:0:0:
87,285,21361,2,0,P|132:274|180:265,1,68.8,12|0,2:0|1:0,2:0:0:0:
214,72,21696,1,0,1:0:0:0:
128,57,21864,6,0,P|135:90|143:124,1,68.8,14|0,2:0|1:0,2:0:0:0:
405,66,22199,2,0,P|397:33|388:-4,1,68.8,14|0,2:0|2:0,2:0:0:0:
304,199,22534,5,6,1:2:0:0:
133,351,23707,1,0,3:0:0:0:
133,351,23791,1,0,3:0:0:0:
133,351,23875,6,0,P|85:362|-10:384,1,129,2|10,3:2|2:3,2:0:0:0:
7,380,24713,1,6,2:3:0:0:
32,303,24880,2,0,P|25:272|20:250,1,43,6|2,2:3|2:0,2:0:0:0:
52,163,25216,6,0,P|93:214|151:201,1,120.399996325684,6|8,1:2|3:2,2:0:0:0:
228,124,25718,1,0,3:0:0:0:
174,65,25886,2,0,P|182:36|195:-4,1,60.1999981628419,8|0,3:2|3:0,2:0:0:0:
233,132,26221,2,0,P|225:161|212:201,1,60.1999981628419,10|2,3:2|3:2,2:0:0:0:
322,34,26556,6,0,P|305:90|334:140,1,120.399996325684,8|8,3:2|3:2,2:0:0:0:
402,21,27059,2,0,P|431:71|414:127,1,120.399996325684,0|0,3:0|3:0,2:0:0:0:
334,140,27562,1,10,3:2:0:0:
442,249,27730,1,2,1:2:0:0:
501,196,27897,6,0,P|443:205|378:229,1,120.399996325684,10|10,1:2|3:2,2:0:0:0:
344,292,28400,2,0,P|364:326|371:355,1,60.1999981628419,2|8,3:2|3:2,2:0:0:0:
262,282,28735,2,0,P|241:247|234:218,1,60.1999981628419,2|8,3:2|3:2,2:0:0:0:
239,220,29070,1,2,3:2:0:0:
156,378,29238,6,0,B|182:371|205:344|205:344|233:366|263:367,1,120.399996325684,8|8,3:2|3:2,2:0:0:0:
132,302,29741,1,0,1:0:0:0:
53,322,29908,2,0,P|64:257|123:225,1,120.399996325684,8|10,3:2|3:2,2:0:0:0:
257,282,30411,1,2,1:2:0:0:
187,238,30579,6,0,P|200:174|227:106,1,120.399996325684,10|8,1:2|3:2,2:0:0:0:
123,96,31082,1,0,3:0:0:0:
87,170,31249,2,0,P|102:208|108:249,1,60.1999981628419,8|0,3:2|3:0,2:0:0:0:
127,89,31584,2,0,P|112:51|106:10,1,60.1999981628419,10|2,3:2|3:2,2:0:0:0:
320,81,31919,6,0,P|277:121|218:122,1,120.399996325684,8|8,3:2|3:2,2:0:0:0:
108,32,32422,2,0,P|125:77|141:162,1,120.399996325684,0|0,3:0|1:0,2:0:0:0:
91,211,32925,1,10,3:2:0:0:
184,279,33093,1,2,1:2:0:0:
60,382,33260,6,0,P|43:337|27:252,1,120.399996325684,10|10,1:2|3:2,2:0:0:0:
176,190,33763,2,0,P|214:205|255:211,1,60.1999981628419,2|8,3:2|3:2,2:0:0:0:
88,203,34098,2,0,P|50:188|9:182,1,60.1999981628419,2|8,3:2|3:2,2:0:0:0:
123,129,34433,1,2,3:2:0:0:
147,263,34601,6,0,P|194:217|264:230,1,120.399996325684,8|10,3:2|3:2,2:0:0:0:
374,337,35104,1,2,1:2:0:0:
446,303,35271,5,10,3:2:0:0:
457,300,35439,1,2,1:2:0:0:
306,376,35607,5,10,3:2:0:0:
295,373,35775,1,2,3:2:0:0:
233,333,35942,6,0,P|218:278|253:218,1,120.399996325684,10|8,1:2|3:2,2:0:0:0:
325,178,36445,1,0,3:0:0:0:
380,118,36612,2,0,P|369:79|366:49,1,60.1999981628419,8|0,3:2|3:0,2:0:0:0:
321,186,36947,2,0,P|332:225|335:255,1,60.1999981628419,10|2,3:2|3:2,2:0:0:0:
474,362,37283,6,0,P|454:293|449:240,1,120.399996325684,8|8,1:2|3:2,2:0:0:0:
386,381,37785,2,0,P|378:321|361:263,1,120.399996325684,0|0,3:0|3:0,2:0:0:0:
321,186,38288,1,10,3:2:0:0:
321,186,38456,1,2,3:2:0:0:
256,240,38623,6,0,P|213:237|186:205,1,60.1999981628419,10|0,1:2|3:0,2:0:0:0:
109,152,38959,1,10,3:2:0:0:
209,92,39126,2,0,P|196:124|189:163,1,60.1999981628419,2|8,3:2|3:2,2:0:0:0:
90,208,39461,2,0,P|103:176|110:137,1,60.1999981628419,2|8,3:2|3:2,2:0:0:0:
44,8,39797,1,2,1:2:0:0:
15,79,39964,6,0,P|59:86|108:48,1,90.2999972442628,8|0,1:2|2:0,2:0:0:0:
119,42,40299,2,0,P|151:55|190:62,1,60.1999981628419,10|0,3:2|1:0,2:0:0:0:
328,207,40635,2,0,P|272:188|226:182,1,90.2999972442628,10|0,3:2|2:0,2:0:0:0:
214,173,40970,2,0,P|227:141|234:102,1,60.1999981628419,10|0,1:2|3:0,2:0:0:0:
406,9,41305,6,0,P|432:37|496:42,1,90.2999972442628,10|0,1:2|2:0,2:0:0:0:
512,39,41640,1,8,3:2:0:0:
504,256,41975,1,8,3:2:0:0:
403,200,42143,1,0,3:0:0:0:
484,175,42311,1,10,3:2:0:0:
484,175,42478,1,2,3:2:0:0:
512,339,42646,6,0,P|465:361|385:373,1,120.399996325684,10|10,1:2|3:2,2:0:0:0:
309,329,43149,2,0,P|304:295|317:272,1,60.1999981628419,2|8,3:2|3:2,2:0:0:0:
394,288,43484,2,0,P|399:322|386:345,1,60.1999981628419,2|10,3:2|2:3,2:0:0:0:
249,384,43819,1,0,2:0:0:0:
203,318,43987,6,0,L|190:242,1,60.1999981628419,10|0,1:2|3:0,2:0:0:0:
319,265,44322,2,0,L|332:189,1,60.1999981628419,8|0,1:2|3:0,2:0:0:0:
176,146,44657,2,0,L|163:70,1,60.1999981628419,8|0,1:2|3:0,2:0:0:0:
351,7,44992,1,8,1:2:0:0:
300,64,45160,6,0,B|236:47|236:47|217:72|186:73,1,120.399996325684,12|2,3:2|3:2,2:0:0:0:
80,80,45663,1,2,1:2:0:0:
149,141,45830,1,10,3:0:0:0:
134,10,45998,1,2,1:2:0:0:
1,32,46165,1,6,3:0:0:0:
62,137,46333,2,0,P|70:104|81:72,1,60.1999981628419,6|2,1:3|3:2,2:0:0:0:
168,218,46668,6,0,P|151:268|137:349,1,109.650002091408,6|0,1:2|2:0,2:0:0:0:
207,363,47003,2,0,P|242:375|277:381,1,73.1000013942719,0|0,1:0|3:0,2:0:0:0:
70,291,47338,2,0,P|35:279|0:273,1,73.1000013942719,0|0,1:0|3:0,2:0:0:0:
168,218,47674,1,2,1:2:0:0:
139,323,47841,1,2,3:2:0:0:
292,228,48009,6,0,P|319:267|384:268,1,109.650002091408,0|0,1:0|2:0,2:0:0:0:
405,257,48344,1,0,1:0:0:0:
504,307,48512,2,0,P|511:351|481:390,1,73.1000013942719,0|0,3:0|1:0,2:0:0:0:
431,334,48847,1,0,3:0:0:0:
360,194,49014,2,0,P|353:150|383:111,1,73.1000013942719,2|2,1:2|3:2,2:0:0:0:
446,117,49350,6,0,P|378:93|287:80,1,146.200002788544,2|2,1:2|1:2,2:0:0:0:
181,0,49852,2,0,P|218:16|277:15,1,73.1000013942719,2|0,3:2|1:0,2:0:0:0:
160,96,50188,2,0,P|196:100|229:115,1,73.1000013942719,2|0,3:2|1:0,2:0:0:0:
229,115,50523,1,2,3:2:0:0:
105,205,50690,6,0,P|99:141|185:98,1,146.200002788544,0|0,1:0|1:0,2:0:0:0:
161,272,51193,2,0,P|111:286|74:302,1,73.1000013942719,0|0,3:0|1:0,2:0:0:0:
91,293,51528,1,2,2:3:0:0:
225,380,51696,2,0,P|236:336|220:300,1,73.1000013942719,2|2,1:2|3:2,2:0:0:0:
20,232,52031,6,0,P|92:250|179:278,1,146.200002788544,2|2,1:2|1:2,2:0:0:0:
216,217,52534,1,2,3:2:0:0:
313,366,52702,2,0,P|385:348|472:320,1,146.200002788544,0|0,1:0|1:0,2:0:0:0:
453,326,53204,1,2,3:2:0:0:
374,211,53372,6,0,P|360:172|374:128,1,73.1000013942719,2|0,1:2|3:0,2:0:0:0:
492,84,53707,1,2,1:2:0:0:
486,89,53875,1,0,3:0:0:0:
512,164,54042,2,0,P|499:198|490:233,1,73.1000013942719,2|0,1:2|3:0,2:0:0:0:
403,70,54378,2,0,P|415:35|424:1,1,73.1000013942719,2|0,1:2|3:0,2:0:0:0:
290,108,54713,6,0,P|232:105|220:195,1,146.200002788544,2|2,1:2|1:2,2:0:0:0:
275,228,55216,2,0,P|204:207|133:193,1,146.200002788544,2|0,3:2|3:0,2:0:0:0:
0,58,55718,2,0,P|34:70|70:76,1,73.1000013942719,0|0,1:0|3:0,2:0:0:0:
133,193,56054,6,0,P|116:244|102:329,1,109.650002091408,2|0,1:2|2:0,2:0:0:0:
109,329,56389,1,0,1:0:0:0:
31,262,56556,1,0,3:0:0:0:
141,189,56724,1,0,1:0:0:0:
186,361,56892,1,0,1:0:0:0:
104,319,57059,2,0,P|67:315|35:298,1,73.1000013942719,10|2,3:2|3:2,2:0:0:0:
294,275,57394,6,0,P|366:282|433:310,1,146.200002788544,6|10,1:2|3:2,2:0:0:0:
484,94,57897,2,0,P|411:87|344:59,1,146.200002788544,2|0,1:2|1:0,2:0:0:0:
495,105,58400,1,10,3:2:0:0:
390,184,58568,1,2,2:0:0:0:
244,0,58735,5,2,1:3:0:0:
311,140,58903,1,8,2:0:0:0:
321,138,58987,1,8,2:3:0:0:
331,136,59070,1,10,3:0:0:0:
99,155,59238,2,0,P|132:100|227:122,1,146.200002788544,2|0,1:2|1:0,2:0:0:0:
256,207,59741,2,0,P|243:241|238:277,1,73.1000013942719,10|2,3:2|2:0,2:0:0:0:
39,287,60076,6,0,P|61:228|66:134,1,146.200002788544,2|10,1:2|3:2,2:0:0:0:
258,190,60579,2,0,P|233:258|229:331,1,146.200002788544,2|0,1:2|1:0,2:0:0:0:
233,355,60998,1,0,1:0:0:0:
233,355,61082,1,8,3:2:0:0:
154,239,61249,1,2,2:0:0:0:
331,150,61417,5,10,3:2:0:0:
340,154,61500,1,0,2:0:0:0:
349,158,61584,1,0,1:0:0:0:
145,245,61752,1,10,3:2:0:0:
49,99,61919,2,0,P|41:57|61:20,1,86,2|0,1:2|3:0,2:0:0:0:
247,182,62255,2,0,P|188:162|151:156,1,86,2|8,1:2|3:2,2:0:0:0:
289,47,62590,1,2,1:2:0:0:
299,54,62674,1,0,1:0:0:0:
311,57,62757,5,10,3:2:0:0:
158,161,62925,1,2,1:2:0:0:
148,154,63093,1,2,1:2:0:0:
322,326,63260,5,10,2:0:0:0:
480,225,63428,1,2,1:2:0:0:
467,220,63595,1,2,1:2:0:0:
241,362,63763,5,10,3:2:0:0:
353,128,63931,1,6,1:2:0:0:
311,57,64266,5,10,1:3:0:0:
400,324,64433,1,10,1:3:0:0:
400,324,64769,1,10,2:0:0:0:
370,318,64852,1,8,2:3:0:0:
340,313,64936,1,0,1:0:0:0:
310,308,65020,1,0,1:0:0:0:
281,303,65104,1,10,2:0:0:0:
281,303,65439,6,0,P|250:350|161:348,1,148.350002829552,6|0,1:2|3:0,2:0:0:0:
145,326,65774,1,10,3:2:0:0:
220,214,65942,2,0,P|268:203|317:202,1,98.9000018863678,2|0,1:2|3:0,2:0:0:0:
98,117,66277,2,0,P|49:127|0:128,1,98.9000018863678,2|8,1:2|3:2,2:0:0:0:
0,128,66612,1,2,3:2:0:0:
146,34,66780,5,0,1:0:0:0:
210,222,66947,1,0,1:0:0:0:
366,52,67115,1,10,3:2:0:0:
368,40,67283,1,0,1:0:0:0:
457,28,67450,2,0,P|443:75|440:124,1,98.9000018863678,2|0,3:2|1:0,2:0:0:0:
284,0,67785,2,0,P|280:49|267:96,1,98.9000018863678,10|0,3:2|3:0,2:0:0:0:
317,339,68121,6,0,P|331:259|351:139,1,197.800003772736,2|10,1:2|3:2,2:0:0:0:
409,309,68623,2,0,P|456:322|505:325,1,98.9000018863678,2|0,1:2|3:0,2:0:0:0:
264,178,68959,2,0,P|216:164|167:161,1,98.9000018863678,2|8,1:2|3:2,2:0:0:0:
167,160,69294,1,2,3:2:0:0:
299,353,69461,6,0,P|316:292|220:314,1,197.800003772736,0|8,1:0|3:2,2:0:0:0:
59,375,69964,1,0,1:0:0:0:
0,314,70132,2,0,P|7:254|57:237,1,98.9000018863678,2|0,3:2|1:0,2:0:0:0:
229,312,70467,2,0,P|179:315|132:328,1,98.9000018863678,10|0,3:2|3:0,2:0:0:0:
132,327,70802,6,0,P|68:259|106:169,1,197.800003772736,6|10,1:2|3:2,2:0:0:0:
314,296,71305,2,0,P|383:305|421:246,1,148.350002829552,2|0,1:2|2:0,2:0:0:0:
423,215,71640,1,0,1:0:0:0:
286,112,71808,2,0,P|289:62|302:15,1,98.9000018863678,8|2,3:2|3:2,2:0:0:0:
252,208,72143,5,2,1:2:0:0:
95,138,72311,1,0,1:0:0:0:
291,104,72478,1,10,3:2:0:0:
76,255,72646,2,0,P|123:268|172:271,1,98.9000018863678,2|0,1:2|3:0,2:0:0:0:
333,212,72981,1,2,1:2:0:0:
184,65,73149,1,8,3:2:0:0:
507,33,73316,1,2,3:2:0:0:
501,40,73400,1,0,3:0:0:0:
495,47,73484,6,0,P|400:20|301:14,1,197.800003772736,0|10,1:0|3:2,2:0:0:0:
101,141,73987,2,0,P|53:154|4:156,1,98.9000018863678,2|0,1:2|3:0,2:0:0:0:
4,156,74322,1,2,1:2:0:0:
180,168,74489,2,0,P|215:202|242:243,1,98.9000018863678,10|0,3:2|3:0,2:0:0:0:
200,0,74825,6,0,P|178:43|166:91,1,98.9000018863678,0|0,1:0|3:0,2:0:0:0:
72,253,75160,1,10,3:2:0:0:
292,147,75327,1,2,1:3:0:0:
512,384,75663,1,0,1:0:0:0:
502,381,75746,1,0,1:0:0:0:
492,378,75830,2,0,P|455:343|406:351,1,103.2,10|0,3:2|3:0,2:0:0:0:
337,384,76165,6,0,P|291:332|334:247,1,148.350002829552,6|0,1:2|3:0,2:0:0:0:
334,239,76500,1,10,3:2:0:0:
231,117,76668,2,0,P|183:130|134:132,1,98.9000018863678,2|0,1:2|3:0,2:0:0:0:
341,245,77003,2,0,P|388:231|437:229,1,98.9000018863678,2|8,1:2|3:2,2:0:0:0:
437,229,77338,1,2,3:2:0:0:
277,185,77506,5,0,1:0:0:0:
155,324,77674,1,0,1:0:0:0:
0,243,77841,2,0,P|40:284|88:276,1,98.9000018863678,10|0,3:2|1:0,2:0:0:0:
307,369,78176,2,0,P|257:371|210:384,1,98.9000018863678,2|0,3:2|1:0,2:0:0:0:
178,152,78512,2,0,P|165:199|143:243,1,98.9000018863678,10|0,3:2|3:0,2:0:0:0:
143,243,78847,6,0,P|96:161|2:167,1,197.800003772736,2|10,1:2|3:2,2:0:0:0:
243,60,79350,2,0,P|194:58|147:45,1,98.9000018863678,2|0,1:2|3:0,2:0:0:0:
293,159,79685,1,2,1:2:0:0:
441,82,79852,2,0,P|475:40|455:-15,1,98.9000018863678,8|2,3:2|3:2,2:0:0:0:
316,10,80188,5,0,1:0:0:0:
299,166,80355,1,0,1:0:0:0:
494,191,80523,1,8,3:2:0:0:
434,79,80690,1,0,1:0:0:0:
400,242,80858,2,0,P|386:194|384:145,1,98.9000018863678,2|0,3:2|1:0,2:0:0:0:
308,384,81193,1,10,3:2:0:0:
488,371,81361,1,0,3:0:0:0:
495,364,81445,1,0,3:0:0:0:
501,357,81528,6,0,P|446:279|352:288,1,197.800003772736,2|10,1:2|3:2,2:0:0:0:
135,384,82031,2,0,P|132:334|119:287,1,98.9000018863678,2|0,1:2|3:0,2:0:0:0:
66,222,82366,1,2,1:2:0:0:
245,330,82534,1,8,3:2:0:0:
315,219,82702,1,2,3:2:0:0:
311,209,82785,1,0,3:0:0:0:
307,199,82869,5,0,1:0:0:0:
239,325,83037,1,0,1:0:0:0:
101,142,83204,2,0,P|53:128|4:126,1,98.9000018863678,10|0,3:2|1:0,2:0:0:0:
185,145,83540,2,0,P|197:193|220:237,1,98.9000018863678,2|0,3:2|1:0,2:0:0:0:
147,76,83875,2,0,P|182:41|208:0,1,98.9000018863678,10|0,3:2|3:0,2:0:0:0:
512,12,84210,6,0,P|452:64|391:48,1,148.350002829552,2|0,1:2|3:0,2:0:0:0:
366,28,84545,1,10,3:2:0:0:
477,141,84713,2,0,P|463:188|461:237,1,98.9000018863678,2|0,1:2|3:0,2:0:0:0:
461,237,85048,1,2,1:2:0:0:
327,109,85216,2,0,P|340:61|342:12,1,98.9000018863678,10|0,3:2|3:0,2:0:0:0:
239,157,85551,5,0,1:0:0:0:
376,194,85718,1,0,1:0:0:0:
333,383,85886,5,8,3:2:0:0:
248,285,86053,1,8,3:0:0:0:
386,166,86221,1,0,1:0:0:0:
169,263,86389,5,8,3:2:0:0:
159,260,86473,1,8,3:2:0:0:
149,257,86556,2,0,L|81:238,1,49.4500009431839,10|8,3:2|2:3,2:0:0:0:
301,219,86724,2,0,L|348:232,1,49.4500009431839,8|4,3:0|3:0,2:0:0:0:
222,377,86892,6,0,P|251:311|231:246,1,98.9000018863678,6|0,1:2|3:0,2:0:0:0:
140,44,87227,1,10,2:3:0:0:
297,139,87394,1,2,1:2:0:0:
89,238,87562,1,10,2:3:0:0:
177,146,87730,1,2,1:2:0:0:
181,154,87813,1,0,1:0:0:0:
185,162,87897,1,10,2:3:0:0:
135,37,88065,1,2,1:2:0:0:
371,83,88232,5,12,2:0:0:0:
313,240,88400,1,2,1:2:0:0:
420,260,88568,5,10,2:3:0:0:
269,90,88735,1,2,1:2:0:0:
259,93,88819,1,0,1:0:0:0:
249,96,88903,1,10,2:3:0:0:
512,193,89070,5,2,1:2:0:0:
351,347,89238,1,10,2:3:0:0:
233,223,89406,1,2,1:2:0:0:
223,221,89489,1,0,1:0:0:0:
213,219,89573,5,14,2:0:0:0:
237,14,89741,1,0,1:0:0:0:
48,96,89908,1,2,1:2:0:0:
334,227,90076,5,14,3:2:0:0:
175,110,90244,1,0,1:0:0:0:
153,306,90411,1,0,1:0:0:0:
182,102,90579,1,12,3:2:0:0:
10,355,90746,1,0,1:0:0:0:
5,363,90830,1,0,1:0:0:0:
0,371,90914,6,0,P|107:345|218:337,1,206.399993701172,12|2,3:2|3:2,2:0:0:0:
202,337,92255,6,0,P|188:296|205:258,1,86,14|2,2:0|1:2,2:0:0:0:
300,166,92590,1,2,1:2:0:0:
364,355,92757,2,0,P|380:316|367:276,1,86,14|0,2:0|1:0,2:0:0:0:
294,159,93093,1,0,1:0:0:0:
512,94,93260,2,0,P|470:104|427:107,1,86,14|0,3:2|1:0,2:0:0:0:
197,15,93595,6,0,P|239:5|282:2,1,86,12|0,3:2|1:0,2:0:0:0:
424,100,93931,1,2,1:2:0:0:
292,249,94098,1,12,2:0:0:0:
193,98,94266,6,0,P|202:139|206:182,1,86,2|0,1:2|1:0,2:0:0:0:
4,303,94601,1,14,3:2:0:0:
82,216,94769,1,0,1:0:0:0:
100,384,94936,6,0,P|91:343|87:300,1,86,14|0,3:2|1:0,2:0:0:0:
149,168,95271,1,0,1:0:0:0:
250,355,95439,2,0,P|246:312|236:270,1,86,14|0,2:0|1:0,2:0:0:0:
147,158,95774,1,0,1:0:0:0:
307,75,95942,1,14,3:2:0:0:
295,216,96109,1,0,1:0:0:0:
97,89,96277,6,0,P|79:36|105:-4,1,86,14|0,3:2|1:0,2:0:0:0:
218,190,96612,2,0,P|181:232|133:229,1,86,2|12,1:2|2:0,2:0:0:0:
235,42,96947,2,0,P|289:52|311:95,1,86,2|0,1:2|1:0,2:0:0:0:
369,286,97283,2,0,P|372:243|382:201,1,86,14|0,3:2|1:0,2:0:0:0:
469,54,97618,5,14,2:0:0:0:
469,54,97953,5,0,1:0:0:0:
469,54,98288,5,0,1:0:0:0:
469,54,98623,5,2,1:3:0:0:
469,54,98959,1,2,1:3:0:0:
414,111,99126,1,2,3:2:0:0:
447,179,99294,1,2,1:3:0:0:
406,243,99461,1,2,3:2:0:0:
432,278,99629,5,2,1:3:0:0:
401,309,99796,1,2,3:2:0:0:
419,346,99964,1,2,1:3:0:0:
397,381,100131,1,2,3:2:0:0:
512,209,100299,6,0,P|466:195|403:184,1,86,14|0,1:2|3:0,2:0:0:0:
177,91,100635,1,8,1:3:0:0:
147,246,100802,1,8,3:0:0:0:
349,116,100970,1,8,1:3:0:0:
163,80,101137,1,8,3:0:0:0:
303,306,101305,1,8,1:3:0:0:
342,100,101472,1,8,3:0:0:0:
209,321,101640,5,10,1:3:0:0:
269,35,101808,1,8,3:0:0:0:
392,215,101975,1,8,1:3:0:0:
91,155,102143,1,8,3:0:0:0:
60,150,102227,1,8,3:0:0:0:
30,143,102311,1,8,1:3:0:0:
147,246,102478,1,8,3:0:0:0:
165,242,102562,1,0,3:0:0:0:
181,237,102646,1,4,3:0:0:0:
276,150,102813,1,6,3:0:0:0:
267,147,102897,1,2,3:2:0:0:
256,144,102981,5,6,1:0:0:0:
256,192,103065,12,0,108344,2:0:0:0:
