osu file format v14

[General]
AudioFilename: audio.mp3
AudioLeadIn: 2000
PreviewTime: 39815
Countdown: 1
SampleSet: None
StackLeniency: 0.7
Mode: 0
LetterboxInBreaks: 0
WidescreenStoryboard: 0

[Editor]
Bookmarks: 1289,8868,17394,24973,40131,58131,67289
DistanceSpacing: 0.9
BeatDivisor: 3
GridSize: 4
TimelineZoom: 1.8

[Metadata]
Title:Pilgrimage
TitleUnicode:Pilgrimage
Artist:Yamamoto Mineko
ArtistUnicode:山本美禰子
Creator:rui
Version:Insane
Source:
Tags:トトリのアトリエ~アーランドの錬金術士2~
BeatmapID:1601085
BeatmapSetID:761406

[Difficulty]
HPDrainRate:6
CircleSize:4
OverallDifficulty:9
ApproachRate:8.7
SliderMultiplier:1.6
SliderTickRate:1

[Events]
//Background and Video events
0,0,"wp_02_1024.jpg",0,0
//Break Periods
//Storyboard Layer 0 (Background)
//Storyboard Layer 1 (Fail)
//Storyboard Layer 2 (Pass)
//Storyboard Layer 3 (Foreground)
//Storyboard Sound Samples

[TimingPoints]
658,315.789473684211,4,2,1,50,1,0
1289,-100,4,2,2,50,0,0
9500,-166.666666666667,4,2,1,30,0,0
17394,-125,4,2,2,40,0,0
20236,-100,4,2,2,40,0,0
20868,-125,4,2,2,40,0,0
23079,-125,4,2,2,50,0,0
23552,-100,4,2,2,50,0,0
24342,-100,4,2,2,52,0,0
24500,-100,4,2,2,54,0,0
24658,-100,4,2,2,56,0,0
24815,-100,4,2,2,58,0,0
24973,-100,4,2,1,60,0,0
38236,-83.3333333333333,4,2,1,62,0,0
38552,-66.6666666666667,4,2,1,64,0,0
38868,-52.6315789473684,4,2,1,66,0,0
39500,-100,4,2,1,70,0,0
39658,-100,4,2,1,60,0,1
40131,-90.9090909090909,4,2,1,60,0,1
46763,-90.9090909090909,4,2,1,62,0,1
47079,-90.9090909090909,4,2,1,64,0,1
47394,-90.9090909090909,4,2,1,66,0,1
47710,-90.9090909090909,4,2,1,70,0,1
51500,-90.9090909090909,4,2,1,65,0,1
57658,-90.9090909090909,4,2,1,67,0,1
58131,-90.9090909090909,4,2,1,70,0,1
58447,-90.9090909090909,4,2,1,50,0,1
59079,-100,4,2,2,50,0,0
66342,-100,4,2,1,40,0,0

[Colours]
Combo1 : 255,0,255
Combo2 : 128,255,255
Combo3 : 128,255,128
Combo4 : 0,128,255

[HitObjects]
200,48,658,5,8,0:3:0:0:
129,11,815,1,8,0:3:0:0:
57,47,973,1,8,0:3:0:0:
44,126,1131,1,8,0:3:0:0:
99,180,1289,6,0,B|214:240|223:185|333:233,1,240,4|0,0:0|0:0,0:0:0:0:
392,284,1921,2,0,L|472:268,1,80
420,164,2236,1,0,1:0:0:0:
420,164,2394,2,0,P|344:128|268:144,1,160,8|0,0:3|0:0,0:0:0:0:
110,113,2868,2,0,L|192:88,1,80
302,67,3184,6,0,P|289:105|271:141,1,80,2|0,0:0|0:0,0:0:0:0:
340,294,3500,2,0,P|314:264|292:230,1,80
125,214,3815,2,0,P|164:206|204:204,1,80
356,168,4131,1,0,1:0:0:0:
312,316,4289,1,8,0:3:0:0:
312,316,4368,1,0,0:0:0:0:
312,316,4447,2,0,P|300:280|292:232,1,80,8|0,0:3|0:0,0:0:0:0:
448,140,4763,2,0,P|456:84|460:16,1,120,8|0,0:3|0:0,0:0:0:0:
436,20,5079,6,0,B|439:79|448:136|448:136|432:184,1,160,4|0,0:3|0:0,0:0:0:0:
492,276,5552,1,0,0:0:0:0:
424,316,5710,1,0,0:0:0:0:
344,320,5868,1,0,0:0:0:0:
292,256,6026,6,0,P|232:252|184:288,1,120,0|0,1:0|0:0,0:0:0:0:
264,363,6342,2,0,P|297:313|290:253,1,120
106,208,6658,2,0,P|132:261|187:285,1,120,8|0,0:3|0:0,0:0:0:0:
291,255,6973,6,0,P|347:207|431:219,1,160,8|0,0:3|0:0,0:0:0:0:
192,164,7447,2,0,P|136:116|52:128,1,160,8|0,0:3|1:0,0:0:0:0:
104,208,7921,1,0,0:0:0:0:
184,264,8079,1,0,0:0:0:0:
184,264,8158,1,0,0:0:0:0:
184,264,8236,1,8,0:3:0:0:
272,224,8394,1,0,0:0:0:0:
284,128,8552,1,2,0:0:0:0:
287,100,8630,1,0,0:0:0:0:
290,72,8709,1,2,0:0:0:0:
294,44,8788,1,0,0:0:0:0:
297,16,8867,5,0,1:0:0:0:
297,16,9500,2,0,L|288:72,1,47.9999985351563
328,128,9815,6,0,P|292:212|316:308,1,191.999994140625
152,352,10763,2,0,P|188:268|164:172,1,191.999994140625
108,96,11710,1,0,0:0:0:0:
84,208,12026,2,0,B|194:316|225:167|352:264,1,287.999991210938
404,340,13289,5,0,0:0:0:0:
496,316,13447,1,0,0:0:0:0:
349,262,13605,2,0,P|304:248|248:240,1,95.9999970703126,2|0,0:0|0:0,0:0:0:0:
160,232,14079,1,0,0:0:0:0:
300,148,14236,2,0,P|264:144|224:132,1,71.9999978027344
172,72,14552,2,0,P|220:52|268:60,1,95.9999970703126,2|0,0:0|0:0,0:0:0:0:
372,200,15184,6,0,L|424:216,1,47.9999985351563,2|0,0:0|0:0,0:0:0:0:
372,284,15500,2,0,B|324:268|324:268|280:284|224:292,1,143.999995605469,2|0,0:0|0:0,0:0:0:0:
136,264,16131,1,2,0:0:0:0:
376,120,16447,1,2,0:0:0:0:
376,120,16605,2,0,P|388:176|392:244,1,119.999996337891,8|0,3:0|0:0,0:0:0:0:
384,252,17079,2,0,P|345:238|317:222,1,71.9999978027344,8|0,3:0|0:0,0:0:0:0:
288,136,17394,6,0,P|224:148|160:152,1,128,4|0,0:0|0:0,0:0:0:0:
34,136,17868,2,0,P|98:148|162:152,1,128,2|0,0:0|0:0,0:0:0:0:
228,48,18342,2,0,P|324:36|388:100,1,192,0|0,1:0|0:0,0:0:0:0:
426,147,18973,2,0,P|403:125|387:98,1,64,2|0,0:0|0:0,0:0:0:0:
288,136,19289,6,0,P|260:188|264:260,1,128,4|0,0:3|0:0,0:0:0:0:
364,216,19763,1,0,0:0:0:0:
276,339,19921,1,2,0:0:0:0:
131,292,20078,1,2,0:0:0:0:
131,140,20236,2,0,B|184:84|179:29|179:29|144:76|164:132|216:160,1,280,2|0,0:3|0:0,0:0:0:0:
296,212,20868,5,0,0:0:0:0:
420,244,21026,1,2,0:0:0:0:
331,89,21184,2,0,P|307:149|296:212,1,128,2|0,0:0|0:0,0:0:0:0:
260,334,21658,2,0,P|283:274|295:211,1,128,2|0,0:0|0:0,0:0:0:0:
236,104,22131,2,0,P|136:116|56:156,1,192,0|0,1:0|0:0,0:0:0:0:
36,244,22763,2,0,P|68:244|100:232,1,64,2|0,0:0|0:0,0:0:0:0:
216,184,23079,6,0,P|300:168|384:172,1,160,6|0,0:0|0:0,0:0:0:0:
504,160,23552,2,0,P|440:159|340:144,1,160,2|2,0:0|0:0,0:0:0:0:
180,40,24026,1,2,1:3:0:0:
180,40,24342,5,2,0:0:0:0:
224,184,24500,1,0,0:0:0:0:
324,16,24658,1,0,1:0:0:0:
224,184,24815,1,2,0:0:0:0:
48,272,24973,6,0,P|126:285|203:307,1,160,4|0,0:0|0:0,0:0:0:0:
371,215,25447,2,0,P|408:200|447:192,1,80,0|0,1:0|0:0,0:0:0:0:
447,192,25921,2,0,B|408:199|372:216|372:216|324:208,1,120,8|0,0:3|0:0,0:0:0:0:
292,200,26236,5,2,0:1:0:0:
107,139,26394,1,0,0:0:0:0:
221,297,26552,1,0,1:0:0:0:
221,102,26710,1,0,0:0:0:0:
107,259,26868,6,0,B|65:257|33:233|33:233|25:281|1:313,1,160,8|0,0:3|0:0,0:0:0:0:
107,139,27342,2,0,B|149:141|181:165|181:165|224:148|220:96,1,160,0|0,1:0|0:0,0:0:0:0:
236,12,27815,2,0,P|196:16|159:29,1,80,8|0,3:0|0:0,0:0:0:0:
20,116,28131,6,0,P|24:152|40:196,1,80,2|0,0:1|0:0,0:0:0:0:
492,268,28447,2,0,P|488:232|472:188,1,80,2|0,0:1|0:0,0:0:0:0:
356,52,28763,5,8,0:3:0:0:
304,112,28921,1,0,0:0:0:0:
272,184,29079,1,2,0:3:0:0:
272,184,29158,1,2,0:3:0:0:
272,184,29236,1,0,1:0:0:0:
178,60,29394,5,2,0:3:0:0:
215,129,29552,1,0,0:0:0:0:
272,184,29710,2,0,P|324:208|384:228,1,120,8|0,0:3|0:0,0:0:0:0:
392,252,30026,2,0,P|352:264|312:272,1,80,2|0,0:1|0:0,0:0:0:0:
100,224,30342,2,0,P|140:212|180:204,1,80,8|0,0:3|0:0,0:0:0:0:
352,120,30658,5,8,0:3:0:0:
444,96,30815,1,0,0:0:0:0:
328,40,30973,1,2,0:3:0:0:
208,84,31130,1,0,1:0:0:0:
52,36,31289,2,0,P|44:76|56:128,1,80,2|2,0:3|0:3,0:0:0:0:
72,136,31526,1,0,0:0:0:0:
84,168,31605,2,0,L|68:252,1,80,8|0,0:3|0:0,0:0:0:0:
164,76,31921,6,0,P|192:108|211:143,1,80,2|0,0:1|0:0,0:0:0:0:
250,366,32236,2,0,P|222:334|202:298,1,80,2|0,0:1|0:0,0:0:0:0:
210,140,32552,6,0,P|288:128|368:108,1,160,4|0,0:0|0:0,0:0:0:0:
236,224,33026,2,0,P|196:220|152:208,1,80,0|0,1:0|0:3,0:0:0:0:
157,209,33500,2,0,B|196:224|240:224|240:224|276:208,1,120,8|0,0:3|0:0,0:0:0:0:
308,192,33815,5,2,0:1:0:0:
339,1,33973,1,0,0:0:0:0:
200,135,34131,1,0,1:0:0:0:
393,108,34289,1,0,0:0:0:0:
221,17,34447,6,0,B|160:16|116:48|116:48|164:64,1,160,8|0,0:3|0:0,0:0:0:0:
328,164,34921,2,0,B|368:192|424:188|424:188|380:228,1,160,0|0,1:0|0:0,0:0:0:0:
272,92,35394,2,0,P|312:80|360:76,1,80,8|0,0:3|0:0,0:0:0:0:
473,190,35710,6,0,P|487:228|492:268,1,80,2|0,0:1|0:0,0:0:0:0:
38,193,36026,2,0,P|24:155|20:116,1,80,2|0,0:1|0:0,0:0:0:0:
196,36,36342,5,8,0:3:0:0:
272,60,36500,1,0,0:0:0:0:
344,96,36658,1,2,0:3:0:0:
344,96,36736,1,2,0:3:0:0:
344,96,36815,1,0,1:0:0:0:
231,209,36973,5,2,0:3:0:0:
283,148,37131,1,0,0:0:0:0:
344,96,37289,2,0,P|408:80|472:68,1,120,8|0,0:3|0:0,0:0:0:0:
492,96,37605,2,0,P|456:116|412:144,1,80,2|0,0:1|0:0,0:0:0:0:
251,247,37921,6,0,P|195:223|139:202,1,120,8|0,0:3|0:0,0:0:0:0:
139,201,38236,6,0,P|210:195|282:186,1,143.999995605469,8|0,0:3|0:0,0:0:0:0:
283,186,38552,6,0,P|200:151|115:119,1,180.000006866455
117,119,38868,6,0,P|230:109|344:88,1,227.999993911743
476,36,39184,5,4,0:0:0:0:
476,36,39500,5,2,0:0:0:0:
428,100,39658,1,2,0:0:0:0:
320,128,39815,1,2,0:0:0:0:
184,84,39973,1,2,0:0:0:0:
15,163,40131,6,0,P|68:268|184:224,1,264.000008056641,4|0,0:0|0:0,0:0:0:0:
264,108,40763,1,2,0:0:0:0:
328,232,40921,1,0,0:0:0:0:
320,36,41079,2,0,B|356:64|356:116|356:116|400:104|441:118,2,176.000005371094,0|0|0,1:0|0:0|0:0,0:0:0:0:
224,20,41868,1,0,0:0:0:0:
104,163,42026,1,0,0:0:0:0:
4,196,42184,1,8,0:3:0:0:
97,146,42342,1,2,0:0:0:0:
193,135,42500,1,0,0:0:0:0:
277,107,42658,6,0,P|325:166|331:239,1,132.00000402832,8|0,0:3|0:0,0:0:0:0:
329,248,42973,2,0,P|341:204|368:158,1,88.000002685547,2|0,0:1|0:0,0:0:0:0:
424,40,43289,1,0,0:0:0:0:
496,92,43447,1,0,0:0:0:0:
361,167,43605,2,0,L|268:180,1,88.000002685547,8|0,0:3|0:0,0:0:0:0:
101,144,43921,6,0,P|188:159|273:179,1,176.000005371094,4|0,0:0|0:0,0:0:0:0:
356,204,44394,1,0,0:0:0:0:
423,341,44552,1,2,0:0:0:0:
340,316,44710,1,0,0:0:0:0:
496,292,44868,2,0,L|504:196,1,88.000002685547,0|0,1:0|0:0,0:0:0:0:
480,113,45184,6,0,B|398:145|427:182|368:216|368:216|352:200,2,176.000005371094,0|0|2,0:0|0:0|0:3,0:0:0:0:
444,32,45973,1,2,0:3:0:0:
356,48,46131,1,0,0:0:0:0:
300,156,46289,1,0,1:0:0:0:
212,172,46447,1,2,0:3:0:0:
156,280,46605,1,0,0:0:0:0:
68,296,46763,6,0,P|128:324|156:276,1,132.00000402832,2|0,0:3|0:0,0:0:0:0:
211,174,47079,2,0,P|247:125|300:156,1,132.00000402832
356,48,47394,2,0,P|407:79|442:31,1,132.00000402832,8|0,0:3|0:0,0:0:0:0:
288,8,47710,6,0,B|264:60|264:120|376:124|376:224|300:224|300:156,1,264.000008056641,4|0,0:0|0:0,0:0:0:0:
200,84,48342,1,0,0:0:0:0:
116,176,48500,1,0,0:0:0:0:
216,244,48658,6,0,P|280:232|352:224,1,132.00000402832,0|0,1:0|0:0,0:0:0:0:
341,285,48973,6,0,P|279:262|216:244,1,132.00000402832
225,348,49289,6,0,P|281:314|340:284,1,132.00000402832
376,135,49605,6,0,P|245:151|115:176,1,264.000008056641,4|0,0:0|0:0,0:0:0:0:
32,152,50236,1,2,0:0:0:0:
88,64,50394,1,0,0:0:0:0:
232,12,50552,5,2,0:3:0:0:
248,16,50710,1,2,0:0:0:0:
364,60,50868,5,2,0:0:0:0:
168,108,51026,1,2,0:0:0:0:
332,160,51184,5,2,0:3:0:0:
136,28,51342,1,0,0:0:0:0:
76,152,51500,6,0,B|104:196|156:212|156:212|120:224|96:260,2,176.000005371094,4|0|0,0:0|0:0|0:0,0:0:0:0:
168,108,52289,1,0,0:0:0:0:
184,304,52447,6,0,P|228:300|272:288,1,88.000002685547,0|8,1:0|0:3,0:0:0:0:
388,198,52763,2,0,P|363:162|331:130,1,88.000002685547
195,73,53079,1,0,0:0:0:0:
156,172,53236,1,0,0:0:0:0:
316,44,53394,6,0,P|360:56|412:76,1,88.000002685547,8|0,0:3|0:0,0:0:0:0:
354,317,53710,2,0,P|321:350|278:385,1,88.000002685547,0|2,0:0|0:3,0:0:0:0:
97,214,54026,2,0,P|86:171|79:128,1,88.000002685547,2|0,0:3|0:0,0:0:0:0:
289,377,54342,6,0,P|322:348|354:317,1,88.000002685547,2|8,0:1|0:3,0:0:0:0:
79,128,54658,2,0,P|86:171|97:214,1,88.000002685547
399,70,54973,2,0,P|358:55|316:44,1,88.000002685547,8|0,0:3|0:0,0:0:0:0:
97,214,55289,6,0,P|224:168|352:148,1,264.000008056641,4|2,0:0|0:3,0:0:0:0:
488,180,55921,1,2,0:0:0:0:
448,44,56079,1,0,0:0:0:0:
350,279,56236,6,0,P|220:259|97:214,1,264.000008056641,4|0,0:0|0:0,0:0:0:0:
144,20,56868,2,0,P|156:64|172:120,1,88.000002685547,8|0,0:3|0:0,0:0:0:0:
296,264,57184,5,2,0:0:0:0:
368,312,57342,1,0,0:0:0:0:
444,268,57500,1,2,0:0:0:0:
228,208,57658,5,2,0:0:0:0:
144,224,57815,1,0,0:0:0:0:
116,300,57973,1,2,0:0:0:0:
480,188,58131,5,2,0:1:0:0:
480,188,58447,5,8,0:3:0:0:
376,96,58605,1,8,0:3:0:0:
376,96,58921,1,8,0:3:0:0:
293,263,59079,6,0,B|216:248|212:296|140:344|68:288,1,240,4|0,0:0|0:0,0:0:0:0:
0,216,59710,2,0,P|40:196|80:188,1,80
164,120,60026,1,0,1:0:0:0:
164,120,60184,2,0,P|240:132|320:152,1,160,8|0,3:0|0:0,0:0:0:0:
478,57,60658,2,0,L|400:72,1,80
260,88,60973,6,0,P|244:128|240:168,1,80,2|0,0:0|0:0,0:0:0:0:
340,300,61289,2,0,P|315:268|283:244,1,80
116,264,61605,2,0,P|155:258|192:243,1,80
332,164,61921,1,0,1:0:0:0:
300,336,62079,1,8,0:3:0:0:
300,336,62158,1,0,0:0:0:0:
300,336,62236,2,0,P|261:330|224:315,1,80,8|0,0:3|0:0,0:0:0:0:
260,120,62552,2,0,P|312:84|368:92,1,120,8|0,0:3|0:0,0:0:0:0:
372,68,62868,6,0,P|300:64|232:116,1,160,4|0,0:0|0:0,0:0:0:0:
184,216,63342,1,0,1:0:0:0:
244,272,63500,1,0,0:0:0:0:
320,248,63658,1,0,0:0:0:0:
260,196,63815,6,0,P|236:140|248:80,1,120,0|0,1:0|0:0,0:0:0:0:
364,150,64131,2,0,P|318:188|259:195,1,120
133,69,64447,2,0,P|191:59|245:82,1,120,8|0,0:3|0:0,0:0:0:0:
308,244,64763,6,0,P|386:258|454:216,1,160,8|0,0:3|0:0,0:0:0:0:
208,184,65236,2,0,P|129:169|61:211,1,160,0|0,1:0|0:0,0:0:0:0:
148,272,65710,5,0,2:0:0:0:
234,316,65868,1,0,2:0:0:0:
234,316,65947,1,0,2:0:0:0:
234,316,66026,1,0,2:0:0:0:
314,368,66184,1,0,1:0:0:0:
364,288,66342,1,2,2:0:0:0:
376,258,66420,1,2,2:0:0:0:
388,228,66499,1,2,2:0:0:0:
399,198,66578,1,2,2:0:0:0:
407,167,66657,5,0,2:0:0:0:
256,192,67289,12,0,70763,0:0:0:0:
