osu file format v14

[General]
AudioFilename: audio.mp3
AudioLeadIn: 0
PreviewTime: 40920
Countdown: 0
SampleSet: Soft
StackLeniency: 0.7
Mode: 2
LetterboxInBreaks: 0
WidescreenStoryboard: 0

[Editor]
Bookmarks: 17241
DistanceSpacing: 1.3
BeatDivisor: 6
GridSize: 8
TimelineZoom: 3.199999

[Metadata]
Title:Falling, The Star Light
TitleUnicode:Falling, The Star Light
Artist:Yamamoto Mineko
ArtistUnicode:山本美禰子
Creator:-Hex-
Version:Platter
Source:ロロナのアトリエ ~アーランドの錬金術士~
Tags:Rorona no Atelier: Arland no Renkinjutsushi 中河健 game opening Atelier Rorona: The Alchemist of Arland gust Uta fluffy hair
BeatmapID:1618377
BeatmapSetID:769685

[Difficulty]
HPDrainRate:5
CircleSize:3.5
OverallDifficulty:8
ApproachRate:8
SliderMultiplier:1.6
SliderTickRate:2

[Events]
//Background and Video events
0,0,"12.jpg",0,0
//Break Periods
//Storyboard Layer 0 (Background)
//Storyboard Layer 1 (Fail)
//Storyboard Layer 2 (Pass)
//Storyboard Layer 3 (Foreground)
//Storyboard Sound Samples

[TimingPoints]
640,337.078651685393,3,2,1,38,1,0
640,-100,3,2,1,38,0,0
1904,-100,3,2,1,5,0,0
1988,-100,3,2,1,38,0,0
2241,-100,3,2,1,5,0,0
2325,-100,3,2,1,38,0,0
2578,-100,3,2,1,5,0,0
2662,-100,3,2,1,38,0,0
3926,-100,3,2,1,5,0,0
4010,-100,3,2,1,38,0,0
4263,-100,3,2,1,5,0,0
4347,-100,3,2,1,38,0,0
4600,-100,3,2,1,5,0,0
4684,-100,3,2,1,38,0,0
6707,-100,3,2,1,30,0,0
7718,-100,3,2,1,20,0,0
8055,375,3,2,1,38,1,0
8242,344.827586206896,3,2,1,38,1,0
8414,315.789473684211,3,2,1,38,1,0
8729,337.078651685393,3,2,1,38,1,0
8729,-100,3,2,4,30,0,0
9066,-100,3,2,3,30,0,0
17831,-100,3,2,1,30,0,0
18842,-100,3,2,1,40,0,0
19853,-100,3,2,1,30,0,0
20022,-100,3,2,1,10,0,0
20864,-100,3,2,1,50,0,0
27859,-100,3,2,1,20,0,0
27943,-100,3,2,1,60,0,0
30977,-100,3,2,5,68,0,0
38055,-100,3,2,1,60,0,0
38392,-100,3,2,1,60,0,0
38729,-100,3,2,1,60,0,0
39066,-100,3,2,1,30,0,0
40078,-100,3,2,1,20,0,0
41088,-100,3,2,1,70,0,1
46398,-100,3,2,1,5,0,1
46482,-100,3,2,1,70,0,1
46735,-100,3,2,1,5,0,1
46819,-100,3,2,1,70,0,1
57268,-100,3,2,1,60,0,0
59797,-100,3,2,1,10,0,0

[Colours]
Combo1 : 255,0,0
Combo2 : 255,151,151
Combo3 : 10,120,255
Combo4 : 178,178,178

[HitObjects]
264,224,640,6,0,L|440:224,1,160,2|0,0:0|0:0,0:0:0:0:
328,184,1145,2,0,L|152:184,1,160,2|0,0:0|0:0,0:0:0:0:
360,112,1651,2,0,L|512:176,2,160,2|2|2,0:0|0:0|0:0,0:0:0:0:
32,96,2662,6,0,L|48:264,1,160,2|0,0:0|0:0,0:0:0:0:
144,176,3168,2,0,L|320:176,1,160,2|0,0:0|0:0,0:0:0:0:
496,120,3673,2,0,L|336:120,2,160,2|2|2,0:0|0:0|0:0,0:0:0:0:
160,184,4684,6,0,L|320:184,1,160,2|0,0:0|0:0,0:0:0:0:
224,144,5190,2,0,P|200:240|256:264,1,160,2|0,0:0|0:0,0:0:0:0:
432,168,5696,2,0,L|272:168,2,160,2|2|2,0:0|0:0|0:0,0:0:0:0:
88,272,6707,6,0,P|56:112|248:64,1,400,0|0,0:0|0:0,0:0:0:0:
496,160,7718,1,0,0:0:0:0:
200,104,8729,6,0,L|40:104,1,160,2|0,0:0|0:0,0:0:0:0:
136,168,9235,1,2,0:0:0:0:
232,112,9404,2,0,L|136:112,1,80,0|0,0:0|0:0,0:0:0:0:
328,200,9741,6,0,L|496:200,2,160,2|0|2,0:0|0:0|0:0,0:0:0:0:
24,64,10752,2,0,L|56:224,1,160,2|0,0:0|0:0,0:0:0:0:
152,208,11257,1,2,0:0:0:0:
248,208,11426,2,0,L|336:208,1,80,0|0,0:0|0:0,0:0:0:0:
152,128,11763,6,0,P|112:208|168:224,1,160,2|0,0:0|0:0,0:0:0:0:
296,232,12269,2,0,L|392:232,2,80,2|2|0,0:0|0:0|0:0,0:0:0:0:
64,144,12774,6,0,P|32:64|96:48,1,160,2|0,0:0|0:0,0:0:0:0:
184,48,13280,1,2,0:0:0:0:
96,48,13448,1,2,0:0:0:0:
8,48,13617,1,0,0:0:0:0:
280,144,13786,6,0,P|328:208|264:240,1,160,2|0,0:0|0:0,0:0:0:0:
176,240,14291,1,2,0:0:0:0:
264,240,14460,1,2,0:0:0:0:
352,240,14628,1,0,0:0:0:0:
176,152,14797,6,0,L|336:152,2,160,2|2|2,0:0|0:0|0:0,0:0:0:0:
448,48,15808,2,0,L|264:48,1,160,2|0,0:0|0:0,0:0:0:0:
400,120,16314,2,0,L|496:152,2,80,0|0|0,0:0|0:0|0:0,0:0:0:0:
136,224,16819,6,0,P|24:144|152:96,1,320,2|0,0:0|0:0,0:0:0:0:
464,168,17831,1,2,0:0:0:0:
80,144,18842,6,0,L|248:144,2,160,2|2|2,0:0|0:0|0:0,0:0:0:0:
384,200,19853,1,2,0:0:0:0:
16,128,20864,6,0,L|200:128,1,160,2|0,0:0|0:0,0:0:0:0:
72,200,21370,1,2,0:0:0:0:
232,224,21538,2,0,L|240:136,1,80,2|0,0:0|0:0,0:0:0:0:
72,88,21875,2,0,L|240:88,2,160,2|2|2,0:0|0:0|0:0,0:0:0:0:
480,208,22887,5,4,0:0:0:0:
256,192,23055,12,0,26426,0:0:0:0:
160,192,26763,5,0,0:0:0:0:
344,296,26932,2,0,P|416:240|224:128,1,400,2|0,0:0|0:0,0:0:0:0:
152,152,27942,2,0,B|104:216|104:216|184:232|184:232|128:304|128:304,1,240,2|0,0:0|0:0,0:0:0:0:
40,280,28617,6,0,P|32:216|120:184,1,160,2|0,0:0|0:0,0:0:0:0:
200,176,29122,2,0,P|272:120|232:64,1,160,2|0,0:0|0:0,0:0:0:0:
192,40,29515,1,0,0:0:0:0:
136,72,29571,1,0,0:0:0:0:
80,64,29628,2,0,P|16:120|64:160,1,160,2|0,0:0|0:0,0:0:0:0:
176,232,30134,5,0,0:0:0:0:
264,184,30302,2,0,L|280:96,1,80,2|0,0:0|0:0,0:0:0:0:
184,96,30639,1,2,0:0:0:0:
152,160,30724,1,0,0:0:0:0:
120,216,30808,1,0,0:0:0:0:
368,192,30977,6,0,P|480:160|536:136,1,160,8|0,3:0|0:0,0:0:0:0:
360,104,31482,2,0,P|264:120|200:152,1,160,8|0,0:0|0:0,0:0:0:0:
392,192,31988,1,8,0:3:0:0:
120,128,32325,1,8,0:0:0:0:
232,56,32493,2,0,L|128:56,2,80,4|8|2,0:3|0:0|0:0,0:0:0:0:
480,72,32999,6,0,P|496:160|432:176,1,160,8|0,0:3|0:0,0:0:0:0:
280,184,33505,2,0,L|104:184,1,160,8|0,0:0|0:0,0:0:0:0:
296,112,34010,1,8,0:3:0:0:
96,208,34347,1,8,0:0:0:0:
184,136,34516,1,4,0:3:0:0:
184,136,34684,1,8,0:0:0:0:
96,208,34853,1,2,0:0:0:0:
368,200,35022,6,0,P|408:144|336:104,1,160,8|0,0:3|0:0,0:0:0:0:
184,112,35527,2,0,L|368:112,1,160,8|0,0:0|0:0,0:0:0:0:
168,192,36033,2,0,L|152:288,1,80,8|0,0:3|0:0,0:0:0:0:
248,256,36370,1,8,0:0:0:0:
424,184,36538,2,0,L|336:184,2,80,4|8|2,0:3|0:0|0:0,0:0:0:0:
168,192,37044,6,0,L|16:112,2,160,8|0|0,0:3|0:0|0:0,0:0:0:0:
496,120,38055,2,0,L|312:120,2,160,8|8|8,0:3|0:3|0:3,0:0:0:0:
64,248,39066,6,0,P|0:136|256:80,1,480,2|0,0:0|0:0,0:0:0:0:
128,184,41088,6,0,L|304:184,1,160,4|8,0:0|0:0,0:0:0:0:
192,120,41595,1,0,0:0:0:0:
360,152,41763,2,0,L|368:248,1,80,8|0,0:0|0:0,0:0:0:0:
192,192,42100,2,0,L|352:192,2,160,0|0|8,1:0|1:0|0:0,0:0:0:0:
488,104,43111,6,0,L|312:104,2,160,0|8|8,1:0|0:0|0:0,0:0:0:0:
160,224,44123,2,0,P|80:80|176:72,1,320,0|8,1:0|0:0,0:0:0:0:
264,80,44965,1,2,0:0:0:0:
448,184,45134,6,0,P|448:272|368:280,1,160,0|0,1:0|0:0,0:0:0:0:
272,296,45639,1,8,0:0:0:0:
432,232,45808,2,0,L|528:232,1,80,8|8,0:0|0:0,0:0:0:0:
336,192,46145,2,0,P|248:168|200:112,1,160,8|8,0:0|0:0,0:0:0:0:
448,112,46819,1,0,1:0:0:0:
48,216,47156,6,0,P|24:128|64:72,1,160,0|8,1:0|0:0,0:0:0:0:
216,152,47662,2,0,L|304:152,2,80,0|8|0,0:0|0:0|0:0,0:0:0:0:
48,184,48168,6,0,L|56:80,1,80,8|8,0:3|0:3,0:0:0:0:
200,80,48505,1,4,0:3:0:0:
104,128,48673,1,8,0:0:0:0:
256,144,48842,2,0,L|264:248,1,80,4|8,0:3|0:0,0:0:0:0:
32,168,49179,6,0,P|40:80|128:80,1,160,4|0,0:0|0:0,0:0:0:0:
200,112,49684,1,8,0:0:0:0:
56,200,49853,1,8,0:0:0:0:
344,144,50190,6,0,L|160:144,1,160,0|0,1:0|1:0,0:0:0:0:
80,200,50696,1,0,0:0:0:0:
256,168,50864,2,0,L|264:256,1,80,2|0,0:0|0:0,0:0:0:0:
32,192,51201,6,0,P|40:112|128:112,1,160,0|8,1:0|0:0,0:0:0:0:
216,160,51707,1,8,0:0:0:0:
136,104,51875,1,8,0:0:0:0:
56,48,52044,1,8,0:0:0:0:
288,88,52213,6,0,B|360:88|360:88|272:88|272:88,1,160,8|8,0:0|0:0,0:0:0:0:
160,176,52718,1,0,0:0:0:0:
328,136,52887,2,0,L|432:136,1,80,0|4,1:0|0:3,0:0:0:0:
160,240,53224,6,0,P|120:168|184:136,1,160,0|0,1:0|0:0,0:0:0:0:
272,128,53729,1,2,0:0:0:0:
360,56,53898,1,2,0:0:0:0:
272,128,54066,1,0,0:0:0:0:
40,176,54235,6,0,P|72:112|168:120,1,160,0|8,1:0|0:0,0:0:0:0:
256,144,54741,1,0,0:0:0:0:
96,224,54909,1,8,0:0:0:0:
344,216,55246,6,0,L|360:112,1,80,0|0,1:0|0:0,0:0:0:0:
200,128,55583,1,8,0:3:0:0:
112,80,55752,1,4,0:3:0:0:
24,32,55920,1,8,0:3:0:0:
112,80,56089,1,4,0:3:0:0:
272,184,56257,6,0,L|368:184,1,80,0|0,1:0|0:0,0:0:0:0:
192,120,56595,1,8,0:0:0:0:
288,72,56763,1,0,0:0:0:0:
136,48,56932,2,0,L|40:48,1,80,8|0,0:0|0:0,0:0:0:0:
352,208,57268,5,4,0:0:0:0:
256,192,57437,12,0,59797,0:0:0:0:
