osu file format v14

[General]
AudioFilename: audio.mp3
AudioLeadIn: 0
PreviewTime: 40920
Countdown: 0
SampleSet: Soft
StackLeniency: 0.7
Mode: 2
LetterboxInBreaks: 0
WidescreenStoryboard: 0

[Editor]
DistanceSpacing: 1.3
BeatDivisor: 6
GridSize: 8
TimelineZoom: 4.899998

[Metadata]
Title:Falling, The Star Light
TitleUnicode:Falling, The Star Light
Artist:Yamamoto Mineko
ArtistUnicode:山本美禰子
Creator:-Hex-
Version:Hoshi
Source:ロロナのアトリエ ~アーランドの錬金術士~
Tags:Rorona no Atelier: Arland no Renkinjutsushi 中河健 game opening Atelier Rorona: The Alchemist of Arland gust Uta fluffy hair
BeatmapID:1618357
BeatmapSetID:769685

[Difficulty]
HPDrainRate:6
CircleSize:4
OverallDifficulty:8.8
ApproachRate:8.8
SliderMultiplier:1.92
SliderTickRate:2

[Events]
//Background and Video events
0,0,"12.jpg",0,0
//Break Periods
//Storyboard Layer 0 (Background)
//Storyboard Layer 1 (Fail)
//Storyboard Layer 2 (Pass)
//Storyboard Layer 3 (Foreground)
//Storyboard Sound Samples

[TimingPoints]
640,337.078651685393,3,2,1,38,1,0
640,-100,3,2,1,38,0,0
1904,-100,3,2,1,5,0,0
1988,-100,3,2,1,38,0,0
2241,-100,3,2,1,5,0,0
2325,-100,3,2,1,38,0,0
2578,-100,3,2,1,5,0,0
2662,-100,3,2,1,38,0,0
3926,-100,3,2,1,5,0,0
4010,-100,3,2,1,38,0,0
4263,-100,3,2,1,5,0,0
4347,-100,3,2,1,38,0,0
4600,-100,3,2,1,5,0,0
4684,-100,3,2,1,38,0,0
6707,-100,3,2,1,30,0,0
7718,-100,3,2,1,20,0,0
8055,375,3,2,1,28,1,0
8242,344.827586206896,3,2,1,28,1,0
8414,315.789473684211,3,2,1,28,1,0
8729,337.078651685393,3,2,1,28,1,0
8729,-100,3,2,4,30,0,0
9066,-100,3,2,3,30,0,0
17831,-100,3,2,1,30,0,0
18842,-100,3,2,1,40,0,0
19853,-100,3,2,1,30,0,0
20022,-100,3,2,1,10,0,0
20864,-100,3,2,1,50,0,0
27859,-100,3,2,1,20,0,0
27943,-100,3,2,1,60,0,0
30977,-100,3,2,5,68,0,0
38055,-100,3,2,1,60,0,0
38392,-100,3,2,1,60,0,0
38729,-100,3,2,1,60,0,0
39066,-100,3,2,1,30,0,0
40078,-100,3,2,1,20,0,0
41088,-100,3,2,1,70,0,1
46398,-100,3,2,1,5,0,1
46482,-100,3,2,1,70,0,1
46735,-100,3,2,1,5,0,1
46819,-100,3,2,1,70,0,1
57268,-100,3,2,1,60,0,0
59797,-100,3,2,1,10,0,0

[Colours]
Combo1 : 255,0,0
Combo2 : 255,151,151
Combo3 : 10,120,255
Combo4 : 178,178,178

[HitObjects]
152,248,640,6,0,L|136:136,1,96,2|0,0:0|0:0,0:0:0:0:
232,160,977,1,0,0:0:0:0:
416,88,1145,2,0,P|472:144|392:192,1,192,2|0,0:0|0:0,0:0:0:0:
240,208,1651,6,0,L|224:312,1,96,2|0,0:0|0:0,0:0:0:0:
384,144,1988,2,0,L|280:144,1,96,2|0,0:0|0:0,0:0:0:0:
432,208,2325,2,0,L|440:320,1,96,2|0,0:0|0:0,0:0:0:0:
272,136,2662,6,0,L|152:136,1,96,2|0,0:0|0:0,0:0:0:0:
272,208,2999,1,0,0:0:0:0:
80,80,3168,2,0,P|40:176|104:168,1,192,2|0,0:0|0:0,0:0:0:0:
224,176,3673,6,0,L|336:176,1,96,2|0,0:0|0:0,0:0:0:0:
168,128,4010,2,0,L|144:240,1,96,2|0,0:0|0:0,0:0:0:0:
304,120,4347,2,0,L|400:120,1,96,2|0,0:0|0:0,0:0:0:0:
216,208,4684,6,0,L|120:208,1,96,2|0,0:0|0:0,0:0:0:0:
224,136,5022,1,0,0:0:0:0:
48,64,5190,2,0,L|240:64,1,192,2|0,0:0|0:0,0:0:0:0:
80,144,5696,6,0,L|184:144,1,96,2|0,0:0|0:0,0:0:0:0:
328,208,6033,2,0,L|224:208,1,96,2|0,0:0|0:0,0:0:0:0:
384,128,6370,2,0,L|496:128,1,96,2|0,0:0|0:0,0:0:0:0:
296,88,6707,6,0,B|-184:144|448:136|296:256|136:240,1,480,0|0,0:0|0:0,0:0:0:0:
391,119,7718,2,0,L|463:102,2,64,2|0|0,0:0|0:0|0:0,0:0:0:0:
280,312,8055,1,2,0:0:0:0:
272,289,8101,1,0,0:0:0:0:
279,266,8148,1,0,0:0:0:0:
304,238,8195,1,0,0:0:0:0:
352,216,8242,2,0,L|396:249,2,32,2|0|0,0:0|0:0|0:0,0:0:0:0:
320,200,8414,5,2,0:0:0:0:
296,196,8453,1,0,0:0:0:0:
281,179,8492,1,0,0:0:0:0:
281,155,8532,1,0,0:0:0:0:
296,138,8571,1,0,0:0:0:0:
319,135,8611,1,0,0:0:0:0:
103,199,8729,6,0,P|47:127|119:79,1,192,2|0,0:0|0:0,0:0:0:0:
224,80,9235,1,2,0:0:0:0:
400,112,9404,2,0,L|408:232,1,96,0|0,0:0|0:0,0:0:0:0:
224,200,9741,5,2,0:0:0:0:
128,152,9909,1,0,0:0:0:0:
128,152,10078,1,0,0:0:0:0:
224,200,10246,1,2,0:0:0:0:
344,136,10415,2,0,L|448:136,1,96,2|0,0:0|0:0,0:0:0:0:
168,72,10752,6,0,P|136:144|224:144,1,192,2|0,0:0|0:0,0:0:0:0:
336,176,11257,1,2,0:0:0:0:
168,104,11426,2,0,L|64:104,1,96,0|0,0:0|0:0,0:0:0:0:
256,120,11763,5,2,0:0:0:0:
352,160,11932,1,0,0:0:0:0:
448,200,12100,1,0,0:0:0:0:
352,160,12269,1,2,0:0:0:0:
232,120,12437,2,0,L|128:120,1,96,2|0,0:0|0:0,0:0:0:0:
448,208,12774,6,0,P|488:136|376:112,1,192,2|0,0:0|0:0,0:0:0:0:
288,128,13280,1,2,0:0:0:0:
376,72,13448,1,2,0:0:0:0:
464,32,13617,1,0,0:0:0:0:
192,88,13786,6,0,P|128:144|208:192,1,192,2|0,0:0|0:0,0:0:0:0:
304,208,14291,1,2,0:0:0:0:
216,272,14460,1,2,0:0:0:0:
128,208,14628,1,0,0:0:0:0:
400,184,14797,6,0,L|400:304,1,96,2|0,0:0|0:0,0:0:0:0:
232,192,15134,2,0,L|344:192,1,96,2|0,0:0|0:0,0:0:0:0:
160,192,15471,2,0,L|152:312,1,96,2|0,0:0|0:0,0:0:0:0:
432,240,15808,6,0,P|488:144|416:120,1,192,2|0,0:0|0:0,0:0:0:0:
336,160,16314,1,0,0:0:0:0:
424,112,16482,1,0,0:0:0:0:
512,64,16651,1,0,0:0:0:0:
176,264,16819,6,0,P|24:152|128:96,1,384,2|0,0:0|0:0,0:0:0:0:
432,184,17831,1,2,0:0:0:0:
368,224,18842,6,0,L|384:128,1,96,2|0,0:0|0:0,0:0:0:0:
216,120,19179,2,0,L|200:24,1,96,2|0,0:0|0:0,0:0:0:0:
376,216,19516,2,0,L|400:112,1,96,2|0,0:0|0:0,0:0:0:0:
128,144,19853,1,2,0:0:0:0:
440,104,20864,6,0,L|240:104,1,192,2|0,0:0|0:0,0:0:0:0:
352,184,21370,1,2,0:0:0:0:
176,208,21538,2,0,L|184:320,1,96,2|0,0:0|0:0,0:0:0:0:
448,248,21875,6,0,L|352:248,1,96,2|0,0:0|0:0,0:0:0:0:
200,168,22213,2,0,L|96:168,1,96,2|0,0:0|0:0,0:0:0:0:
264,160,22550,2,0,L|288:264,1,96,2|0,0:0|0:0,0:0:0:0:
8,128,22887,5,4,0:0:0:0:
256,192,23055,12,0,26257,0:0:0:0:
384,200,26595,6,0,L|336:200,1,48,0|0,0:0|0:0,0:0:0:0:
384,200,26763,2,0,L|440:200,1,48,0|0,0:0|0:0,0:0:0:0:
304,200,26932,6,0,B|240:120|240:120|424:112|424:112|344:40|344:40,1,384,2|0,0:0|0:0,0:0:0:0:
472,176,27774,1,0,0:0:0:0:
296,232,27943,6,0,P|216:144|344:56,1,288,2|0,0:0|0:0,0:0:0:0:
456,144,28617,2,0,L|264:144,1,192,2|0,0:0|0:0,0:0:0:0:
128,216,29123,6,0,P|160:128|256:152,1,192,2|0,0:0|0:0,0:0:0:0:
200,200,29515,1,0,0:0:0:0:
144,200,29571,1,0,0:0:0:0:
88,168,29628,2,0,P|56:256|144:296,1,192,2|0,0:0|0:0,0:0:0:0:
184,272,30050,5,2,0:0:0:0:
225,250,30134,1,0,0:0:0:0:
240,205,30218,1,0,0:0:0:0:
220,163,30302,1,0,0:0:0:0:
177,146,30387,1,0,0:0:0:0:
120,144,30471,1,2,0:0:0:0:
78,122,30555,1,0,0:0:0:0:
63,77,30639,1,0,0:0:0:0:
83,35,30723,1,0,0:0:0:0:
126,18,30808,1,0,0:0:0:0:
480,128,30977,6,0,L|352:128,1,96,8|0,3:0|0:0,0:0:0:0:
472,72,31314,1,0,0:0:0:0:
296,112,31482,2,0,L|280:224,1,96,8|0,0:0|0:0,0:0:0:0:
392,176,31819,1,0,0:0:0:0:
224,112,31988,6,0,L|360:112,1,96,8|0,0:3|0:0,0:0:0:0:
232,192,32325,1,8,0:0:0:0:
408,104,32493,2,0,L|312:104,2,96,4|8|2,0:3|0:0|0:0,0:0:0:0:
104,160,32999,6,0,L|208:160,1,96,8|0,0:3|0:0,0:0:0:0:
104,96,33336,1,0,0:0:0:0:
280,48,33505,2,0,L|184:48,1,96,8|0,0:0|0:0,0:0:0:0:
272,128,33842,1,0,0:0:0:0:
448,176,34010,6,0,L|336:176,1,96,8|0,0:3|0:0,0:0:0:0:
216,272,34347,1,8,0:0:0:0:
376,296,34516,1,4,0:3:0:0:
280,277,34684,1,8,0:0:0:0:
376,296,34853,1,2,0:0:0:0:
96,120,35022,6,0,L|184:176,2,96,8|0|0,0:3|0:0|0:0,0:0:0:0:
272,200,35527,2,0,L|384:200,1,96,8|0,0:0|0:0,0:0:0:0:
208,144,35864,1,0,0:0:0:0:
384,208,36033,2,0,L|480:208,1,96,8|0,0:3|0:0,0:0:0:0:
328,144,36370,1,8,0:0:0:0:
232,72,36538,1,4,0:3:0:0:
232,72,36707,1,8,0:0:0:0:
328,144,36875,1,2,0:0:0:0:
56,168,37044,6,0,L|64:272,1,96,8|0,0:3|0:0,0:0:0:0:
168,256,37381,1,0,0:0:0:0:
344,128,37550,2,0,L|336:224,1,96,8|0,0:0|0:0,0:0:0:0:
232,224,37887,1,0,0:0:0:0:
496,96,38055,6,0,L|384:96,1,96,8|0,0:3|0:0,0:0:0:0:
168,160,38392,2,0,L|264:160,1,96,8|0,0:3|0:0,0:0:0:0:
32,64,38729,2,0,L|32:168,1,96,8|0,0:3|0:0,0:0:0:0:
320,104,39066,6,0,P|240:256|312:104,1,576,2|0,0:0|0:0,0:0:0:0:
120,104,41089,6,0,P|56:160|128:192,1,192,4|8,0:0|0:0,0:0:0:0:
264,160,41595,1,0,0:0:0:0:
168,112,41763,1,8,0:0:0:0:
72,64,41932,1,0,0:0:0:0:
352,168,42100,6,0,L|216:168,1,96,0|0,1:0|0:0,0:0:0:0:
80,128,42437,2,0,L|96:232,1,96,0|0,1:0|0:0,0:0:0:0:
368,152,42774,2,0,L|480:152,1,96,8|0,0:0|0:0,0:0:0:0:
184,88,43111,6,0,L|384:88,1,192,0|8,1:0|0:0,0:0:0:0:
240,168,43617,1,8,0:0:0:0:
336,168,43786,1,8,0:0:0:0:
440,168,43954,1,8,0:0:0:0:
192,224,44123,6,0,P|168:144|256:128,1,192,0|8,1:0|0:0,0:0:0:0:
368,152,44628,1,0,0:0:0:0:
464,96,44797,1,8,0:0:0:0:
368,152,44965,1,2,0:0:0:0:
128,104,45134,6,0,L|328:104,1,192,0|0,1:0|0:0,0:0:0:0:
200,216,45639,1,8,0:0:0:0:
384,120,45808,2,0,L|368:216,1,96,8|8,0:0|0:0,0:0:0:0:
112,104,46145,6,0,L|216:104,1,96,8|0,0:0|0:0,0:0:0:0:
384,160,46482,2,0,L|360:264,1,96,8|0,0:0|0:0,0:0:0:0:
112,192,46819,2,0,L|16:192,1,96,0|0,1:0|0:0,0:0:0:0:
320,104,47156,6,0,P|376:160|288:200,1,192,0|8,1:0|0:0,0:0:0:0:
152,152,47662,1,0,0:0:0:0:
304,112,47831,1,8,0:0:0:0:
152,152,47999,1,0,0:0:0:0:
416,168,48168,6,0,L|472:80,1,96,8|8,0:3|0:3,0:0:0:0:
288,72,48505,2,0,L|408:72,1,96,4|8,0:3|0:0,0:0:0:0:
152,120,48842,2,0,L|152:232,1,96,4|8,0:3|0:0,0:0:0:0:
208,208,49095,1,0,0:0:0:0:
456,88,49179,6,0,P|448:168|336:168,1,192,4|0,0:0|0:0,0:0:0:0:
216,128,49684,1,8,0:0:0:0:
408,128,49853,1,8,0:0:0:0:
136,192,50190,6,0,L|256:192,1,96,0|0,1:0|0:0,0:0:0:0:
360,160,50527,1,0,1:0:0:0:
472,88,50696,1,0,0:0:0:0:
176,96,50864,2,0,L|64:96,1,96,2|0,0:0|0:0,0:0:0:0:
336,144,51201,6,0,P|392:208|304:240,1,192,0|8,1:0|0:0,0:0:0:0:
200,192,51707,1,8,0:0:0:0:
376,96,51875,2,0,L|480:96,1,96,8|8,0:0|0:0,0:0:0:0:
168,80,52213,6,0,P|104:136|176:184,1,192,8|8,0:0|0:0,0:0:0:0:
280,184,52718,1,0,0:0:0:0:
96,112,52887,2,0,L|112:232,1,96,0|4,1:0|0:3,0:0:0:0:
416,168,53224,6,0,L|200:168,1,192,0|0,1:0|0:0,0:0:0:0:
352,96,53729,1,2,0:0:0:0:
464,48,53898,1,2,0:0:0:0:
352,96,54066,1,0,0:0:0:0:
104,88,54235,6,0,L|296:88,1,192,0|8,1:0|0:0,0:0:0:0:
160,160,54741,1,0,0:0:0:0:
456,208,54909,1,8,0:0:0:0:
224,96,55246,6,0,L|128:96,1,96,0|0,1:0|0:0,0:0:0:0:
304,192,55583,1,8,0:3:0:0:
192,240,55752,1,4,0:3:0:0:
80,184,55920,1,8,0:3:0:0:
192,240,56089,1,4,0:3:0:0:
472,120,56257,6,0,L|376:120,1,96,0|0,1:0|0:0,0:0:0:0:
216,176,56595,1,8,0:0:0:0:
384,136,56763,1,0,0:0:0:0:
112,96,56932,2,0,L|208:96,1,96,8|0,0:0|0:0,0:0:0:0:
480,208,57269,5,4,0:0:0:0:
256,192,57437,12,0,59797,0:0:0:0:
