osu file format v14

[General]
AudioFilename: audio.mp3
AudioLeadIn: 0
PreviewTime: 40920
Countdown: 0
SampleSet: Soft
StackLeniency: 0.7
Mode: 2
LetterboxInBreaks: 0
WidescreenStoryboard: 0

[Editor]
DistanceSpacing: 1.3
BeatDivisor: 4
GridSize: 8
TimelineZoom: 1

[Metadata]
Title:Falling, The Star Light
TitleUnicode:Falling, The Star Light
Artist:Yamamoto Mineko
ArtistUnicode:山本美禰子
Creator:-Hex-
Version:Cup
Source:ロロナのアトリエ ~アーランドの錬金術士~
Tags:Rorona no Atelier: Arland no Renkinjutsushi 中河健 game opening Atelier Rorona: The Alchemist of Arland gust Uta fluffy hair
BeatmapID:1618379
BeatmapSetID:769685

[Difficulty]
HPDrainRate:3
CircleSize:2.5
OverallDifficulty:6
ApproachRate:6
SliderMultiplier:1.4
SliderTickRate:1

[Events]
//Background and Video events
0,0,"12.jpg",0,0
//Break Periods
//Storyboard Layer 0 (Background)
//Storyboard Layer 1 (Fail)
//Storyboard Layer 2 (Pass)
//Storyboard Layer 3 (Foreground)
//Storyboard Sound Samples

[TimingPoints]
640,337.078651685393,3,2,1,38,1,0
640,-100,3,2,1,38,0,0
1904,-100,3,2,1,5,0,0
1988,-100,3,2,1,38,0,0
2241,-100,3,2,1,5,0,0
2325,-100,3,2,1,38,0,0
2578,-100,3,2,1,5,0,0
2662,-100,3,2,1,38,0,0
3926,-100,3,2,1,5,0,0
4010,-100,3,2,1,38,0,0
4263,-100,3,2,1,5,0,0
4347,-100,3,2,1,38,0,0
4600,-100,3,2,1,5,0,0
4684,-100,3,2,1,38,0,0
6707,-100,3,2,1,30,0,0
7718,-100,3,2,1,20,0,0
8055,375,3,2,1,38,1,0
8242,344.827586206896,3,2,1,38,1,0
8414,315.789473684211,3,2,1,38,1,0
8729,337.078651685393,3,2,1,38,1,0
8729,-100,3,2,4,30,0,0
9066,-100,3,2,3,30,0,0
17831,-100,3,2,1,30,0,0
18842,-100,3,2,1,40,0,0
19853,-100,3,2,1,30,0,0
20022,-100,3,2,1,10,0,0
20864,-100,3,2,1,50,0,0
27859,-100,3,2,1,20,0,0
27943,-100,3,2,1,60,0,0
30977,-100,3,2,5,68,0,0
38055,-100,3,2,1,60,0,0
38392,-100,3,2,1,60,0,0
38729,-100,3,2,1,60,0,0
39066,-100,3,2,1,30,0,0
40078,-100,3,2,1,20,0,0
41088,-100,3,2,1,70,0,1
46398,-100,3,2,1,5,0,1
46482,-100,3,2,1,70,0,1
46735,-100,3,2,1,5,0,1
46819,-100,3,2,1,70,0,1
57268,-100,3,2,1,60,0,0
59797,-100,3,2,1,10,0,0

[Colours]
Combo1 : 255,0,0
Combo2 : 255,151,151
Combo3 : 10,120,255
Combo4 : 178,178,178

[HitObjects]
160,192,640,6,0,L|360:112,1,210,2|2,0:0|0:0,0:0:0:0:
176,80,1651,2,0,L|40:144,2,140,2|2|2,0:0|0:0|0:0,0:0:0:0:
336,72,2662,6,0,L|112:144,1,210,2|2,0:0|0:0,0:0:0:0:
312,160,3673,2,0,L|448:224,2,140,2|2|2,0:0|0:0|0:0,0:0:0:0:
160,144,4684,6,0,P|192:224|312:224,1,210,2|2,0:0|0:0,0:0:0:0:
128,120,5696,2,0,L|272:56,2,140,2|2|2,0:0|0:0|0:0,0:0:0:0:
280,160,6707,6,0,P|320:248|96:264,1,420,0|0,0:0|0:0,0:0:0:0:
352,232,8729,6,0,P|392:160|248:96,1,280,2|0,0:0|0:0,0:0:0:0:
120,160,9741,2,0,L|144:312,1,140,2|0,0:0|0:0,0:0:0:0:
272,176,10415,1,2,0:0:0:0:
128,96,10752,6,0,P|72:232|168:264,1,280,2|0,0:0|0:0,0:0:0:0:
304,200,11763,1,2,0:0:0:0:
176,216,12100,2,0,L|112:368,1,140,0|2,0:0|0:0,0:0:0:0:
280,128,12774,6,0,P|432:136|488:240,1,280,2|2,0:0|0:0,0:0:0:0:
344,200,13786,2,0,P|176:176|160:88,1,280,2|2,0:0|0:0,0:0:0:0:
304,160,14797,6,0,L|424:80,2,140,2|2|2,0:0|0:0|0:0,0:0:0:0:
152,224,15808,2,0,P|80:112|184:88,1,280,2|0,0:0|0:0,0:0:0:0:
336,224,16819,6,0,P|392:96|280:72,1,280,2|0,0:0|0:0,0:0:0:0:
136,192,17831,1,2,0:0:0:0:
344,136,18842,6,0,L|472:48,2,140,2|2|2,0:0|0:0|0:0,0:0:0:0:
192,208,19853,1,2,0:0:0:0:
440,80,20864,6,0,P|456:168|424:192,1,140,2|0,0:0|0:0,0:0:0:0:
304,264,21538,1,2,0:0:0:0:
160,184,21875,2,0,L|304:168,1,140,2|2,0:0|0:0,0:0:0:0:
176,96,22550,1,2,0:0:0:0:
328,184,22887,5,4,0:0:0:0:
256,192,23224,12,0,29965,0:0:0:0:
168,224,30977,6,0,P|88:120|192:64,1,280,8|0,3:0|0:0,0:0:0:0:
328,112,31988,1,8,0:3:0:0:
192,208,32325,2,0,P|120:152|88:112,1,140,8|8,0:0|0:0,0:0:0:0:
232,96,32999,6,0,P|328:168|224:240,1,280,8|0,0:3|0:0,0:0:0:0:
91,185,34010,1,8,0:3:0:0:
228,105,34347,2,0,L|284:41,2,70,8|4|8,0:0|0:3|0:0,0:0:0:0:
80,168,35022,6,0,P|96:320|208:320,1,280,8|0,0:3|0:0,0:0:0:0:
320,184,36033,1,8,0:3:0:0:
192,136,36370,2,0,P|152:200|216:232,1,140,8|8,0:0|0:0,0:0:0:0:
320,184,37044,6,0,L|408:56,2,140,8|0|0,0:3|0:0|0:0,0:0:0:0:
168,168,38055,2,0,L|32:112,2,140,8|8|8,0:3|0:3|0:3,0:0:0:0:
320,88,39066,6,0,P|312:272|136:192,1,420,2|0,0:0|0:0,0:0:0:0:
384,176,41089,6,0,P|376:248|192:264,1,280,4|8,0:0|0:0,0:0:0:0:
328,176,42100,2,0,L|312:320,1,140,0|0,1:0|1:0,0:0:0:0:
160,232,42774,1,8,0:0:0:0:
304,216,43111,6,0,L|432:288,2,140,0|8|8,1:0|0:0|0:0,0:0:0:0:
160,192,44123,2,0,P|88:80|200:48,1,280,0|8,1:0|0:0,0:0:0:0:
328,88,45134,6,0,L|336:232,1,140,0|0,1:0|0:0,0:0:0:0:
216,168,45808,1,8,0:0:0:0:
360,136,46145,2,0,L|472:40,2,140,8|8|0,0:0|0:0|1:0,0:0:0:0:
216,232,47156,6,0,P|144:104|240:88,1,280,0|8,1:0|0:0,0:0:0:0:
344,160,48168,1,8,0:3:0:0:
200,80,48505,1,4,0:3:0:0:
352,64,48842,1,4,0:3:0:0:
200,136,49179,6,0,P|136:272|240:280,1,280,4|8,0:0|0:0,0:0:0:0:
352,152,50190,1,0,1:0:0:0:
224,104,50527,2,0,P|168:112|88:168,1,140,0|2,1:0|0:0,0:0:0:0:
248,208,51201,6,0,P|408:176|504:104,1,280,0|8,1:0|0:0,0:0:0:0:
360,128,52213,2,0,P|264:136|224:168,1,140,8|8,0:0|0:0,0:0:0:0:
384,216,52887,1,0,1:0:0:0:
248,160,53224,6,0,P|144:232|256:304,1,280,0|2,1:0|0:0,0:0:0:0:
368,128,54235,2,0,P|328:64|248:72,1,140,0|8,1:0|0:0,0:0:0:0:
120,64,54909,1,8,0:0:0:0:
256,96,55246,5,0,1:0:0:0:
128,160,55583,2,0,L|112:304,1,140,8|8,0:3|0:3,0:0:0:0:
256,280,56257,5,0,1:0:0:0:
128,176,56595,2,0,L|272:176,1,140,8|8,0:0|0:0,0:0:0:0:
424,216,57269,5,4,0:0:0:0:
256,192,57606,12,0,59797,0:0:0:0:
