osu file format v14

[General]
AudioFilename: audio.ogg
AudioLeadIn: 0
PreviewTime: 142794
Countdown: 0
SampleSet: Soft
StackLeniency: 0.7
Mode: 0
LetterboxInBreaks: 0
WidescreenStoryboard: 1

[Editor]
Bookmarks: 553,8642,22800,38979,62400,125267,133188,143300,151390,175659
DistanceSpacing: 1.3
BeatDivisor: 4
GridSize: 4
TimelineZoom: 0.8799999

[Metadata]
Title:Falling, The Star Light
TitleUnicode:Falling, The Star Light
Artist:Yamamoto Mineko
ArtistUnicode:山本美禰子
Creator:Ayesha Altugle
Version:Dalou's Hard
Source:ロロナのアトリエ ~アーランドの錬金術士~
Tags:shizuku- kazato asa shikibe mayu gust ultimate madoka superdaloubot a11 atelier rorona ~arland no renkinjutshi~ the alchemist of arland ATR1-PS3-WE-OST KDSD-10038 Ken Nakagawa 中河健 Mitsuhiro Tabata 田畑三津広 Same Creative Inc. ost original soundtrack folk japanese
BeatmapID:3699199
BeatmapSetID:1803919

[Difficulty]
HPDrainRate:4
CircleSize:3.8
OverallDifficulty:6.4
ApproachRate:8
SliderMultiplier:1.3
SliderTickRate:1

[Events]
//Background and Video events
0,0,"98334334_p1.jpg",0,0
//Break Periods
2,27045,30140
2,59910,61650
2,129006,132101
2,141140,142213
//Storyboard Layer 0 (Background)
//Storyboard Layer 1 (Fail)
//Storyboard Layer 2 (Pass)
//Storyboard Layer 3 (Foreground)
//Storyboard Layer 4 (Overlay)
//Storyboard Sound Samples

[TimingPoints]
553,337.078651685393,3,2,1,30,1,0
2575,-100,3,2,1,40,0,0
4597,-100,3,2,1,50,0,0
6620,-125,3,2,1,50,0,0
8642,-125,3,2,99,30,0,0
9148,-125,3,2,99,30,0,0
9654,-125,3,2,2,30,0,0
20103,-125,3,2,2,30,0,0
22800,-125,3,2,2,40,0,0
30890,-100,3,2,1,55,0,0
38979,-111.111111111111,3,2,1,55,0,0
41002,-100,3,2,1,65,0,0
59710,-100,3,2,1,20,0,0
62400,337.078651685393,6,2,1,30,1,0
62400,-142.857142857143,6,2,1,30,0,0
78579,-125,6,2,1,30,0,0
86669,-142.857142857143,6,2,1,30,0,0
94759,-142.857142857143,6,2,1,30,0,0
125267,337.078651685393,3,2,1,45,1,0
133188,337.078651685393,3,2,1,50,1,0
142204,-100,3,2,1,40,0,0
143300,-125,3,2,2,40,0,0
151390,-125,3,2,2,40,0,0
158468,-111.111111111124,3,2,2,40,0,0
159395,-111.111111111124,3,2,2,5,0,0
159480,-100,3,2,1,65,0,0
175659,-100,3,2,1,60,0,0
178525,-100,3,2,1,5,0,0

[Colours]
Combo1 : 208,100,103
Combo2 : 255,128,255
Combo3 : 62,149,255
Combo4 : 223,223,223

[HitObjects]
147,99,553,6,0,P|209:81|270:99,1,130,2|0,2:0|0:0,0:0:0:0:
358,81,1058,2,0,P|348:143|300:185,1,130,2|0,2:0|0:0,0:0:0:0:
210,172,1564,2,0,L|209:249,1,65,2|0,2:0|0:0,0:0:0:0:
122,264,1901,2,0,L|121:199,1,65,2|0,2:0|0:0,0:0:0:0:
191,325,2238,1,2,2:0:0:0:
191,325,2575,6,0,P|254:308|344:320,1,130,2|0,2:0|0:0,0:0:0:0:
386,373,3081,2,0,P|364:303|384:243,1,130,2|0,2:0|0:0,0:0:0:0:
456,202,3586,2,0,L|455:125,1,65,2|0,2:0|0:0,0:0:0:0:
371,99,3923,2,0,L|371:163,1,65,2|0,2:0|0:0,0:0:0:0:
287,61,4260,1,2,2:0:0:0:
287,61,4597,38,0,P|221:43|146:64,1,130,2|0,2:0|0:0,0:0:0:0:
112,132,5103,2,0,P|178:150|253:129,1,130,2|0,2:0|0:0,0:0:0:0:
309,193,5609,2,0,L|312:282,1,65,2|0,2:0|0:0,0:0:0:0:
228,296,5946,2,0,L|225:207,1,65,2|0,2:0|0:0,0:0:0:0:
145,334,6283,1,2,2:0:0:0:
145,334,6620,6,0,P|44:321|149:228,1,312,2|2,2:0|2:0,0:0:0:0:
327,352,8305,1,0,2:0:0:0:
327,352,8642,38,0,P|387:360|441:345,1,104,6|0,2:0|0:0,0:0:0:0:
493,306,9148,1,2,2:0:0:0:
487,227,9317,2,0,L|482:158,1,52,2|0,2:0|0:0,0:0:0:0:
442,108,9654,2,0,L|371:114,1,52,2|0,2:1|0:0,0:0:0:0:
318,143,9991,2,0,L|247:137,1,52,2|0,2:0|0:0,0:0:0:0:
381,193,10328,1,2,2:0:0:0:
381,193,10665,22,0,P|392:248|370:309,1,104,2|0,2:1|0:0,0:0:0:0:
327,352,11170,1,2,2:0:0:0:
262,307,11339,2,0,B|201:304|201:304|150:315,1,104,2|2,2:0|2:1,0:0:0:0:
9,356,12013,1,2,2:0:0:0:
49,205,12350,1,2,2:0:0:0:
5,55,12687,6,0,P|59:47|110:59,1,104,2|0,2:1|0:0,0:0:0:0:
174,95,13193,1,0,0:0:0:0:
247,68,13361,2,0,L|303:66,1,52,2|0,2:0|0:0,0:0:0:0:
376,45,13699,2,0,L|375:153,1,104,2|0,2:1|0:0,0:0:0:0:
355,224,14204,1,2,2:0:0:0:
409,279,14373,2,0,L|477:277,1,52,2|0,2:0|0:0,0:0:0:0:
334,299,14710,6,0,L|266:301,1,52,2|0,2:1|0:0,0:0:0:0:
207,325,15047,2,0,L|209:381,1,52,2|0,2:0|0:0,0:0:0:0:
130,312,15384,2,0,L|132:256,1,52,2|0,2:0|0:0,0:0:0:0:
52,326,15721,1,2,2:1:0:0:
52,326,16058,6,0,L|50:270,1,52
31,197,16395,2,0,L|33:141,1,52
74,78,16732,6,0,P|132:87|196:70,1,104,2|0,2:0|0:0,0:0:0:0:
316,11,17406,1,0,0:0:0:0:
434,112,17744,2,0,P|442:164|434:224,1,104,2|0,2:0|0:0,0:0:0:0:
440,292,18249,2,0,L|494:290,2,52
369,258,18755,6,0,P|322:255|256:266,1,104,2|0,2:0|2:0,0:0:0:0:
137,351,19429,1,0,2:0:0:0:
46,224,19766,2,0,L|170:223,1,104,2|0,2:0|0:0,0:0:0:0:
210,173,20272,2,0,L|264:175,2,52
136,147,20777,6,0,P|110:95|136:44,1,104,2|0,2:0|0:0,0:0:0:0:
190,12,21283,1,0,0:0:0:0:
263,36,21451,2,0,L|337:33,1,52
392,23,21788,2,0,L|432:85,1,52,2|0,2:0|0:0,0:0:0:0:
489,103,22126,2,0,L|483:172,1,52,0|0,2:0|0:0,0:0:0:0:
429,210,22463,2,0,L|431:277,1,52,2|0,2:0|0:0,0:0:0:0:
433,339,22800,21,6,2:0:0:0:
256,192,22968,12,0,26845,0:0:0:0:
66,104,30890,38,0,L|144:101,1,65,12|0,2:3|0:0,0:0:0:0:
205,154,31227,1,8,2:3:0:0:
123,193,31395,2,0,P|117:252|132:330,1,130,4|8,2:3|2:3,0:0:0:0:
204,372,31901,2,0,L|287:364,1,65,0|8,0:0|2:3,0:0:0:0:
344,315,32238,2,0,P|390:315|424:327,1,65,4|0,2:3|0:0,0:0:0:0:
490,358,32575,1,4,2:3:0:0:
483,267,32744,1,8,2:3:0:0:
476,176,32912,38,0,L|477:106,2,65,12|0|8,2:3|0:0|2:3,0:0:0:0:
402,229,33418,2,0,P|354:229|284:183,1,130,4|8,2:3|2:3,0:0:0:0:
290,95,33923,2,0,L|292:21,1,65,0|8,0:0|3:0,0:0:0:0:
209,137,34260,1,4,2:3:0:0:
209,137,34429,1,8,2:3:0:0:
131,90,34597,2,0,L|129:16,1,65,4|8,2:3|2:3,0:0:0:0:
50,132,34935,6,0,L|48:206,1,65,12|0,2:3|0:0,0:0:0:0:
45,288,35272,1,8,2:3:0:0:
121,337,35440,2,0,L|202:336,2,65,4|0|8,2:3|0:0|2:3,0:0:0:0:
125,245,35946,2,0,L|212:244,1,65,0|8,0:0|2:3,0:0:0:0:
273,278,36283,1,4,2:3:0:0:
343,220,36451,1,0,0:0:0:0:
427,254,36620,2,0,L|427:333,1,65,4|8,2:3|2:3,0:0:0:0:
343,220,36957,38,0,P|375:181|478:183,1,130,12|8,2:3|2:3,0:0:0:0:
489,87,37463,2,0,P|491:53|484:9,1,65,4|8,2:3|2:3,0:0:0:0:
397,8,37800,1,8,2:3:0:0:
318,54,37968,2,0,L|246:52,1,65,4|8,2:3|2:3,0:0:0:0:
163,71,38305,2,0,L|197:134,1,65,4|8,2:3|2:3,0:0:0:0:
256,196,38642,2,0,L|293:134,1,65,4|0,2:3|0:0,0:0:0:0:
167,215,38979,22,2,P|134:283|298:257,1,350.99998928833,0|0,2:0|2:0,2:0:0:0:
70,57,41002,6,0,P|130:38|221:58,1,130,14|0,2:1|0:0,0:0:0:0:
281,76,41508,1,2,2:0:0:0:
249,161,41676,2,0,L|254:244,1,65,8|8,2:1|2:0,0:0:0:0:
339,149,42013,2,0,P|371:145|416:148,1,65,8|0,2:1|0:0,0:0:0:0:
460,218,42350,2,0,L|454:299,1,65,8|2,2:1|2:0,0:0:0:0:
422,369,42687,2,0,P|394:352|373:327,1,65,10|0,2:0|0:0,0:0:0:0:
253,226,43024,6,0,P|203:222|164:231,1,65,10|0,2:1|0:0,0:0:0:0:
219,310,43361,2,0,P|269:314|308:305,1,65,8|0,2:3|0:0,0:0:0:0:
343,242,43699,1,8,2:1:0:0:
374,328,43867,1,8,2:0:0:0:
455,283,44036,2,0,L|461:202,1,65,8|8,2:1|2:0,0:0:0:0:
412,140,44373,2,0,L|418:59,1,65,8|0,2:1|0:0,0:0:0:0:
343,21,44710,1,8,2:0:0:0:
265,67,44878,1,2,2:0:0:0:
179,36,45047,6,0,P|94:37|48:64,1,130,10|0,2:1|0:0,0:0:0:0:
19,141,45552,1,2,2:0:0:0:
53,225,45721,2,0,L|146:215,1,65,8|8,2:1|2:0,0:0:0:0:
205,194,46058,2,0,L|208:284,1,65,8|0,2:1|0:0,0:0:0:0:
296,278,46395,2,0,L|298:213,1,65,8|0,2:3|0:0,0:0:0:0:
386,235,46732,2,0,L|389:325,1,65,8|0,2:0|0:0,0:0:0:0:
361,146,47069,6,0,L|363:81,1,65,10|0,2:1|0:0,0:0:0:0:
304,11,47406,1,8,2:3:0:0:
273,97,47575,1,0,0:0:0:0:
214,27,47744,2,0,L|133:26,1,65,8|8,2:1|2:0,0:0:0:0:
122,127,48081,6,0,L|203:128,1,65,8|8,2:1|2:0,0:0:0:0:
273,97,48418,1,8,2:1:0:0:
328,169,48586,1,8,2:1:0:0:
279,246,48755,1,12,2:0:0:0:
192,219,48923,1,0,0:0:0:0:
103,241,49092,6,0,P|75:297|94:363,1,130,14|0,2:1|0:0,0:0:0:0:
166,307,49597,1,2,2:0:0:0:
239,360,49766,2,0,L|333:355,1,65,8|8,2:1|2:0,0:0:0:0:
394,362,50103,2,0,L|388:272,1,65,8|0,2:1|0:0,0:0:0:0:
325,234,50440,2,0,L|329:154,1,65,8|0,2:3|0:0,0:0:0:0:
415,140,50777,2,0,L|411:204,1,65,8|0,2:0|0:0,0:0:0:0:
367,62,51114,6,0,P|298:52|230:84,1,130,10|8,2:1|2:3,0:0:0:0:
180,139,51620,1,0,0:0:0:0:
92,115,51788,2,0,L|93:34,1,65,8|8,2:1|2:0,0:0:0:0:
180,139,52126,2,0,P|185:210|137:277,1,130,8|8,2:1|2:1,0:0:0:0:
83,312,52631,1,0,0:0:0:0:
153,370,52800,2,0,L|242:366,1,65,8|2,2:0|2:0,0:0:0:0:
308,370,53137,6,0,P|316:300|297:225,1,130,10|8,2:1|0:3,0:0:0:0:
260,162,53642,1,2,2:0:0:0:
352,99,53811,2,0,L|351:170,1,65,8|8,2:1|2:0,0:0:0:0:
260,162,54148,6,0,L|263:22,1,130,8|8,2:1|2:1,0:0:0:0:
174,12,54654,1,2,2:0:0:0:
95,59,54822,2,0,L|97:133,1,65,10|2,2:0|2:0,0:0:0:0:
100,215,55159,1,14,2:1:0:0:
260,162,55496,5,8,2:3:0:0:
260,162,55665,1,4,2:3:0:0:
304,242,55833,1,2,2:0:0:0:
304,242,56002,1,8,2:1:0:0:
351,164,56170,2,0,P|353:126|353:78,1,65,8|8,2:0|2:3,0:0:0:0:
443,51,56508,2,0,P|442:89|445:137,1,65,8|8,2:0|2:3,0:0:0:0:
495,190,56845,5,8,2:0:0:0:
416,235,57013,1,8,2:0:0:0:
468,310,57182,1,14,2:1:0:0:
256,192,57350,12,2,59710,2:0:0:0:
146,265,62400,22,0,L|210:261,1,45.4999986114502,2|0,2:0|0:0,0:0:0:0:
236,292,62737,2,0,L|340:284,1,90.9999972229005,0|0,0:0|2:0,0:0:0:0:
426,239,63411,2,0,P|435:293|423:346,2,90.9999972229005,2|2|0,2:0|2:0|0:0,0:0:0:0:
343,167,64422,6,0,L|235:164,1,90.9999972229005,2|0,2:0|0:0,0:0:0:0:
171,238,65096,1,2,2:0:0:0:
93,159,65433,1,2,2:0:0:0:
174,86,65770,1,0,2:0:0:0:
252,164,66107,1,2,2:0:0:0:
314,74,66444,38,0,P|357:64|411:76,1,90.9999972229005,2|0,2:0|0:0,0:0:0:0:
361,173,67119,1,0,2:0:0:0:
252,164,67456,1,2,2:0:0:0:
185,250,67793,2,0,P|181:312|193:356,1,90.9999972229005,2|0,2:0|2:0,0:0:0:0:
285,293,68467,6,0,P|344:284|388:293,1,90.9999972229005,2|0,2:0|0:0,0:0:0:0:
474,332,69141,2,0,L|467:228,1,90.9999972229005,2|0,2:0|0:0,0:0:0:0:
488,134,69815,2,0,P|428:139|392:163,1,90.9999972229005,2|0,2:0|0:0,0:0:0:0:
302,208,70489,38,0,P|251:206|202:178,1,90.9999972229005,2|0,2:0|0:0,0:0:0:0:
280,100,71164,1,0,2:0:0:0:
188,40,71501,2,0,L|94:45,2,90.9999972229005,2|2|0,2:0|2:0|0:0,0:0:0:0:
280,100,72512,5,2,2:0:0:0:
215,189,72849,1,0,0:0:0:0:
122,133,73186,1,2,2:0:0:0:
78,233,73523,2,0,L|82:326,2,90.9999972229005,2|0|2,2:0|2:0|2:0,0:0:0:0:
215,189,74534,38,0,L|212:288,1,90.9999972229005,2|0,2:0|0:0,0:0:0:0:
289,356,75208,1,0,2:0:0:0:
363,276,75546,2,0,P|410:270|465:279,2,90.9999972229005,2|2|0,2:0|2:0|2:0,0:0:0:0:
289,356,76557,5,2,2:0:0:0:
202,294,76894,1,0,0:0:0:0:
95,333,77231,1,2,2:0:0:0:
113,221,77568,1,0,2:0:0:0:
202,294,77905,1,2,2:0:0:0:
219,181,78242,1,2,2:0:0:0:
234,72,78579,6,0,L|151:75,2,69.3333333333333,2|0|0,2:0|0:0|0:0,0:0:0:0:
317,67,79253,2,0,P|384:88|469:63,1,138.666666666667,2|0,2:0|0:0,0:0:0:0:
499,9,79928,2,0,P|481:100|496:157,1,138.666666666667,2|0,2:0|0:0,0:0:0:0:
489,226,80602,6,0,L|486:355,1,104,2|0,2:0|0:0,0:0:0:0:
360,355,81276,2,0,L|353:197,1,138.666666666667,2|0,2:0|0:0,0:0:0:0:
367,133,81950,2,0,P|309:127|252:139,1,104,2|0,2:0|0:0,0:0:0:0:
148,89,82624,6,0,L|155:5,2,69.3333333333333,2|0|0,2:0|0:0|0:0,0:0:0:0:
87,146,83298,2,0,L|94:285,1,138.666666666667,2|0,2:0|0:0,0:0:0:0:
151,344,83973,1,2,2:0:0:0:
204,280,84197,1,0,0:0:0:0:
265,337,84422,1,0,0:0:0:0:
318,273,84647,38,0,L|396:274,2,69.3333333333333,2|0|0,2:0|0:0|0:0,0:0:0:0:
302,188,85321,2,0,L|380:187,1,69.3333333333333,2|0,2:0|0:0,0:0:0:0:
454,186,85770,1,0,0:0:0:0:
464,100,85995,2,0,L|386:99,1,69.3333333333333,2|0,2:0|0:0,0:0:0:0:
312,98,86444,1,0,0:0:0:0:
237,59,86669,6,0,P|172:48|131:60,1,90.9999972229005,2|0,2:0|2:0,0:0:0:0:
187,164,87343,1,2,2:0:0:0:
23,89,88355,1,0,2:0:0:0:
29,197,88692,2,0,P|112:236|172:171,1,181.999994445801,2|2,2:0|2:0,0:0:0:0:
311,166,90040,2,0,P|228:127|168:192,1,181.999994445801,2|2,2:0|2:0,0:0:0:0:
170,181,91388,37,2,2:0:0:0:
249,256,91725,1,0,2:0:0:0:
311,166,92062,2,0,P|375:219|375:279,1,136.499995834351,2|2,2:0|2:0,0:0:0:0:
350,315,92737,6,0,P|256:295|185:352,1,181.999994445801,2|2,2:0|2:0,0:0:0:0:
81,332,93748,1,0,0:0:0:0:
81,222,94085,1,2,2:0:0:0:
81,222,94759,22,0,P|169:203|257:224,1,181.999994445801,2|0,2:0|2:0,0:0:0:0:
339,261,95770,1,2,2:0:0:0:
329,170,96107,1,2,2:0:0:0:
392,342,96782,38,0,P|329:355|292:347,1,90.9999972229005,2|0,2:0|0:0,0:0:0:0:
247,278,97456,2,0,P|184:265|147:273,1,90.9999972229005,2|2,2:0|2:0,0:0:0:0:
71,281,98130,1,0,2:0:0:0:
18,356,98467,1,2,2:0:0:0:
108,365,98804,6,0,P|156:303|113:201,1,181.999994445801,2|0,2:0|2:0,0:0:0:0:
37,197,99815,1,2,2:0:0:0:
71,281,100152,1,2,2:0:0:0:
127,211,100489,1,0,2:0:0:0:
96,125,100826,38,0,P|150:125|191:145,1,90.9999972229005,2|0,2:0|0:0,0:0:0:0:
215,225,101501,2,0,P|294:236|368:157,1,181.999994445801,2|2,2:0|2:0,0:0:0:0:
210,43,102849,6,0,L|215:237,1,181.999994445801,2|0,2:0|2:0,0:0:0:0:
219,315,103860,1,2,2:0:0:0:
137,273,104197,1,2,2:0:0:0:
35,116,104871,38,0,P|22:179|30:216,1,90.9999972229005,2|0,2:0|0:0,0:0:0:0:
110,169,105546,2,0,P|162:155|201:158,1,90.9999972229005,2|2,2:0|2:0,0:0:0:0:
286,176,106220,1,0,2:0:0:0:
339,251,106557,1,2,2:0:0:0:
249,260,106894,6,0,P|200:198|243:96,1,181.999994445801,2|0,2:0|2:0,0:0:0:0:
286,176,107905,1,2,2:0:0:0:
320,91,108242,1,2,2:0:0:0:
229,106,108579,1,0,2:0:0:0:
286,176,108916,38,0,P|339:178|382:160,1,90.9999972229005,2|0,2:0|0:0,0:0:0:0:
454,123,109591,2,0,P|491:180|463:299,1,181.999994445801,2|2,2:0|2:0,0:0:0:0:
383,265,110602,1,2,2:0:0:0:
319,330,110939,6,0,P|261:357|180:332,1,136.499995834351,2|0,2:0|0:0,0:0:0:0:
163,304,111613,2,0,P|128:228|45:265,1,181.999994445801,2|2,2:0|2:0,0:0:0:0:
7,79,112961,38,0,L|117:72,1,90.9999972229005,2|0,2:0|0:0,0:0:0:0:
148,148,113635,2,0,P|209:178|306:110,1,181.999994445801,2|2,2:0|2:0,0:0:0:0:
330,38,114647,1,0,0:0:0:0:
241,56,114984,6,0,P|211:117|279:214,1,181.999994445801,2|2,2:0|2:0,0:0:0:0:
418,304,116332,2,0,P|357:274|260:342,1,181.999994445801,2|2,2:0|2:0,0:0:0:0:
349,362,117343,1,0,0:0:0:0:
418,304,117680,2,0,P|448:243|380:146,1,181.999994445801,2|2,2:0|2:0,0:0:0:0:
218,105,119029,38,0,L|222:6,2,90.9999972229005,2|0|2,2:0|2:0|2:0,0:0:0:0:
36,183,120714,1,0,2:0:0:0:
40,273,121051,2,0,L|44:372,2,90.9999972229005,2|0|2,2:0|0:0|2:0,0:0:0:0:
217,178,122399,2,0,L|211:367,1,181.999994445801,2|2,2:0|2:0,0:0:0:0:
393,250,123748,5,2,2:0:0:0:
423,164,124085,1,0,2:0:0:0:
333,180,124422,2,0,P|305:242|328:315,1,136.499995834351,2|2,2:0|2:0,0:0:0:0:
353,344,125096,1,2,2:0:0:0:
256,192,125267,12,2,128806,0:3:0:0:
393,93,132851,6,0,L|425:73,3,32.5,2|2|2|2,0:3|0:0|0:0|0:0,0:0:0:0:
365,110,133188,6,0,L|217:107,1,130,12|8,2:3|2:3,0:0:0:0:
157,155,133693,2,0,L|86:157,2,65,4|0|8,2:3|0:0|2:3,0:0:0:0:
190,239,134199,2,0,L|189:315,1,65,0|8,0:0|2:3,0:0:0:0:
268,191,134536,1,4,2:3:0:0:
268,191,134704,1,0,0:0:0:0:
345,237,134873,2,0,L|344:313,1,65,4|8,2:3|2:3,0:0:0:0:
427,340,135210,6,0,P|449:257|417:195,1,130,12|8,2:3|2:3,0:0:0:0:
373,150,135716,2,0,L|375:79,2,65,4|0|8,2:3|0:0|2:3,0:0:0:0:
345,237,136221,2,0,L|253:233,1,65,0|8,0:0|3:0,0:0:0:0:
204,285,136558,1,4,2:3:0:0:
204,285,136727,1,8,2:3:0:0:
271,346,136895,2,0,L|362:343,1,65,4|8,2:3|2:3,0:0:0:0:
280,234,137232,6,0,P|219:199|141:217,1,130,8|8,2:3|2:3,0:0:0:0:
113,282,137738,2,0,L|112:364,2,65,4|0|8,2:3|0:0|2:3,0:0:0:0:
70,201,138244,2,0,L|68:120,1,65,0|8,0:0|2:3,0:0:0:0:
67,44,138581,1,4,2:3:0:0:
67,44,138749,1,0,0:0:0:0:
145,88,138918,2,0,L|231:90,1,65,4|8,2:3|2:3,0:0:0:0:
290,46,139255,38,0,P|354:58|402:115,1,130,12|8,2:3|2:3,0:0:0:0:
419,192,139761,2,0,L|416:274,2,65,4|8|8,2:3|2:3|2:3,0:0:0:0:
397,103,140266,21,4,2:3:0:0:
331,165,140435,1,8,2:3:0:0:
270,29,140603,1,4,2:3:0:0:
251,119,140772,1,8,2:3:0:0:
361,20,140940,1,4,2:3:0:0:
183,32,142963,5,0,0:0:0:0:
183,32,143300,6,0,P|123:24|69:39,1,104,2|2,2:1|2:0,0:0:0:0:
17,78,143805,1,0,0:0:0:0:
23,157,143974,2,0,L|28:226,1,52,2|0,2:0|0:0,0:0:0:0:
74,272,144311,2,0,L|145:266,1,52,2|0,2:1|0:0,0:0:0:0:
156,186,144648,2,0,L|85:192,1,52,2|0,2:0|0:0,0:0:0:0:
204,261,144985,1,2,2:0:0:0:
204,261,145322,6,0,B|273:255|273:255|318:294,1,104,2|2,2:1|2:0,0:0:0:0:
357,330,145828,1,0,0:0:0:0:
431,303,145996,2,0,B|436:240|436:240|419:169,1,104,2|2,2:0|2:1,0:0:0:0:
392,48,146671,1,2,2:0:0:0:
277,153,147008,1,2,2:0:0:0:
157,52,147345,6,0,P|103:44|52:56,1,104,2|2,2:1|2:0,0:0:0:0:
2,112,147850,1,0,0:0:0:0:
6,190,148019,2,0,L|8:251,1,52,2|0,2:0|0:0,0:0:0:0:
91,279,148356,2,0,L|94:170,1,104,2|2,2:1|2:0,0:0:0:0:
158,131,148862,1,0,0:0:0:0:
231,160,149030,2,0,L|233:221,1,52,2|0,2:0|0:0,0:0:0:0:
220,82,149367,6,0,L|288:80,1,52,2|0,2:1|0:0,0:0:0:0:
347,56,149704,2,0,L|345:0,1,52,2|0,2:0|0:0,0:0:0:0:
424,69,150041,2,0,L|422:125,1,52,2|0,2:0|0:0,0:0:0:0:
502,55,150379,1,2,2:1:0:0:
502,55,150716,6,0,L|504:111,1,52,2|0,2:0|0:0,0:0:0:0:
475,180,151053,2,0,L|473:236,1,52,2|0,2:0|0:0,0:0:0:0:
469,311,151390,6,0,P|411:302|347:319,1,104,2|0,2:0|0:0,0:0:0:0:
224,373,152064,1,0,0:0:0:0:
82,306,152401,2,0,P|72:253|82:194,1,104,2|0,2:0|0:0,0:0:0:0:
88,126,152940,2,0,L|88:92,2,20.8
239,165,153412,6,0,P|286:168|352:157,1,104,2|2,2:0|2:0,0:0:0:0:
413,20,154086,1,2,2:0:0:0:
509,142,154423,2,0,L|506:262,1,104,2|0,2:0|0:0,0:0:0:0:
486,321,154963,2,0,L|488:356,2,20.8
341,266,155435,6,0,P|275:259|237:266,1,104,2|0,2:0|0:0,0:0:0:0:
183,321,155940,1,0,0:0:0:0:
105,317,156109,2,0,L|103:249,1,52
58,201,156446,2,0,L|62:137,1,52,2|0,2:0|0:0,0:0:0:0:
125,101,156783,2,0,L|199:108,1,52
52,70,157120,2,0,L|-22:77,1,52
116,22,157457,6,0,P|178:13|228:41,1,104,2|0,2:0|0:0,0:0:0:0:
269,86,157963,1,0,0:0:0:0:
345,106,158131,1,0,0:0:0:0:
417,76,158300,1,0,0:0:0:0:
380,6,158468,6,2,P|343:49|349:115,1,116.999996429443,2|0,2:0|0:0,2:0:0:0:
408,154,158974,1,0,0:0:0:0:
426,237,159143,1,0,0:0:0:0:
396,317,159311,1,0,0:0:0:0:
341,249,159480,6,0,P|281:230|190:250,1,130,14|0,2:1|0:0,0:0:0:0:
146,298,159985,1,2,2:0:0:0:
209,362,160154,2,0,L|288:364,1,65,8|8,2:1|2:0,0:0:0:0:
146,298,160491,2,0,P|112:293|69:299,1,65,8|0,2:1|0:0,0:0:0:0:
30,219,160828,2,0,L|36:138,1,65,8|2,2:1|2:0,0:0:0:0:
68,68,161165,2,0,P|96:85|117:110,1,65,8|0,2:0|0:0,0:0:0:0:
193,221,161502,6,0,L|191:135,1,65,10|0,2:1|0:0,0:0:0:0:
191,60,161839,1,8,2:3:0:0:
117,109,162008,1,0,0:0:0:0:
191,156,162176,2,0,P|232:157|274:150,1,65,8|8,2:1|2:0,0:0:0:0:
315,85,162513,1,8,2:1:0:0:
315,85,162682,1,8,2:0:0:0:
404,102,162850,2,0,L|407:183,1,65,8|2,2:1|2:3,0:0:0:0:
409,258,163187,1,10,2:0:0:0:
329,214,163356,1,2,2:0:0:0:
257,270,163525,6,0,P|172:269|126:242,1,130,10|0,2:1|0:0,0:0:0:0:
61,194,164030,1,2,2:0:0:0:
31,280,164199,2,0,L|33:360,1,65,8|8,2:1|2:0,0:0:0:0:
61,194,164536,2,0,L|64:104,1,65,8|0,2:1|0:0,0:0:0:0:
150,102,164873,2,0,L|152:167,1,65,8|2,2:3|2:0,0:0:0:0:
240,142,165210,2,0,L|243:52,1,65,10|0,2:0|0:0,0:0:0:0:
217,230,165547,6,0,L|220:302,1,65,10|0,2:1|0:0,0:0:0:0:
260,376,165884,1,8,2:3:0:0:
313,301,166053,1,0,0:0:0:0:
372,371,166221,2,0,L|453:372,1,65,8|8,2:1|2:0,0:0:0:0:
464,271,166558,6,0,L|383:270,1,65,8|2,2:1|2:3,0:0:0:0:
313,301,166895,1,8,2:0:0:0:
258,229,167064,1,8,2:1:0:0:
307,152,167232,1,12,2:0:0:0:
394,179,167401,1,0,0:0:0:0:
482,155,167570,6,0,P|481:94|421:36,1,130,14|0,2:1|0:0,0:0:0:0:
351,16,168075,1,2,2:0:0:0:
275,66,168244,2,0,L|194:61,1,65,8|8,2:1|2:0,0:0:0:0:
122,35,168581,2,0,L|116:125,1,65,8|0,2:1|0:0,0:0:0:0:
53,163,168918,2,0,L|57:243,1,65,8|0,2:3|0:0,0:0:0:0:
143,254,169255,2,0,L|139:190,1,65,8|0,2:0|0:0,0:0:0:0:
220,147,169592,6,0,P|274:137|346:165,1,130,10|8,2:1|2:3,0:0:0:0:
408,225,170098,1,8,2:0:0:0:
320,249,170266,2,0,L|321:330,1,65,8|8,2:1|2:0,0:0:0:0:
408,225,170603,2,0,P|429:162|396:86,1,130,8|8,2:1|2:1,0:0:0:0:
324,75,171109,1,2,2:3:0:0:
389,11,171277,2,0,L|478:15,1,65,8|2,2:0|2:0,0:0:0:0:
324,75,171614,6,0,P|244:87|191:72,1,130,10|0,2:1|0:0,0:0:0:0:
117,117,172120,1,2,2:0:0:0:
36,74,172289,2,0,L|35:3,1,65,8|8,2:1|2:0,0:0:0:0:
117,117,172626,6,0,L|119:260,1,130,8|8,2:1|2:1,0:0:0:0:
49,305,173131,1,2,2:0:0:0:
133,339,173300,2,0,L|216:335,1,65,10|2,2:0|2:0,0:0:0:0:
119,247,173637,1,14,2:1:0:0:
179,63,173974,5,8,2:3:0:0:
179,63,174143,1,4,2:3:0:0:
259,107,174311,1,2,2:0:0:0:
259,107,174480,1,8,2:1:0:0:
181,154,174648,2,0,L|95:156,1,65,8|2,2:0|2:3,0:0:0:0:
261,198,174985,2,0,L|347:196,1,65,8|8,2:0|2:1,0:0:0:0:
183,245,175322,5,8,2:0:0:0:
263,289,175491,1,8,2:0:0:0:
186,337,175659,1,14,2:1:0:0:
256,192,175828,12,0,178525,0:0:0:0:
