osu file format v14

[General]
AudioFilename: audio.mp3
AudioLeadIn: 0
PreviewTime: 2519
Countdown: 0
SampleSet: Soft
StackLeniency: 0.7
Mode: 0
LetterboxInBreaks: 0
WidescreenStoryboard: 0

[Editor]
Bookmarks: 2711,14970,28251,36424,48683
DistanceSpacing: 1
BeatDivisor: 4
GridSize: 8
TimelineZoom: 1.4

[Metadata]
Title:Attack! Gag Manga Biyori
TitleUnicode:アタック!ギャグマンガ日和
Artist:Yamamoto Harukichi
ArtistUnicode:山本はるきち
Creator:amanatu2
Version:Extra
Source:ギャグマンガ日和
Tags:うえだゆうじ Ueda Yuuji 増田こうすけ Masuda Kousuke
BeatmapID:2073738
BeatmapSetID:991596

[Difficulty]
HPDrainRate:4
CircleSize:3
OverallDifficulty:9
ApproachRate:9.4
SliderMultiplier:1.4
SliderTickRate:1

[Events]
//Background and Video events
0,0,"cache_10478acf-4ae4-4e4c-ce26-2437be3c3d95.png",0,0
//Break Periods
//Storyboard Layer 0 (Background)
//Storyboard Layer 1 (Fail)
//Storyboard Layer 2 (Pass)
//Storyboard Layer 3 (Foreground)
//Storyboard Layer 4 (Overlay)
//Storyboard Sound Samples

[TimingPoints]
668,510.812191384301,4,2,0,90,1,0
668,-50,4,2,0,90,0,0
2711,-66.6666666666667,4,2,0,70,0,0
6286,-33.3333333333333,4,2,0,80,0,0
6797,-66.6666666666667,4,2,0,70,0,0
10373,-33.3333333333333,4,2,0,80,0,0
10884,-50,4,2,0,75,0,0
12927,-50,4,2,0,95,0,0
14459,-50,4,2,0,85,0,0
14715,-50,4,2,0,90,0,0
14970,-33.3333333333333,4,2,0,90,0,0
18546,-28.5714285714286,4,2,0,95,0,0
19057,-33.3333333333333,4,2,0,90,0,0
22632,-28.5714285714286,4,2,0,95,0,0
23143,-33.3333333333333,4,2,0,90,0,0
25186,-33.3333333333333,4,2,0,100,0,0
26208,-33.3333333333333,4,2,0,80,0,0
26719,-33.3333333333333,4,2,0,75,0,0
27230,510.812191384301,4,2,0,75,1,0
28251,510.812191384301,4,2,0,75,1,0
30294,-40,4,2,0,80,0,0
34380,-40,4,2,0,75,0,0
36423,-66.6666666666667,4,2,0,70,0,0
39999,-33.3333333333333,4,2,0,80,0,0
40510,-66.6666666666667,4,2,0,70,0,0
44086,-33.3333333333333,4,2,0,80,0,0
44596,-50,4,2,0,75,0,0
46640,-50,4,2,0,95,0,0
48172,-50,4,2,0,85,0,0
48428,-50,4,2,0,90,0,0
48683,-33.3333333333333,4,2,0,90,0,0
52259,-28.5714285714286,4,2,0,95,0,0
52769,-33.3333333333333,4,2,0,90,0,0
56345,-28.5714285714286,4,2,0,95,0,0
56856,-33.3333333333333,4,2,0,90,0,0
58899,-33.3333333333333,4,2,0,100,0,0
59921,-33.3333333333333,4,2,0,80,0,0
60432,-33.3333333333333,4,2,0,75,0,0

[HitObjects]
114,36,668,6,0,L|128:160,1,70,4|0,1:2|0:0,0:0:0:0:
303,345,923,1,8,0:0:0:0:
374,89,1051,1,0,1:0:0:0:
98,262,1178,5,0,1:0:0:0:
190,164,1306,1,0,1:0:0:0:
325,181,1434,1,0,1:0:0:0:
333,356,1561,1,0,0:0:0:0:
107,289,1689,5,4,1:2:0:0:
435,219,1817,1,4,1:2:0:0:
230,369,1944,5,4,1:2:0:0:
282,15,2072,1,4,1:2:0:0:
48,223,2455,1,8,0:3:0:0:
48,223,2711,6,0,P|94:201|175:228,1,105.000004005432,0|0,1:0|0:0,0:0:0:0:
270,301,3094,1,0,0:0:0:0:
173,345,3222,2,0,P|153:353|115:351,1,52.5000020027161
254,204,3477,2,0,P|274:196|312:198,1,52.5000020027161
460,264,3732,5,0,1:0:0:0:
460,264,3860,1,0,0:0:0:0:
359,331,3988,1,0,0:0:0:0:
359,331,4115,1,0,0:0:0:0:
305,196,4243,1,0,0:0:0:0:
305,196,4371,1,0,0:0:0:0:
463,117,4499,1,0,0:0:0:0:
463,117,4626,1,0,0:0:0:0:
329,31,4754,5,0,1:0:0:0:
287,111,4881,1,0,0:0:0:0:
205,149,5009,1,0,0:0:0:0:
117,131,5137,1,0,1:0:0:0:
57,63,5265,2,0,L|178:48,1,105.000004005432,0|0,1:0|0:0,0:0:0:0:
392,123,5648,1,0,1:0:0:0:
392,123,5776,2,0,L|331:115,1,52.5000020027161,0|8,1:0|0:3,0:0:0:0:
192,154,6031,1,8,0:3:0:0:
43,191,6159,1,4,0:3:0:0:
207,375,6286,6,2,B|240:334|240:334|205:205,1,157.500006008148,4|0,1:2|0:0,0:1:0:0:
43,191,6542,2,2,B|10:232|10:232|45:361,1,157.500006008148,4|0,1:2|0:0,0:1:0:0:
126,212,6797,6,0,P|129:179|121:150,1,52.5000020027161,0|0,1:0|0:0,0:0:0:0:
259,13,7053,2,0,P|237:37|226:66,1,52.5000020027161
265,161,7308,2,0,P|234:147|204:146,1,52.5000020027161
34,96,7563,2,0,P|66:88|91:72,1,52.5000020027161,0|0,0:0|1:0,0:0:0:0:
148,15,7819,5,0,1:0:0:0:
148,15,7947,1,0,0:0:0:0:
177,224,8074,1,0,0:0:0:0:
177,224,8202,1,0,0:0:0:0:
312,40,8330,1,0,0:0:0:0:
312,40,8458,1,0,0:0:0:0:
356,184,8585,1,0,0:0:0:0:
356,184,8712,1,0,1:0:0:0:
159,129,8840,5,0,1:0:0:0:
221,250,8968,2,0,L|230:183,1,52.5000020027161
286,113,9224,1,0,1:0:0:0:
335,283,9351,1,0,1:0:0:0:
136,201,9479,1,0,0:0:0:0:
210,329,9607,1,0,0:0:0:0:
228,198,9734,1,0,1:0:0:0:
118,332,9862,5,0,1:0:0:0:
42,281,9989,1,8,0:3:0:0:
13,196,10117,1,4,0:3:0:0:
40,110,10245,1,4,0:3:0:0:
114,58,10373,6,2,B|189:35|189:35|269:88,1,157.500006008148,4|0,1:2|0:0,0:1:0:0:
234,230,10628,2,2,B|159:253|159:253|79:200,1,157.500006008148,4|0,1:2|0:0,0:1:0:0:
174,144,10884,5,0,1:0:0:0:
246,221,11011,2,0,P|261:265|257:307,1,70
175,364,11267,1,0,0:0:0:0:
323,384,11395,1,0,0:0:0:0:
323,384,11522,1,0,0:0:0:0:
138,268,11650,2,0,P|146:225|169:180,1,70
286,97,11905,6,0,L|305:194,1,70,0|0,1:0|0:0,0:0:0:0:
420,137,12161,1,0,0:0:0:0:
387,313,12288,2,0,L|422:130,1,140
501,335,12672,1,0,1:0:0:0:
306,196,12799,1,0,1:0:0:0:
34,321,12927,5,12,0:0:0:0:
34,321,14459,5,8,0:3:0:0:
42,334,14545,5,4,0:3:0:0:
50,347,14630,5,4,0:3:0:0:
73,321,14715,6,0,P|79:285|63:234,1,70,4|0,1:0|0:0,0:0:0:0:
7,96,14970,6,0,P|58:122|153:96,1,105.000004005432,4|0,1:2|0:0,0:0:0:0:
383,71,15226,2,0,P|356:115|312:142,1,105.000004005432,8|0,0:0|1:0,0:0:0:0:
354,380,15481,2,0,P|305:348|281:253,1,105.000004005432,0|0,1:0|1:0,0:0:0:0:
241,71,15737,2,0,P|215:116|214:168,1,105.000004005432,8|0,0:0|1:0,0:0:0:0:
186,335,15992,5,0,1:0:0:0:
374,230,16120,1,0,0:0:0:0:
127,206,16247,1,8,0:0:0:0:
283,358,16375,1,0,1:0:0:0:
253,198,16503,5,0,1:0:0:0:
393,343,16630,1,0,1:0:0:0:
98,304,16758,1,8,0:0:0:0:
242,106,16886,1,0,1:0:0:0:
262,366,17013,5,0,1:0:0:0:
390,122,17141,1,0,0:0:0:0:
127,206,17269,1,8,0:0:0:0:
421,257,17397,1,0,1:0:0:0:
148,309,17524,5,0,1:0:0:0:
380,161,17652,1,0,1:0:0:0:
340,294,17780,1,8,0:0:0:0:
111,102,17908,1,0,1:0:0:0:
352,190,18034,5,0,1:0:0:0:
77,202,18162,1,8,0:3:0:0:
251,285,18290,1,8,0:3:0:0:
149,4,18418,1,4,0:3:0:0:
386,36,18546,6,2,B|417:56|417:56|259:70,1,183.750001752377,12|0,1:2|0:0,0:0:0:0:
81,55,18801,2,2,B|49:34|49:34|207:20,1,183.750001752377,12|0,1:2|0:0,0:0:0:0:
367,230,19057,6,0,L|377:348,1,105.000004005432,4|0,1:0|0:0,0:0:0:0:
239,154,19312,2,0,L|343:145,1,105.000004005432,8|0,0:0|1:0,0:0:0:0:
162,276,19568,2,0,L|140:29,1,210.000008010865,0|8,1:0|0:0,0:0:0:0:
47,167,19951,1,0,1:0:0:0:
62,338,20078,5,0,1:0:0:0:
250,171,20206,1,0,0:0:0:0:
344,353,20334,1,8,0:0:0:0:
115,227,20461,1,0,1:0:0:0:
347,252,20589,5,0,1:0:0:0:
139,101,20717,1,0,1:0:0:0:
183,309,20845,1,8,0:0:0:0:
338,100,20972,1,0,1:0:0:0:
452,293,21100,5,0,1:0:0:0:
247,191,21228,1,0,0:0:0:0:
505,140,21355,1,8,0:0:0:0:
362,330,21483,1,0,1:0:0:0:
198,74,21611,5,0,1:0:0:0:
403,176,21739,1,0,1:0:0:0:
288,37,21866,1,8,0:0:0:0:
145,227,21994,1,0,1:0:0:0:
275,133,22122,5,0,1:0:0:0:
17,184,22250,1,4,0:3:0:0:
222,286,22377,1,4,0:3:0:0:
132,323,22505,1,4,0:3:0:0:
319,373,22632,6,2,B|339:326|339:326|318:159,1,183.750001752377,12|0,1:2|0:0,0:0:0:0:
423,49,22888,2,2,B|403:96|403:96|424:263,1,183.750001752377,12|0,1:2|0:0,0:0:0:0:
482,346,23143,5,4,1:0:0:0:
323,112,23271,1,0,0:0:0:0:
111,271,23399,1,8,0:0:0:0:
420,227,23526,1,0,1:0:0:0:
212,353,23654,5,0,1:0:0:0:
226,91,23782,1,0,1:0:0:0:
393,306,23909,1,8,0:0:0:0:
88,247,24037,1,0,1:0:0:0:
357,99,24165,6,0,L|361:211,1,105.000004005432,0|0,1:0|0:0,0:0:0:0:
115,349,24420,1,8,0:0:0:0:
143,152,24548,1,0,1:0:0:0:
340,298,24676,5,0,1:0:0:0:
468,220,24803,1,0,3:0:0:0:
425,41,24931,1,0,3:0:0:0:
169,0,25059,1,8,3:0:0:0:
42,383,25186,5,4,1:2:0:0:
268,105,26208,5,8,0:3:0:0:
268,105,26336,1,4,0:3:0:0:
173,214,26464,1,8,1:2:0:0:
406,229,26591,1,4,1:0:0:0:
256,192,26719,12,0,27740,0:0:0:0:
216,240,28251,5,0,1:0:0:0:
232,264,28378,1,0,0:0:0:0:
280,264,28506,1,8,0:0:0:0:
320,232,28634,1,0,0:0:0:0:
330,160,28761,5,0,1:0:0:0:
280,96,28888,1,0,1:0:0:0:
188,116,29016,1,8,0:0:0:0:
142,204,29144,1,0,1:0:0:0:
208,304,29272,5,0,1:0:0:0:
104,192,29400,1,0,0:0:0:0:
200,32,29528,1,8,0:0:0:0:
416,48,29655,1,0,1:0:0:0:
480,264,29783,5,0,0:0:0:0:
272,384,29911,1,0,1:0:0:0:
0,256,30038,1,8,0:3:0:0:
128,0,30166,1,4,0:3:0:0:
504,136,30294,6,0,B|516:176|506:220|445:232|390:156|429:89|429:89|381:130|319:112|319:112|326:109|326:109|233:77|136:145|136:145|168:131|212:135,1,612.5,0|0,1:0|0:0,0:0:0:0:
262,204,31315,2,0,P|274:241|249:300,2,87.5,0|8|8,1:0|0:3|0:0,0:0:0:0:
88,274,31698,2,0,B|148:289|185:245|185:245|159:291|175:341|198:372|246:387|300:382|323:343,1,350,0|8,1:0|0:0,0:0:0:0:
364,274,32337,1,4,1:2:0:0:
289,1,32593,5,8,0:0:0:0:
378,5,32720,1,0,1:0:0:0:
446,60,32848,1,0,1:0:0:0:
468,145,32976,1,0,1:0:0:0:
438,228,33103,1,8,0:0:0:0:
364,274,33231,1,0,1:0:0:0:
276,270,33359,5,0,1:0:0:0:
276,270,33422,1,0,0:0:0:0:
276,270,33486,1,0,0:0:0:0:
346,218,33614,1,8,0:0:0:0:
336,130,33742,1,0,1:0:0:0:
256,94,33870,1,0,0:0:0:0:
185,146,33997,1,0,1:0:0:0:
114,198,34125,1,8,0:3:0:0:
34,162,34253,1,4,0:3:0:0:
105,110,34380,5,4,1:2:0:0:
416,273,34636,1,8,0:0:0:0:
131,327,34763,1,0,1:0:0:0:
114,198,34891,1,0,1:0:0:0:
341,345,35019,1,0,1:0:0:0:
370,182,35146,1,8,0:0:0:0:
56,259,35274,1,8,0:3:0:0:
230,369,35402,5,4,0:3:0:0:
282,15,35530,1,8,0:0:0:0:
100,95,35657,5,8,0:0:0:0:
479,238,35785,1,8,0:0:0:0:
214,339,36168,1,8,0:3:0:0:
214,339,36423,6,0,P|237:293|231:258,1,52.5000020027161,0|0,1:0|0:0,0:0:0:0:
163,154,36679,2,0,P|134:111|101:98,1,52.5000020027161
84,281,36934,2,0,P|102:262|126:252,1,52.5000020027161
265,178,37189,2,0,P|290:185|310:200,1,52.5000020027161
387,343,37445,6,0,B|416:312|416:312|405:218,1,105.000004005432,0|0,1:0|0:0,0:0:0:0:
494,93,37828,1,0,0:0:0:0:
392,148,37956,1,0,0:0:0:0:
392,148,38084,1,0,0:0:0:0:
314,39,38211,1,0,0:0:0:0:
314,39,38339,1,0,0:0:0:0:
452,15,38467,5,0,1:0:0:0:
444,103,38594,1,0,0:0:0:0:
437,193,38722,1,0,0:0:0:0:
429,283,38850,1,0,0:0:0:0:
423,373,38978,2,0,P|376:354|316:353,1,105.000004005432,0|0,1:0|0:0,0:0:0:0:
158,298,39361,1,0,1:0:0:0:
158,298,39488,2,0,P|192:291|230:292,1,52.5000020027161,0|8,1:0|0:3,0:0:0:0:
393,208,39744,1,8,0:3:0:0:
219,91,39871,1,4,0:3:0:0:
425,121,39999,6,2,P|409:46|318:2,1,157.500006008148,4|0,1:2|0:0,1:0:0:0:
219,91,40255,2,2,P|235:167|299:209,1,157.500006008148,4|0,1:2|0:0,1:0:0:0:
142,27,40510,6,0,P|128:50|122:98,1,52.5000020027161,0|0,1:0|0:0,0:0:0:0:
56,208,40765,2,0,P|69:231|107:261,1,52.5000020027161
170,373,41021,2,0,P|196:373|241:354,1,52.5000020027161
395,273,41276,1,0,0:0:0:0:
395,273,41404,1,0,1:0:0:0:
303,241,41532,5,0,1:0:0:0:
322,336,41660,1,0,0:0:0:0:
212,273,41787,1,0,0:0:0:0:
231,178,41915,1,0,0:0:0:0:
159,115,42042,1,0,0:0:0:0:
140,210,42170,1,0,0:0:0:0:
250,147,42297,1,0,0:0:0:0:
231,52,42425,1,0,1:0:0:0:
67,146,42553,5,0,1:0:0:0:
212,273,42681,1,0,0:0:0:0:
212,273,42809,1,0,0:0:0:0:
57,317,42936,1,0,1:0:0:0:
180,359,43064,1,0,1:0:0:0:
114,230,43192,1,0,0:0:0:0:
232,182,43319,1,0,0:0:0:0:
166,53,43447,1,0,1:0:0:0:
7,105,43575,5,0,1:0:0:0:
95,97,43702,1,8,0:3:0:0:
185,90,43830,1,4,0:3:0:0:
275,82,43958,1,4,0:3:0:0:
365,76,44086,6,2,B|399:77|422:95|422:95|401:239,1,157.500006008148,4|0,1:2|0:0,1:0:0:0:
279,277,44341,2,2,B|244:275|222:258|222:258|243:114,1,157.500006008148,4|0,1:2|0:0,1:0:0:0:
275,82,44596,5,0,1:0:0:0:
369,271,44724,1,0,0:0:0:0:
322,177,44852,1,0,0:0:0:0:
428,174,44980,1,0,0:0:0:0:
279,277,45107,1,0,0:0:0:0:
279,277,45235,1,0,0:0:0:0:
144,186,45363,1,0,0:0:0:0:
144,186,45490,1,0,0:0:0:0:
81,323,45618,6,0,P|95:288|91:245,1,70,0|0,1:0|0:0,0:0:0:0:
21,141,45874,1,0,0:0:0:0:
160,29,46001,2,0,L|175:170,1,140
242,335,46384,1,0,1:0:0:0:
302,87,46512,1,0,1:0:0:0:
478,321,46640,5,12,0:0:0:0:
478,321,48172,5,8,0:3:0:0:
470,334,48258,5,4,0:3:0:0:
462,347,48343,5,4,0:3:0:0:
439,321,48428,6,0,P|433:285|449:234,1,70,4|0,1:0|0:0,0:0:0:0:
351,44,48683,6,0,L|318:208,1,105.000004005432,4|0,1:0|0:0,0:0:0:0:
198,372,48938,2,0,L|165:208,1,105.000004005432,8|0,0:0|1:0,0:0:0:0:
89,79,49194,2,0,L|191:99,1,105.000004005432,0|0,1:0|1:0,0:0:0:0:
440,252,49449,2,0,L|337:272,1,105.000004005432,8|0,0:0|1:0,0:0:0:0:
67,190,49705,5,0,1:0:0:0:
294,175,49832,1,0,0:0:0:0:
192,99,49960,1,8,0:0:0:0:
177,269,50088,1,0,1:0:0:0:
308,71,50215,5,0,1:0:0:0:
337,272,50343,1,0,1:0:0:0:
123,175,50471,1,8,0:0:0:0:
410,136,50599,1,0,1:0:0:0:
395,373,50726,5,0,1:0:0:0:
264,213,50854,1,0,0:0:0:0:
138,373,50982,1,8,0:0:0:0:
351,296,51109,1,0,1:0:0:0:
44,247,51237,5,0,1:0:0:0:
248,213,51365,1,0,1:0:0:0:
172,24,51493,1,8,0:0:0:0:
133,247,51620,1,0,1:0:0:0:
328,7,51748,5,0,1:0:0:0:
255,200,51876,1,8,0:3:0:0:
457,229,52004,1,8,0:3:0:0:
283,83,52131,1,4,0:3:0:0:
141,337,52259,6,2,B|135:289|135:289|88:221|88:221|81:150,1,183.750001752377,12|0,1:2|0:0,0:0:0:0:
236,17,52514,2,2,B|230:64|230:64|183:132|183:132|176:203,1,183.750001752377,12|0,1:2|0:0,0:0:0:0:
328,338,52769,6,0,B|298:294|298:294|307:202,1,105.000004005432,4|0,1:0|0:0,0:0:0:0:
489,100,53025,2,0,B|459:144|459:144|468:236,1,105.000004005432,8|0,0:0|1:0,0:0:0:0:
178,185,53280,2,0,B|208:141|208:141|199:49,1,105.000004005432,0|0,1:0|1:0,0:0:0:0:
17,253,53536,2,0,B|47:297|47:297|38:389,1,105.000004005432,8|0,0:0|1:0,0:0:0:0:
328,338,53791,6,0,B|341:300|341:300|141:320,1,210.000008010865,0|8,1:0|0:0,0:0:0:0:
203,89,54174,1,0,1:0:0:0:
361,150,54302,5,0,1:0:0:0:
82,122,54430,1,0,1:0:0:0:
298,21,54557,1,8,0:0:0:0:
312,258,54685,1,0,1:0:0:0:
187,55,54813,5,0,1:0:0:0:
74,262,54940,1,0,0:0:0:0:
266,154,55068,1,8,0:0:0:0:
0,110,55196,1,0,1:0:0:0:
236,329,55324,5,0,1:0:0:0:
349,122,55451,1,0,1:0:0:0:
423,274,55579,1,8,0:0:0:0:
157,230,55707,1,0,1:0:0:0:
246,85,55834,5,0,1:0:0:0:
320,237,55961,1,4,0:3:0:0:
433,30,56089,1,4,0:3:0:0:
512,129,56217,1,4,0:3:0:0:
432,294,56345,6,2,P|419:180|387:101,1,183.750001752377,12|0,1:2|0:0,0:0:0:0:
248,22,56601,2,2,P|218:108|210:200,1,183.750001752377,12|0,1:2|0:0,0:0:0:0:
214,358,56856,5,4,1:0:0:0:
54,186,56984,1,0,0:0:0:0:
322,222,57111,1,8,0:0:0:0:
81,283,57239,1,0,1:0:0:0:
237,96,57367,5,0,1:0:0:0:
334,326,57494,1,0,1:0:0:0:
456,117,57622,1,8,0:0:0:0:
141,173,57750,1,0,1:0:0:0:
436,306,57878,6,0,L|409:163,1,105.000004005432,0|0,1:0|0:0,0:0:0:0:
341,45,58133,1,8,0:0:0:0:
237,262,58261,1,0,1:0:0:0:
87,66,58388,5,0,1:0:0:0:
248,93,58516,1,0,3:0:0:0:
347,342,58644,1,0,3:0:0:0:
59,384,58772,1,8,3:0:0:0:
168,0,58899,5,4,1:2:0:0:
244,105,59921,5,8,0:3:0:0:
244,105,60049,1,4,0:3:0:0:
339,214,60177,1,8,1:2:0:0:
106,229,60304,1,4,1:2:0:0:
256,192,60432,12,0,62730,0:0:0:0:
