osu file format v14

[General]
AudioFilename: Super Sonico The Animation Opening.mp3
AudioLeadIn: 0
PreviewTime: 64673
Countdown: 0
SampleSet: Normal
StackLeniency: 0.7
Mode: 0
LetterboxInBreaks: 0
WidescreenStoryboard: 0

[Editor]
Bookmarks: 70030,70125,70221,70412,70507,70603,70698,70794
DistanceSpacing: 1.3
BeatDivisor: 4
GridSize: 4
TimelineZoom: 2.4

[Metadata]
Title:Supa Soni
TitleUnicode:すぱそにっ♥
Artist:Yamamoto Ayano
ArtistUnicode:山本彩乃
Creator:Ntasuto
Version:SupaSoni
Source:SUPER SONICO THE ANIMATION
Tags:そにアニ opening Super Sonico Nitroplus tv size
BeatmapID:412088
BeatmapSetID:170167

[Difficulty]
HPDrainRate:6.5
CircleSize:4
OverallDifficulty:8.4
ApproachRate:9
SliderMultiplier:2
SliderTickRate:1

[Events]
//Background and Video events
0,0,"bg.jpg",0,0
Video,0,"Sonicovideo.avi"
//Break Periods
//Storyboard Layer 0 (Background)
//Storyboard Layer 1 (Fail)
//Storyboard Layer 2 (Pass)
//Storyboard Layer 3 (Foreground)
//Storyboard Sound Samples

[TimingPoints]
470,382.165605095541,4,1,0,50,1,0
3527,-66.6666666666667,4,1,0,60,0,0
14227,-66.6666666666667,4,1,0,70,0,0
15756,-100,4,1,0,80,0,0
27603,-100,4,3,0,80,0,0
27985,-100,4,2,0,80,0,0
50915,-66.6666666666667,4,1,0,80,0,0
52444,-100,4,1,0,80,0,0
64673,-100,4,1,0,80,0,1
76520,-100,4,1,0,90,0,0
76903,-66.6666666666667,4,1,0,90,0,0

[Colours]
Combo1 : 159,177,251
Combo2 : 247,187,121
Combo3 : 229,229,229
Combo4 : 253,168,198

[HitObjects]
40,112,3527,5,4,0:0:0:0:
300,264,3718,1,0,0:0:0:0:
428,184,3909,1,8,0:0:0:0:
436,132,4005,1,0,0:0:0:0:
404,92,4100,1,0,0:0:0:0:
352,84,4196,2,0,P|280:80|192:20,1,150.000005722046
120,160,4482,2,0,P|95:208|58:231,1,75.0000028610231
226,258,4673,2,2,P|298:240|372:252,1,150.000005722046,10|0,0:0|0:0,0:0:0:0:
160,36,5055,5,0,0:0:0:0:
156,336,5247,1,0,0:0:0:0:
60,220,5438,1,8,0:0:0:0:
56,168,5533,1,0,0:0:0:0:
84,124,5629,1,0,0:0:0:0:
132,104,5724,2,0,P|204:100|292:40,1,150.000005722046
396,148,6011,2,0,P|369:174|355:208,1,75.0000028610231
256,320,6202,2,2,L|96:268,1,150.000005722046,10|0,0:0|0:0,0:0:0:0:
279,23,6584,5,0,0:0:0:0:
344,316,6775,1,0,0:0:0:0:
433,187,6966,1,8,0:0:0:0:
408,144,7062,1,0,0:0:0:0:
373,105,7157,1,0,0:0:0:0:
327,75,7253,2,0,P|296:55|279:23,1,75.0000028610231
184,308,7540,2,0,P|215:328|233:361,1,75.0000028610231
288,227,7731,2,2,P|339:173|407:143,1,150.000005722046,10|0,0:0|0:0,0:0:0:0:
112,104,8113,6,0,L|65:44,1,75.0000028610231,2|0,0:0|0:0,0:0:0:0:
48,196,8304,2,0,L|19:265,1,75.0000028610231,2|0,0:0|0:0,0:0:0:0:
172,268,8495,2,0,L|335:251,1,150.000005722046,10|0,0:0|0:0,0:0:0:0:
456,184,8877,1,2,0:0:0:0:
484,148,8973,1,0,0:0:0:0:
512,112,9068,1,0,0:0:0:0:
256,36,9259,1,8,0:0:0:0:
124,108,9641,5,4,0:0:0:0:
412,196,9833,1,0,0:0:0:0:
312,308,10024,1,8,0:0:0:0:
260,308,10119,1,0,0:0:0:0:
212,292,10215,1,0,0:0:0:0:
168,268,10310,2,0,P|116:284|92:312,1,75.0000028610231
344,116,10597,2,0,P|396:100|420:72,1,75.0000028610231
268,44,10788,2,2,P|217:38|120:88,1,150.000005722046,10|0,0:0|0:0,0:0:0:0:
408,192,11170,5,0,0:0:0:0:
106,192,11361,1,0,0:0:0:0:
232,296,11552,1,8,0:0:0:0:
280,320,11648,1,0,0:0:0:0:
336,320,11743,1,0,0:0:0:0:
388,304,11839,2,0,L|436:244,1,75.0000028610231
152,133,12126,2,0,L|102:196,1,75.0000028610231
252,168,12317,2,2,P|324:132|332:68,1,150.000005722046,10|0,0:0|0:0,0:0:0:0:
404,356,12699,5,0,0:0:0:0:
260,92,12890,1,0,0:0:0:0:
112,64,13081,1,8,0:0:0:0:
92,114,13177,1,0,0:0:0:0:
105,165,13272,1,0,0:0:0:0:
128,212,13368,2,0,P|133:223|136:294,1,75.0000028610231
196,144,13559,2,0,P|190:132|187:61,1,75.0000028610231
416,260,13845,2,2,P|340:284|264:260,1,150.000005722046,10|0,0:0|0:0,0:0:0:0:
484,52,14227,6,0,L|404:156,1,75.0000028610231,2|0,0:0|0:0,0:0:0:0:
416,260,14419,2,0,L|480:304,1,75.0000028610231,2|0,0:0|0:0,0:0:0:0:
392,176,14610,2,0,L|256:84,1,150.000005722046,10|0,0:0|0:0,0:0:0:0:
117,91,14992,1,2,0:0:0:0:
85,124,15087,1,0,0:0:0:0:
54,158,15183,1,0,0:0:0:0:
256,336,15374,1,8,0:0:0:0:
256,48,15756,6,0,P|352:32|424:48,1,100,6|0,0:0|0:0,0:0:0:0:
256,336,16138,2,0,P|160:352|88:336,1,100,8|0,0:0|0:0,0:0:0:0:
400,192,16520,2,0,P|416:288|400:360,1,100,2|0,0:0|0:0,0:0:0:0:
112,192,16903,2,0,P|96:96|112:24,1,100,8|0,0:0|0:0,0:0:0:0:
196,100,17285,5,2,0:0:0:0:
348,132,17476,1,0,0:0:0:0:
316,284,17667,1,8,0:0:0:0:
164,252,17858,1,0,0:0:0:0:
248,118,18049,2,2,P|267:163|255:211,1,100,2|0,0:0|0:0,0:0:0:0:
180,340,18431,5,8,0:0:0:0:
255,211,18622,1,0,0:0:0:0:
348,132,18813,2,0,B|390:125|386:89|437:96,1,100,2|0,0:0|0:0,0:0:0:0:
156,88,19196,2,0,B|114:81|118:45|67:52,1,100,8|0,0:0|0:0,0:0:0:0:
356,296,19578,2,0,B|398:303|394:339|445:332,1,100,2|0,0:0|0:0,0:0:0:0:
164,252,19960,2,0,B|122:259|126:295|75:288,1,100,8|0,0:0|0:0,0:0:0:0:
80,168,20342,5,2,0:0:0:0:
240,184,20533,1,2,0:0:0:0:
264,216,20629,1,2,0:0:0:0:
272,256,20724,2,0,P|248:292|196:328,1,100,8|0,0:0|0:0,0:0:0:0:
240,184,21106,2,0,P|300:120|416:116,1,200,2|8,0:0|0:0,0:0:0:0:
133,95,21871,6,0,L|96:188,1,100,6|0,0:0|0:0,0:0:0:0:
246,324,22253,2,0,L|284:232,1,100,8|0,0:0|0:0,0:0:0:0:
264,56,22635,2,0,L|226:148,1,100,2|0,0:0|0:0,0:0:0:0:
378,288,23017,2,0,L|416:196,1,100,8|0,0:0|0:0,0:0:0:0:
349,95,23399,5,2,0:0:0:0:
232,176,23591,1,0,0:0:0:0:
352,252,23782,1,8,0:0:0:0:
236,328,23973,1,0,0:0:0:0:
104,228,24164,2,2,P|88:172|108:112,1,100,2|0,0:0|0:0,0:0:0:0:
204,16,24546,5,8,0:0:0:0:
176,172,24737,1,0,0:0:0:0:
312,92,24928,2,0,P|376:72|444:96,1,100,2|0,0:0|0:0,0:0:0:0:
276,168,25310,2,0,P|209:173|154:170,1,100,8|0,0:0|0:0,0:0:0:0:
312,92,25692,2,0,P|352:136|356:188,1,100,2|0,0:0|0:0,0:0:0:0:
480,56,26075,1,8,0:0:0:0:
424,204,26266,5,2,0:0:0:0:
400,236,26361,1,2,0:0:0:0:
360,248,26457,1,0,0:0:0:0:
204,164,26648,2,8,P|140:160|107:207,1,100,2|8,0:0|0:0,0:0:0:0:
244,280,27030,1,0,0:0:0:0:
236,96,27221,2,0,P|128:84|52:140,1,200,2|8,0:0|0:0,0:0:0:0:
368,320,27985,5,0,0:0:0:0:
436,132,28368,1,0,1:0:0:0:
368,204,28559,1,0,0:0:0:0:
331,111,28750,2,0,P|239:81|160:136,1,200,0|0,0:0|1:0,0:0:0:0:
267,251,29323,1,0,0:0:0:0:
160,136,29514,6,0,P|119:107|97:63,1,100
96,224,29896,2,0,L|96:368,1,100,0|0,1:0|0:0,0:0:0:0:
256,160,30278,2,0,L|256:52,1,100
416,224,30661,2,0,L|416:368,1,100,0|0,1:0|0:0,0:0:0:0:
256,160,31043,6,0,P|280:76|388:32,1,200,0|0,0:0|1:0,0:0:0:0:
480,152,31616,1,0,0:0:0:0:
416,296,31807,2,0,P|320:304|264:276,1,150
248,260,32189,5,0,1:0:0:0:
248,260,32380,1,0,0:0:0:0:
200,116,32571,5,2,0:0:0:0:
152,88,32667,1,0,0:0:0:0:
96,88,32762,1,0,0:0:0:0:
64,132,32858,1,0,0:0:0:0:
64,188,32954,1,2,0:0:0:0:
104,224,33049,1,0,0:0:0:0:
144,264,33145,1,0,0:0:0:0:
148,320,33240,1,0,0:0:0:0:
196,344,33336,5,2,0:0:0:0:
248,324,33431,1,0,0:0:0:0:
261,270,33527,1,0,0:0:0:0:
272,216,33622,1,0,0:0:0:0:
285,162,33718,2,0,L|333:175,1,50,8|0,0:0|0:0,0:0:0:0:
296,336,33909,2,0,L|247:323,1,50,8|0,0:0|0:0,0:0:0:0:
432,300,34100,1,8,0:0:0:0:
392,168,34482,5,0,1:0:0:0:
432,300,34673,1,0,0:0:0:0:
332,59,34864,2,0,P|428:48|504:116,1,200,0|0,0:0|1:0,0:0:0:0:
332,59,35438,5,0,0:0:0:0:
172,80,35629,2,0,L|116:172,1,100
340,304,36011,2,0,L|396:212,1,100,0|0,1:0|0:0,0:0:0:0:
256,88,36393,2,0,L|200:180,1,100
424,312,36775,2,0,L|480:220,1,100,0|0,1:0|0:0,0:0:0:0:
272,212,37157,6,0,P|172:248|120:160,1,200,0|0,0:0|1:0,0:0:0:0:
232,68,37731,1,0,0:0:0:0:
124,303,37922,2,0,P|71:252|46:182,1,150
44,148,38304,5,0,1:0:0:0:
44,148,38495,1,0,0:0:0:0:
193,131,38686,5,2,0:0:0:0:
246,144,38782,1,0,0:0:0:0:
278,188,38877,1,0,0:0:0:0:
301,238,38973,1,0,0:0:0:0:
301,292,39068,1,2,0:0:0:0:
346,322,39164,1,0,0:0:0:0:
400,316,39259,1,0,0:0:0:0:
432,272,39355,1,0,0:0:0:0:
448,220,39450,5,2,0:0:0:0:
456,164,39546,1,0,0:0:0:0:
460,108,39641,1,0,0:0:0:0:
468,52,39737,1,0,0:0:0:0:
428,12,39833,2,0,L|344:0,1,50,8|0,0:0|0:0,0:0:0:0:
255,60,40024,2,0,L|304:67,1,50,8|0,0:0|0:0,0:0:0:0:
131,36,40215,1,8,0:0:0:0:
220,240,40597,5,0,1:0:0:0:
283,113,40788,2,0,L|304:68,1,50
221,167,40979,2,0,P|131:126|131:33,1,200,0|0,0:0|1:0,0:0:0:0:
283,113,41552,5,0,0:0:0:0:
352,300,41743,2,0,L|280:369,1,100
211,182,42126,2,0,L|282:112,1,100,0|0,1:0|0:0,0:0:0:0:
484,116,42508,2,0,L|412:185,1,100
236,280,42890,2,0,L|307:210,1,100,0|0,1:0|0:0,0:0:0:0:
140,324,43272,6,0,P|40:324|12:236,1,200,0|0,0:0|1:0,0:0:0:0:
100,108,43845,1,0,0:0:0:0:
261,184,44036,2,0,B|236:228|236:228|168:228,1,100
216,60,44419,1,0,1:0:0:0:
256,52,44514,1,0,0:0:0:0:
296,60,44610,1,0,0:0:0:0:
412,224,44801,5,2,0:0:0:0:
228,144,44992,1,2,0:0:0:0:
424,100,45183,1,2,1:0:0:0:
296,252,45374,1,2,0:0:0:0:
96,248,45565,6,0,P|74:318|91:353,1,100
232,204,45947,1,0,1:0:0:0:
96,56,46138,1,0,0:0:0:0:
96,107,46234,1,0,0:0:0:0:
96,156,46329,6,0,P|191:137|243:55,1,200,0|0,0:0|1:0,0:0:0:0:
24,56,46903,1,0,0:0:0:0:
243,54,47094,2,0,L|367:54,1,100
268,328,47476,2,0,L|144:328,1,100,0|0,1:0|0:0,0:0:0:0:
368,328,47858,5,0,0:0:0:0:
200,224,48049,1,0,0:0:0:0:
396,192,48240,1,0,1:0:0:0:
208,88,48431,1,2,0:0:0:0:
160,64,48527,1,0,0:0:0:0:
107,51,48622,2,0,P|46:54|8:76,1,100,2|0,0:0|0:0,0:0:0:0:
24,276,49005,1,0,1:0:0:0:
148,172,49196,1,0,1:0:0:0:
256,276,49387,6,0,B|308:260|308:260|344:204,1,100
408,96,49769,1,8,1:0:0:0:
256,76,49960,1,0,0:0:0:0:
104,96,50151,1,0,0:0:0:0:
136,288,50342,1,0,0:0:0:0:
188,304,50438,1,0,0:0:0:0:
376,288,50629,1,0,0:0:0:0:
324,304,50725,1,0,0:0:0:0:
384,56,50915,5,2,0:0:0:0:
116,92,51106,1,2,0:0:0:0:
384,232,51298,1,10,0:0:0:0:
116,268,51489,1,2,0:0:0:0:
256,334,51680,2,0,B|288:272|256:192|256:192|224:112|256:44,1,300.000011444092,2|12,0:0|0:0,0:0:0:0:
256,43,52444,5,4,0:0:0:0:
410,83,52635,1,0,0:0:0:0:
491,220,52826,1,8,0:0:0:0:
389,343,53017,1,0,0:0:0:0:
334,332,53113,1,0,0:0:0:0:
287,302,53208,1,0,0:0:0:0:
267,251,53304,1,0,0:0:0:0:
253,197,53399,6,0,P|207:179|160:192,1,100,0|8,0:0|0:0,0:0:0:0:
200,344,53782,1,0,0:0:0:0:
160,192,53973,2,0,L|116:92,1,100
80,256,54355,1,8,0:0:0:0:
280,120,54546,5,2,0:0:0:0:
328,148,54641,1,0,0:0:0:0:
384,144,54737,1,2,0:0:0:0:
432,116,54833,1,0,0:0:0:0:
440,64,54928,1,2,0:0:0:0:
280,120,55119,2,0,P|252:168|256:228,1,100,8|2,0:0|0:0,0:0:0:0:
256,336,55501,5,4,0:0:0:0:
97,314,55692,1,0,0:0:0:0:
23,171,55884,1,8,0:0:0:0:
94,27,56075,1,0,0:0:0:0:
149,26,56171,1,0,0:0:0:0:
203,33,56266,1,0,0:0:0:0:
253,54,56361,1,0,0:0:0:0:
296,88,56457,6,0,P|364:84|404:64,1,100,0|8,0:0|0:0,0:0:0:0:
448,192,56839,1,0,0:0:0:0:
272,192,57030,1,0,0:0:0:0:
448,192,57221,1,0,0:0:0:0:
384,320,57412,6,0,P|337:303|288:304,1,100,8|2,0:0|0:0,0:0:0:0:
232,316,57699,1,0,0:0:0:0:
188,280,57794,1,2,0:0:0:0:
164,232,57890,1,0,0:0:0:0:
172,180,57985,1,2,0:0:0:0:
232,316,58177,2,0,P|185:332|135:332,1,100,8|2,0:0|0:0,0:0:0:0:
38,204,58559,5,4,0:0:0:0:
109,60,58750,1,0,0:0:0:0:
268,45,58941,1,8,0:0:0:0:
190,185,59132,1,0,0:0:0:0:
215,233,59227,1,0,0:0:0:0:
263,259,59323,1,0,0:0:0:0:
318,259,59419,1,0,0:0:0:0:
368,240,59514,6,0,P|416:252|452:328,1,100,0|8,0:0|0:0,0:0:0:0:
468,132,59896,1,0,0:0:0:0:
376,316,60087,1,0,0:0:0:0:
292,144,60278,1,0,0:0:0:0:
128,80,60469,6,0,P|80:92|48:168,1,100,8|2,0:0|0:0,0:0:0:0:
68,184,60756,1,0,0:0:0:0:
104,224,60852,1,2,0:0:0:0:
120,276,60947,1,0,0:0:0:0:
100,328,61043,1,2,0:0:0:0:
324,344,61234,5,8,0:0:0:0:
184,204,61425,1,0,0:0:0:0:
373,114,61616,2,0,B|407:136|452:119|452:119|483:193|394:213,1,200,4|8,0:0|0:0,0:0:0:0:
368,212,62094,1,0,0:0:0:0:
328,204,62189,1,0,0:0:0:0:
296,176,62285,1,0,0:0:0:0:
288,136,62380,6,0,P|288:84|328:40,1,100
196,148,62762,2,0,P|217:195|260:224,1,100,8|0,0:0|0:0,0:0:0:0:
159,77,63145,2,0,P|126:108|119:173,1,100,0|0,0:0|0:0,0:0:0:0:
116,208,63431,1,0,0:0:0:0:
132,256,63527,1,8,0:0:0:0:
160,300,63622,1,0,0:0:0:0:
200,328,63718,1,0,0:0:0:0:
396,224,63909,5,2,0:0:0:0:
392,160,64005,1,0,0:0:0:0:
368,100,64100,1,2,0:0:0:0:
316,60,64196,1,0,0:0:0:0:
256,36,64291,1,2,0:0:0:0:
256,348,64673,6,0,L|256:236,1,100,4|0,0:0|0:0,0:0:0:0:
256,108,65055,2,0,P|192:112|128:172,1,150,8|0,0:0|0:0,0:0:0:0:
161,226,65438,2,0,P|206:246|255:247,1,100,4|0,0:0|0:0,0:0:0:0:
344,128,65820,2,0,L|344:252,1,100,8|0,0:0|0:0,0:0:0:0:
276,40,66202,5,2,0:0:0:0:
344,228,66393,1,2,0:0:0:0:
180,116,66584,1,10,0:0:0:0:
164,312,66775,1,2,0:0:0:0:
104,120,66966,2,0,P|116:72|172:40,1,100,2|0,0:0|0:0,0:0:0:0:
303,126,67348,5,8,0:0:0:0:
351,154,67444,1,0,0:0:0:0:
399,182,67540,1,0,0:0:0:0:
476,324,67731,2,0,L|388:272,1,100,4|0,0:0|0:0,0:0:0:0:
236,310,68113,2,0,L|322:360,1,100,8|0,0:0|0:0,0:0:0:0:
256,232,68495,2,0,P|176:252|157:321,1,150,4|0,0:0|0:0,0:0:0:0:
140,248,68877,2,0,L|140:148,1,100,8|0,0:0|0:0,0:0:0:0:
64,28,69259,6,0,P|50:87|73:142,1,100
224,116,69641,1,8,0:0:0:0:
68,244,69833,1,0,0:0:0:0:
256,316,70024,1,0,0:0:0:0:
292,312,70119,1,0,0:0:0:0:
320,288,70215,1,0,0:0:0:0:
336,100,70406,1,2,0:0:0:0:
304,144,70501,1,0,0:0:0:0:
264,180,70597,1,2,0:0:0:0:
212,200,70692,1,0,0:0:0:0:
156,208,70788,6,0,P|92:180|84:116,1,100,4|0,0:0|0:0,0:0:0:0:
187,61,71170,2,0,L|156:208,1,150,8|0,0:0|0:0,0:0:0:0:
188,264,71552,2,0,P|229:290|240:338,1,100,4|0,0:0|0:0,0:0:0:0:
416,352,71934,2,0,L|458:262,1,100,8|0,0:0|0:0,0:0:0:0:
428,68,72317,5,2,0:0:0:0:
332,184,72508,1,2,0:0:0:0:
320,36,72699,1,10,0:0:0:0:
332,184,72890,1,2,0:0:0:0:
200,120,73081,1,2,0:0:0:0:
332,184,73272,2,0,L|364:236,1,50,0|0,0:0|0:0,0:0:0:0:
344,292,73463,5,8,0:0:0:0:
172,276,73654,1,0,0:0:0:0:
212,112,73845,2,0,P|200:52|168:28,1,100,4|0,0:0|0:0,0:0:0:0:
168,180,74227,2,0,P|260:180|288:100,1,150,8|0,0:0|0:0,0:0:0:0:
352,120,74610,6,0,L|392:220,1,100,4|0,0:0|0:0,0:0:0:0:
256,64,74992,1,8,0:0:0:0:
256,260,75183,1,0,0:0:0:0:
160,120,75374,2,0,L|120:220,1,100
256,360,75756,1,8,0:0:0:0:
256,192,75947,1,0,0:0:0:0:
256,24,76138,1,0,0:0:0:0:
256,360,76520,1,12,0:0:0:0:
464,192,76903,5,0,0:0:0:0:
182,148,77094,1,0,0:0:0:0:
96,272,77285,1,8,0:0:0:0:
128,312,77380,1,0,0:0:0:0:
180,316,77476,1,0,0:0:0:0:
224,288,77571,2,0,P|218:215|162:127,1,150.000005722046
320,84,77858,2,0,P|368:59|391:22,1,75.0000028610231
404,192,78049,2,2,L|460:352,1,150.000005722046,10|0,0:0|0:0,0:0:0:0:
320,84,78431,5,0,0:0:0:0:
256,348,78622,1,0,0:0:0:0:
72,220,78813,1,8,0:0:0:0:
96,172,78909,1,0,0:0:0:0:
132,132,79005,1,0,0:0:0:0:
176,105,79100,2,0,P|242:78|348:95,1,150.000005722046
380,224,79387,2,0,L|304:180,1,75.0000028610231
172,240,79578,2,2,L|300:317,1,150.000005722046,10|0,0:0|0:0,0:0:0:0:
408,36,79960,5,0,0:0:0:0:
88,105,80151,1,0,0:0:0:0:
360,232,80342,1,8,0:0:0:0:
372,284,80438,1,0,0:0:0:0:
352,332,80533,1,0,0:0:0:0:
308,360,80629,2,0,P|272:332|236:324,1,75.0000028610231
204,24,80915,2,0,P|240:52|276:60,1,75.0000028610231
204,192,81106,2,2,P|148:128|72:104,1,150.000005722046,10|0,0:0|0:0,0:0:0:0:
348,252,81489,6,0,L|436:228,1,75.0000028610231,2|0,0:0|0:0,0:0:0:0:
392,84,81680,2,2,L|356:0,1,75.0000028610231
344,164,81871,2,2,L|508:144,1,150.000005722046,8|0,0:0|0:0,0:0:0:0:
256,332,82253,1,2,0:0:0:0:
216,348,82348,1,0,0:0:0:0:
172,364,82444,1,0,0:0:0:0:
256,36,82635,1,8,0:0:0:0:
120,192,83017,5,0,0:0:0:0:
392,192,83208,1,0,0:0:0:0:
172,112,83399,1,8,0:0:0:0:
196,160,83495,1,0,0:0:0:0:
196,212,83591,1,0,0:0:0:0:
168,256,83686,2,0,P|125:271|80:263,1,75.0000028610231
392,192,83973,2,0,L|464:220,1,75.0000028610231
315,256,84164,2,2,P|259:268|167:256,1,150.000005722046,10|0,0:0|0:0,0:0:0:0:
292,52,84546,5,0,0:0:0:0:
168,256,84737,1,0,0:0:0:0:
148,16,84928,1,8,0:0:0:0:
188,52,85024,1,0,0:0:0:0:
240,60,85119,1,0,0:0:0:0:
292,52,85215,2,0,P|332:48|376:72,1,75.0000028610231
132,224,85501,2,0,L|60:256,1,75.0000028610231
204,191,85692,2,0,P|249:125|232:48,1,150.000005722046,10|0,0:0|0:0,0:0:0:0:
348,276,86075,5,0,0:0:0:0:
156,108,86266,1,0,0:0:0:0:
136,348,86457,1,8,0:0:0:0:
88,324,86552,1,0,0:0:0:0:
64,276,86648,1,0,0:0:0:0:
56,224,86743,2,0,P|56:176|68:140,1,75.0000028610231
159,34,86934,2,0,P|162:71|156:108,1,75.0000028610231
368,324,87221,2,2,P|444:292|480:224,1,150.000005722046,10|0,0:0|0:0,0:0:0:0:
225,69,87603,6,0,L|159:34,1,75.0000028610231,2|0,0:0|0:0,0:0:0:0:
188,180,87794,2,0,L|108:180,1,75.0000028610231,2|0,0:0|0:0,0:0:0:0:
212,296,87985,2,2,L|44:384,1,150.000005722046,10|0,0:0|0:0,0:0:0:0:
348,232,88368,1,2,0:0:0:0:
384,212,88463,1,0,0:0:0:0:
420,192,88559,1,0,0:0:0:0:
156,68,88750,1,8,0:0:0:0:
256,352,89132,5,4,0:0:0:0:
