osu file format v14

[General]
AudioFilename: Super Sonico The Animation Opening.mp3
AudioLeadIn: 0
PreviewTime: 64673
Countdown: 0
SampleSet: Normal
StackLeniency: 0.7
Mode: 0
LetterboxInBreaks: 0
WidescreenStoryboard: 0

[Editor]
DistanceSpacing: 1
BeatDivisor: 4
GridSize: 4
TimelineZoom: 1.5

[Metadata]
Title:Supa Soni
TitleUnicode:すぱそにっ♥
Artist:Yamamoto Ayano
ArtistUnicode:山本彩乃
Creator:Ntasuto
Version:Easy
Source:SUPER SONICO THE ANIMATION
Tags:そにアニ opening Super Sonico Nitroplus tv size
BeatmapID:517839
BeatmapSetID:170167

[Difficulty]
HPDrainRate:2
CircleSize:3
OverallDifficulty:2
ApproachRate:3
SliderMultiplier:0.8
SliderTickRate:1

[Events]
//Background and Video events
0,0,"bg.jpg",0,0
Video,0,"Sonicovideo.avi"
//Break Periods
//Storyboard Layer 0 (Background)
//Storyboard Layer 1 (Fail)
//Storyboard Layer 2 (Pass)
//Storyboard Layer 3 (Foreground)
//Storyboard Sound Samples

[TimingPoints]
470,382.165605095541,4,1,0,50,1,0
3527,-100,4,1,0,45,0,0
14227,-100,4,1,0,55,0,0
15756,-100,4,1,0,65,0,0
27603,-100,4,3,0,80,0,0
27985,-100,4,2,0,80,0,0
29896,-100,4,1,1,40,0,0
29992,-100,4,2,0,80,0,0
31425,-100,4,1,1,40,0,0
31520,-100,4,2,0,80,0,0
37540,-100,4,1,1,40,0,0
37635,-100,4,2,0,80,0,0
46712,-100,4,1,1,40,0,0
46807,-100,4,2,0,80,0,0
49769,-100,4,1,1,40,0,0
49864,-100,4,2,0,80,0,0
50915,-100,4,1,0,80,0,0
64673,-100,4,1,0,80,0,1
76520,-100,4,1,0,90,0,0
77285,-100,4,1,1,75,0,0

[Colours]
Combo1 : 159,177,251
Combo2 : 247,187,121
Combo3 : 229,229,229
Combo4 : 253,168,198

[HitObjects]
360,232,3527,6,0,P|264:228|200:132,1,160,4|0,0:0|0:0,0:0:0:0:
177,119,4673,1,10,0:0:0:0:
184,40,5055,6,0,P|113:72|106:153,1,160,0|0,0:0|0:0,0:0:0:0:
124,224,6202,1,10,0:0:0:0:
180,280,6584,6,0,B|280:284|280:284|368:256,1,160,0|0,0:0|0:0,0:0:0:0:
392,208,7731,1,10,0:0:0:0:
359,131,8113,6,0,P|328:156|311:191,1,80,2|10,0:0|0:0,0:0:0:0:
232,192,8877,2,0,P|191:178|158:156,1,80,2|8,0:0|0:0,0:0:0:0:
129,82,9641,6,0,B|162:62|204:87|204:87|251:63|285:75,1,160,4|0,0:0|0:0,0:0:0:0:
304,152,10788,1,10,0:0:0:0:
360,92,11170,6,0,B|404:148|368:200|368:200|380:248,1,160,0|0,0:0|0:0,0:0:0:0:
392,320,12317,1,10,0:0:0:0:
316,296,12699,6,0,B|276:260|224:280|224:280|140:220,1,160,0|0,0:0|0:0,0:0:0:0:
120,188,13845,1,10,0:0:0:0:
132,111,14227,6,0,P|164:88|203:82,1,80,2|10,0:0|0:0,0:0:0:0:
268,132,14992,2,0,P|220:160|160:152,1,80,2|8,0:0|0:0,0:0:0:0:
120,188,15756,6,0,B|144:252|212:248|260:232,2,160,6|2|2,0:0|0:0|0:0,0:0:0:0:
48,152,17667,2,0,P|40:196|52:232,1,80,8|2,0:0|0:0,0:0:0:0:
92,296,18431,1,8,0:0:0:0:
168,320,18813,6,0,P|224:324|324:288,1,160,2|2,0:0|0:0,0:0:0:0:
380,236,19960,1,8,0:0:0:0:
408,160,20342,6,0,P|448:189|457:247,2,80,2|8|2,0:0|0:0|0:0,0:0:0:0:
328,168,21489,1,8,0:0:0:0:
300,244,21871,6,0,P|248:168|272:109,1,160,6|2,0:0|0:0,0:0:0:0:
204,68,23017,1,8,0:0:0:0:
136,112,23399,2,0,P|128:88|132:32,2,80,2|8|2,0:0|0:0|0:0,0:0:0:0:
92,176,24546,6,0,P|100:200|96:256,1,80,8|2,0:0|0:0,0:0:0:0:
64,328,25310,1,8,0:0:0:0:
144,320,25692,2,0,P|160:304|176:216,1,80,2|8,0:0|0:0,0:0:0:0:
192,172,26457,5,0,0:0:0:0:
256,124,26839,1,8,0:0:0:0:
324,164,27221,2,0,P|332:212|320:248,1,80,0|8,0:0|0:0,0:0:0:0:
364,312,27985,5,0,0:0:0:0:
420,256,28368,2,0,P|412:224|440:172,1,80,0|0,1:0|0:0,0:0:0:0:
452,104,29132,1,0,1:0:0:0:
376,84,29514,6,0,B|128:84,1,240,0|0,0:0|1:0,0:0:0:0:
108,8,31043,2,0,P|57:68|82:146,1,160,0|0,0:0|0:0,0:0:0:0:
148,176,32189,1,0,1:0:0:0:
216,216,32571,6,0,L|324:216,1,80,2|2,0:0|0:0,0:0:0:0:
361,262,33336,2,0,P|373:228|368:182,2,80,2|8|8,0:0|0:0|0:0,0:0:0:0:
288,292,34482,6,0,B|228:304|188:272|188:272|144:316,1,160,0|0,1:0|1:0,0:0:0:0:
88,260,35629,2,0,L|148:200,1,80,0|0,0:0|1:0,0:0:0:0:
200,148,36393,1,0,0:0:0:0:
256,92,36775,1,0,1:0:0:0:
308,152,37157,6,0,P|372:209|445:189,1,160,0|0,0:0|0:0,0:0:0:0:
389,128,38304,1,0,1:0:0:0:
330,75,38686,6,0,P|290:72|256:92,1,80,2|2,0:0|0:0,0:0:0:0:
180,116,39451,2,8,P|179:75|202:31,2,80,2|8|8,0:0|0:0|0:0,0:0:0:0:
200,192,40597,6,0,P|252:248|336:240,1,160,0|0,1:0|1:0,0:0:0:0:
412,252,41743,2,8,L|378:336,1,80,0|0,0:0|1:0,0:0:0:0:
304,332,42508,2,8,L|219:367,1,80,0|0,0:0|1:0,0:0:0:0:
172,308,43272,2,8,L|87:274,1,80,0|0,0:0|1:0,0:0:0:0:
100,200,44036,6,0,P|88:160|104:108,2,80,0|0|2,0:0|1:0|0:0,0:0:0:0:
168,156,45183,1,0,1:0:0:0:
212,88,45565,2,0,P|237:118|247:156,1,80,0|0,0:0|1:0,0:0:0:0:
316,200,46329,6,0,B|280:248|220:232|220:232|168:280,1,160
216,340,47476,1,0,1:0:0:0:
296,336,47858,2,2,P|352:348|400:328,1,80,0|0,0:0|1:0,0:0:0:0:
419,275,48622,2,2,P|382:263|342:268,1,80,2|0,0:0|1:0,0:0:0:0:
264,260,49387,6,0,B|266:215|316:191|316:191|300:120,1,160,0|0,0:0|0:0,0:0:0:0:
248,63,50533,1,0,1:0:0:0:
168,60,50915,2,8,P|136:92|136:136,1,80,2|10,0:0|0:0,0:0:0:0:
156,200,51680,1,2,0:0:0:0:
80,228,52062,1,12,0:0:0:0:
96,308,52444,6,0,B|180:280|180:280|224:264|236:224,1,160,4|0,0:0|0:0,0:0:0:0:
300,192,53591,1,8,0:0:0:0:
376,216,53973,2,0,P|386:253|380:296,2,80,0|8|2,0:0|0:0|0:0,0:0:0:0:
368,136,55119,1,8,0:0:0:0:
370,56,55501,6,0,P|432:88|438:173,1,160,4|0,0:0|0:0,0:0:0:0:
376,220,56648,1,8,0:0:0:0:
324,280,57030,2,0,P|361:297|412:292,2,80,0|8|2,0:0|0:0|0:0,0:0:0:0:
248,260,58176,1,8,0:0:0:0:
176,223,58559,6,0,P|186:185|179:146,2,80,4|8|0,0:0|0:0|0:0,0:0:0:0:
248,260,59705,2,0,P|268:180|243:94,1,160,8|8,0:0|0:0,0:0:0:0:
188,56,60852,1,2,0:0:0:0:
116,92,61234,2,0,P|100:164|160:224,1,160,8|8,0:0|0:0,0:0:0:0:
180,144,62380,6,0,L|250:105,1,80,0|8,0:0|0:0,0:0:0:0:
316,56,63145,2,0,P|279:30|232:24,1,80,0|8,0:0|0:0,0:0:0:0:
168,45,63909,1,2,0:0:0:0:
40,144,64673,6,0,B|12:236|96:280,1,160,4|4,0:0|0:0,0:0:0:0:
172,276,65820,1,8,0:0:0:0:
252,276,66202,2,0,P|224:216|184:196,2,80,2|10|2,0:0|0:0|0:0,0:0:0:0:
276,352,67348,1,8,0:0:0:0:
344,312,67731,6,0,B|324:220,1,80,4|8,0:0|0:0,0:0:0:0:
380,176,68495,2,0,B|360:84,1,80,4|8,0:0|0:0,0:0:0:0:
296,56,69259,5,0,0:0:0:0:
216,44,69641,1,8,0:0:0:0:
160,102,70024,2,0,P|193:125|212:160,1,80,0|2,0:0|0:0,0:0:0:0:
136,184,70788,6,0,L|192:292,1,80,4|8,0:0|0:0,0:0:0:0:
92,268,71552,2,0,L|45:179,1,80,4|8,0:0|0:0,0:0:0:0:
80,123,72317,2,0,P|156:104|213:156,1,160,2|2,0:0|0:0,0:0:0:0:
267,212,73463,5,8,0:0:0:0:
297,140,73845,2,0,B|257:48|184:29,1,160,4|4,0:0|0:0,0:0:0:0:
160,104,74992,6,0,P|200:132|220:184,1,80,8|0,0:0|0:0,0:0:0:0:
192,236,75756,2,0,P|158:214|137:181,1,80,8|0,0:0|0:0,0:0:0:0:
64,148,76520,1,12,0:0:0:0:
64,228,76903,6,0,P|124:300|188:328,1,160,0|0,0:0|0:0,0:0:0:0:
256,356,78049,1,10,0:0:0:0:
329,326,78431,6,0,P|399:291|448:228,1,160,0|0,0:0|0:0,0:0:0:0:
448,148,79578,1,10,0:0:0:0:
496,84,79960,6,0,P|420:72|368:132,1,160,0|0,0:0|0:0,0:0:0:0:
368,208,81107,1,10,0:0:0:0:
431,256,81489,6,0,P|401:281|363:288,1,80,2|8,0:0|0:0,0:0:0:0:
296,332,82253,2,0,P|256:328|216:332,1,80,2|8,0:0|0:0,0:0:0:0:
148,288,83017,6,0,P|59:215|51:161,1,160,0|0,0:0|0:0,0:0:0:0:
97,111,84164,1,10,0:0:0:0:
132,184,84546,6,0,B|148:232|236:192|236:192|312:192,1,160,0|0,0:0|0:0,0:0:0:0:
356,184,85693,1,10,0:0:0:0:
436,180,86075,6,0,P|400:116|315:115,1,160,0|0,0:0|0:0,0:0:0:0:
244,88,87221,1,10,0:0:0:0:
164,84,87603,6,0,P|170:123|199:155,1,80,2|10,0:0|0:0,0:0:0:0:
256,205,88368,2,0,P|224:228|181:230,1,80,2|8,0:0|0:0,0:0:0:0:
105,217,89132,5,4,0:0:0:0:
