osu file format v14

[General]
AudioFilename: audio.mp3
AudioLeadIn: 0
PreviewTime: 97448
Countdown: 0
SampleSet: Soft
StackLeniency: 0.5
Mode: 0
LetterboxInBreaks: 0
WidescreenStoryboard: 0

[Editor]
Bookmarks: 303032
DistanceSpacing: 0.5
BeatDivisor: 4
GridSize: 32
TimelineZoom: 1.8

[Metadata]
Title:Sunglow
TitleUnicode:Sunglow
Artist:Yamajet feat. Hiura Masako
ArtistUnicode:Yamajet feat. ひうらまさこ
Creator:kxlman
Version:Radiant
Source:crossbeats REV. SUNRISE
Tags:announcerf Happy High Carolie しあわせハイカロリー capcom video game japanese female vocals full version jpop j-pop j pop GROOVE COASTER 3 LINK FEVER
BeatmapID:4445719
BeatmapSetID:2116958

[Difficulty]
HPDrainRate:5.2
CircleSize:3.8
OverallDifficulty:9.3
ApproachRate:9.3
SliderMultiplier:1.8
SliderTickRate:1

[Events]
//Background and Video events
0,0,"bg.jpg",0,0
//Break Periods
//Storyboard Layer 0 (Background)
//Storyboard Layer 1 (Fail)
//Storyboard Layer 2 (Pass)
//Storyboard Layer 3 (Foreground)
//Storyboard Layer 4 (Overlay)
//Storyboard Sound Samples

[TimingPoints]
2366,333.333333333333,4,2,1,70,1,0
2366,-142.857142857143,4,2,1,60,0,0
2699,333.333333333333,4,2,1,70,1,0
2699,-142.857142857143,4,2,1,50,0,0
13365,-125,4,2,1,60,0,0
24032,-105.263157894737,4,2,1,70,0,0
45365,-100,4,2,1,70,0,0
50365,-166.666666666667,4,2,1,70,0,0
50615,-166.666666666667,4,2,1,5,0,0
50698,-125,4,2,1,60,0,0
72032,-166.666666666667,4,2,1,50,0,0
78615,-166.666666666667,4,2,1,5,0,0
78698,-166.666666666667,4,2,1,50,0,0
82615,-166.666666666667,4,2,1,5,0,0
82698,-166.666666666667,4,2,1,50,0,0
86698,-125,4,2,1,60,0,0
88032,-111.111111111111,4,2,1,70,0,0
93365,-100,4,2,1,80,0,0
97532,-125,4,2,1,60,0,0
98698,-95.2380952380952,4,2,1,80,0,0
108948,-95.2380952380952,4,2,1,5,0,0
109032,-95.2380952380952,4,2,1,80,0,0
109282,-95.2380952380952,4,2,1,5,0,0
109365,-95.2380952380952,4,2,1,80,0,0
120032,-105.263157894737,4,2,1,70,0,0
141365,-142.857142857143,4,2,1,50,0,0
141698,-142.857142857143,4,2,0,50,0,0
141782,-142.857142857143,4,2,1,50,0,0
142198,-142.857142857143,4,2,0,50,0,0
142282,-142.857142857143,4,2,1,50,0,0
142532,-142.857142857143,4,2,0,50,0,0
142616,-142.857142857143,4,2,1,50,0,0
143698,-142.857142857143,4,2,0,50,0,0
143782,-142.857142857143,4,2,1,50,0,0
144365,-142.857142857143,4,2,0,50,0,0
144449,-142.857142857143,4,2,1,50,0,0
146032,-142.857142857143,4,2,0,50,0,0
146116,-142.857142857143,4,2,1,50,0,0
147032,-142.857142857143,4,2,0,50,0,0
147116,-142.857142857143,4,2,1,50,0,0
147532,-142.857142857143,4,2,0,50,0,0
147616,-142.857142857143,4,2,1,50,0,0
147865,-142.857142857143,4,2,0,50,0,0
147949,-142.857142857143,4,2,1,50,0,0
148532,-142.857142857143,4,2,0,50,0,0
148616,-142.857142857143,4,2,1,50,0,0
149032,-142.857142857143,4,2,0,50,0,0
149116,-142.857142857143,4,2,1,50,0,0
149698,-142.857142857143,4,2,0,50,0,0
149782,-142.857142857143,4,2,1,50,0,0
150198,-142.857142857143,4,2,0,50,0,0
150282,-142.857142857143,4,2,1,50,0,0
150532,-125,4,2,1,60,0,0
152032,-125,4,2,1,60,0,0
162698,-166.666666666667,4,2,1,50,0,0
173282,-166.666666666667,4,2,1,5,0,0
173365,-166.666666666667,4,2,1,50,0,0
177365,-125,4,2,1,60,0,0
178698,-100,4,2,1,70,0,0
181198,-100,4,2,1,70,0,0
201365,-166.666666666667,4,2,1,50,0,0
213282,-166.666666666667,4,2,1,5,0,0
213365,-166.666666666667,4,2,1,50,0,0
217365,-125,4,2,1,60,0,0
218698,-111.111111111111,4,2,1,70,0,0
224032,-100,4,2,1,80,0,0
228365,-125,4,2,1,60,0,0
229365,-90.9090909090909,4,2,1,80,0,0
239615,-90.9090909090909,4,2,1,5,0,0
239698,-90.9090909090909,4,2,1,80,0,0
239948,-90.9090909090909,4,2,1,5,0,0
240032,-90.9090909090909,4,2,1,80,0,0
260948,-90.9090909090909,4,2,1,5,0,0
261032,-90.9090909090909,4,2,1,80,0,0
261282,-90.9090909090909,4,2,1,5,0,0
261365,-90.9090909090909,4,2,1,80,0,0
272032,-100,4,2,1,70,0,0
282698,-100,4,2,1,70,0,0
293365,-90.9090909090909,4,2,1,80,0,0

[Colours]
Combo1 : 234,238,51
Combo2 : 101,88,252
Combo3 : 157,201,255
Combo4 : 240,149,87
Combo5 : 255,62,111
Combo6 : 214,135,252

[HitObjects]
23,118,2365,6,0,L|13:66,2,45,8|8|8,0:0|3:0|3:0,0:0:0:0:
57,189,2699,6,0,B|122:186|112:212|184:210,1,125.999996154785,2|0,3:3|3:2,0:0:0:0:
256,178,3198,1,0,0:0:0:0:
256,178,3365,1,0,3:2:0:0:
351,214,3532,2,0,L|361:279,1,62.9999980773926,2|0,0:3|3:2,0:0:0:0:
343,383,3865,6,0,P|306:340|231:337,1,125.999996154785,2|0,0:3|0:0,0:0:0:0:
151,382,4365,2,0,L|127:259,2,125.999996154785,0|0|0,3:2|3:2|3:2,0:0:0:0:
151,382,5198,1,0,0:0:0:0:
240,333,5365,6,0,B|288:327|288:327|309:339|309:339|361:333,1,125.999996154785,2|0,3:3|3:2,0:0:0:0:
446,362,5865,1,0,0:0:0:0:
446,362,6032,1,0,3:2:0:0:
506,288,6198,2,0,L|495:222,1,62.9999980773926,2|0,0:3|3:2,0:0:0:0:
436,143,6532,6,0,B|393:150|359:167|359:167|335:164|319:146,1,125.999996154785,2|0,0:3|0:0,0:0:0:0:
305,64,7032,2,0,L|371:75,1,62.9999980773926,0|0,3:2|0:0,0:0:0:0:
436,143,7365,1,0,3:2:0:0:
436,143,7532,1,0,0:0:0:0:
457,43,7698,1,0,3:2:0:0:
347,159,7865,5,2,2:0:0:0:
347,159,7948,1,2,2:0:0:0:
347,159,8032,2,0,B|278:157|288:183|223:180,1,125.999996154785,2|0,3:3|3:2,0:0:0:0:
143,227,8532,1,2,0:0:0:0:
143,227,8698,1,0,3:2:0:0:
78,143,8865,2,0,L|14:129,1,62.9999980773926,2|0,0:3|3:2,0:0:0:0:
141,58,9198,6,0,P|191:19|265:27,1,125.999996154785,2|0,0:3|0:0,0:0:0:0:
319,123,9698,2,0,L|343:0,2,125.999996154785,0|0|0,3:2|3:2|3:2,0:0:0:0:
267,233,10532,5,2,2:0:0:0:
267,233,10615,1,2,2:0:0:0:
267,233,10698,2,0,B|319:223|319:223|336:231|336:231|392:221,1,125.999996154785,2|0,3:3|3:2,0:0:0:0:
487,247,11198,1,2,0:0:0:0:
487,247,11365,1,0,3:2:0:0:
429,330,11532,2,0,P|397:331|368:320,1,62.9999980773926,2|0,0:3|3:2,0:0:0:0:
267,233,11865,6,0,L|242:358,1,125.999996154785,2|2,0:3|0:0,0:0:0:0:
142,384,12365,2,0,L|128:320,1,62.9999980773926,2|2,3:2|0:3,0:0:0:0:
13,254,12698,2,0,L|0:315,1,62.9999980773926,2|2,3:2|0:3,0:0:0:0:
175,241,13032,1,10,0:0:0:0:
19,130,13198,5,8,0:0:0:0:
19,130,13282,1,8,0:0:0:0:
19,130,13365,2,0,L|161:104,1,144,6|8,3:2|0:0,0:0:0:0:
278,146,13865,1,0,0:0:0:0:
250,4,14032,1,0,3:2:0:0:
250,4,14198,2,0,L|237:74,1,72,2|0,0:3|3:2,0:0:0:0:
246,228,14532,6,0,P|273:188|362:180,1,144,2|0,0:3|0:0,0:0:0:0:
410,297,15032,2,0,L|339:283,1,72,8|0,0:0|0:0,0:0:0:0:
246,228,15365,1,0,3:2:0:0:
273,333,15532,1,0,0:0:0:0:
327,202,15698,1,0,3:2:0:0:
184,313,15865,5,2,2:0:0:0:
184,313,15948,1,2,2:0:0:0:
184,313,16032,2,0,L|41:287,1,144,2|8,3:3|0:0,0:0:0:0:
19,173,16532,1,0,0:0:0:0:
137,220,16698,1,0,3:2:0:0:
137,220,16865,2,0,L|149:148,1,72,2|0,2:3|3:2,2:0:0:0:
110,7,17198,6,0,P|151:60|224:63,1,144,2|0,0:3|0:0,0:0:0:0:
336,25,17698,2,0,L|322:97,1,72,8|0,2:0|2:0,2:0:0:0:
277,226,18032,1,0,3:0:0:0:
382,155,18198,1,8,3:0:0:0:
255,148,18365,1,4,3:0:0:0:
358,231,18532,1,0,3:0:0:0:
195,210,18698,6,0,B|118:204|131:236|54:232,1,144,2|8,3:3|0:0,0:0:0:0:
77,149,19198,1,0,0:0:0:0:
172,298,19365,1,0,3:2:0:0:
172,298,19532,2,0,L|157:370,1,72,2|0,2:3|3:2,2:0:0:0:
337,329,19865,6,0,L|310:188,1,144,2|0,0:3|0:0,0:0:0:0:
198,84,20365,2,0,P|229:102|266:101,1,72,10|0,0:0|0:0,0:0:0:0:
366,37,20698,2,0,L|351:106,1,72,0|0,3:2|2:0,2:0:0:0:
223,191,21032,1,2,3:2:0:0:
376,269,21198,5,2,2:0:0:0:
376,269,21282,1,2,2:0:0:0:
376,269,21365,2,0,P|411:272|445:254,1,72,2|0,3:2|0:0,0:0:0:0:
293,345,21698,2,0,L|281:274,1,72,8|0,2:0|2:0,2:0:0:0:
242,146,22032,1,2,0:0:0:0:
169,253,22198,1,2,0:0:0:0:
182,88,22365,1,2,3:2:0:0:
323,247,22532,6,0,L|250:233,1,72,10|0,2:0|2:0,2:0:0:0:
107,185,22865,1,2,3:2:0:0:
147,333,23032,1,8,3:0:0:0:
242,146,23198,2,0,P|296:99|369:107,1,144,6|2,3:2|0:0,0:0:0:0:
444,254,23698,1,8,0:0:0:0:
444,254,23782,1,8,0:0:0:0:
444,254,23865,2,0,L|408:259,1,36,10|8,0:0|0:0,0:0:0:0:
298,364,24032,6,0,L|325:195,1,170.999995433807,6|10,3:2|0:0,0:0:0:0:
279,61,24532,1,0,0:0:0:0:
433,103,24698,2,0,L|348:116,1,85.4999977169037,0|0,3:2|0:0,0:0:0:0:
222,228,25032,1,8,0:0:0:0:
174,77,25198,6,0,P|111:26|27:41,1,170.999995433807,0|2,3:2|0:0,0:0:0:0:
103,201,25698,1,8,0:0:0:0:
236,140,25865,2,0,L|321:155,1,85.4999977169037,2|0,0:0|3:2,0:0:0:0:
428,234,26198,1,2,0:0:0:0:
326,72,26365,1,10,0:0:0:0:
260,226,26532,1,2,0:0:0:0:
486,125,26698,6,0,B|391:120|415:163|317:154,1,170.999995433807,0|8,3:2|0:0,0:0:0:0:
209,83,27198,1,0,0:0:0:0:
173,227,27365,1,2,3:2:0:0:
116,64,27532,1,2,0:0:0:0:
296,145,27698,1,10,0:0:0:0:
99,265,27865,6,0,P|54:267|19:248,1,85.4999977169037,2|0,3:2|0:0,0:0:0:0:
145,146,28198,1,2,0:0:0:0:
202,334,28365,1,10,0:0:0:0:
312,168,28532,2,0,L|396:152,1,85.4999977169037,2|0,0:0|3:2,0:0:0:0:
487,245,28865,1,2,0:0:0:0:
414,61,29032,1,8,0:0:0:0:
265,248,29198,5,0,3:2:0:0:
265,248,29282,1,0,3:2:0:0:
265,248,29365,2,0,B|160:266|160:266|131:245|142:208,1,170.999995433807,6|10,0:0|0:0,0:0:0:0:
167,85,29865,2,0,L|252:100,1,85.4999977169037,0|0,0:0|3:2,0:0:0:0:
350,207,30198,1,2,0:0:0:0:
300,25,30365,1,10,0:0:0:0:
501,95,30532,6,0,L|333:127,1,170.999995433807,2|2,3:2|0:0,0:0:0:0:
141,80,31032,2,0,L|156:164,1,85.4999977169037,8|2,0:0|0:0,0:0:0:0:
101,331,31365,1,0,3:2:0:0:
234,237,31532,1,2,0:0:0:0:
46,178,31698,1,10,0:0:0:0:
162,273,31865,1,2,0:0:0:0:
244,77,32032,6,0,P|302:17|383:27,1,170.999995433807,0|8,3:2|0:0,0:0:0:0:
486,127,32532,1,0,0:0:0:0:
345,254,32698,1,2,3:2:0:0:
328,95,32865,1,2,0:0:0:0:
451,260,33032,1,10,0:0:0:0:
243,192,33198,2,0,L|327:175,1,85.4999977169037,2|0,3:2|0:0,0:0:0:0:
207,80,33532,5,2,0:0:0:0:
167,270,33698,1,10,0:0:0:0:
67,131,33865,2,0,L|81:47,1,85.4999977169037,2|0,0:0|3:2,0:0:0:0:
220,174,34198,1,2,3:2:0:0:
220,174,34282,1,0,3:2:0:0:
220,174,34365,2,0,L|174:180,1,42.7499988584519,8|0,0:0|3:2,0:0:0:0:
40,314,34532,5,10,0:0:0:0:
40,314,34615,1,8,0:0:0:0:
40,314,34698,2,0,B|131:314|115:353|205:353,1,170.999995433807,6|10,3:2|0:0,0:0:0:0:
323,274,35198,1,0,0:0:0:0:
193,168,35365,2,0,L|179:252,1,85.4999977169037,0|0,3:2|0:0,0:0:0:0:
286,107,35698,1,8,0:0:0:0:
93,196,35865,6,0,P|28:162|28:73,1,170.999995433807,0|2,3:2|0:0,0:0:0:0:
221,17,36365,1,8,0:0:0:0:
284,202,36532,2,0,P|325:199|358:172,1,85.4999977169037,2|0,0:0|3:2,0:0:0:0:
483,66,36865,1,2,0:0:0:0:
275,105,37032,1,10,0:0:0:0:
421,241,37198,1,2,0:0:0:0:
390,3,37365,6,0,L|358:170,1,170.999995433807,0|8,3:2|0:0,0:0:0:0:
315,298,37865,1,0,0:0:0:0:
194,168,38032,1,2,3:2:0:0:
165,343,38198,1,2,0:0:0:0:
197,143,38365,1,10,0:0:0:0:
339,319,38532,6,0,B|443:337|443:337|473:317|460:279,1,170.999995433807,2|2,3:2|0:0,0:0:0:0:
316,120,39032,1,10,0:0:0:0:
207,256,39198,2,0,P|163:254|129:232,1,85.4999977169037,2|0,0:0|3:2,0:0:0:0:
61,43,39532,1,2,3:2:0:0:
245,175,39698,1,8,0:0:0:0:
30,217,39865,1,2,3:2:0:0:
227,47,40032,6,0,B|318:44|303:85|393:80,1,170.999995433807,6|10,3:2|0:0,0:0:0:0:
245,175,40532,1,2,0:0:0:0:
147,11,40698,1,0,3:2:0:0:
129,184,40865,1,2,0:0:0:0:
309,64,41032,1,10,0:0:0:0:
117,200,41198,6,0,L|146:367,1,170.999995433807,2|2,3:2|0:0,0:0:0:0:
310,272,41698,2,0,L|225:256,1,85.4999977169037,8|2,0:0|0:0,0:0:0:0:
142,108,42032,1,0,3:2:0:0:
282,181,42198,1,2,0:0:0:0:
211,20,42365,1,10,0:0:0:0:
209,157,42532,1,2,0:0:0:0:
389,52,42698,6,0,B|504:31|504:31|471:75,1,170.999995433807,0|8,3:2|0:0,0:0:0:0:
381,183,43198,1,0,0:0:0:0:
292,89,43365,2,0,L|308:1,1,85.4999977169037,0|0,3:2|0:0,0:0:0:0:
390,202,43698,1,8,0:0:0:0:
183,109,43865,6,0,P|106:112|63:187,1,170.999995433807,0|0,3:2|0:0,0:0:0:0:
232,322,44365,2,0,L|245:238,1,85.4999977169037,12|0,0:0|0:0,0:0:0:0:
334,114,44698,1,8,3:0:0:0:
151,183,44865,1,0,3:2:0:0:
151,183,44948,1,8,0:0:0:0:
151,183,45032,1,8,0:0:0:0:
316,299,45198,1,8,3:0:0:0:
251,51,45365,6,0,L|235:139,1,90,6|0,3:2|0:0,0:0:0:0:
114,382,45698,5,8,0:0:0:0:
314,209,45865,1,2,3:2:0:0:
42,176,46032,5,10,0:0:0:0:
231,352,46198,1,0,3:2:0:0:
192,88,46365,5,10,0:0:0:0:
46,293,46532,1,2,3:2:0:0:
66,50,46698,5,8,0:0:0:0:
201,239,46865,1,0,3:2:0:0:
155,3,47032,5,10,0:0:0:0:
0,177,47198,1,0,3:2:0:0:
271,163,47365,5,8,0:0:0:0:
24,27,47532,1,2,3:2:0:0:
86,303,47698,5,10,0:0:0:0:
257,52,47865,1,0,3:2:0:0:
274,380,48032,6,0,L|257:286,1,90,6|0,3:2|0:0,0:0:0:0:
101,66,48365,5,8,0:0:0:0:
349,132,48532,1,2,3:2:0:0:
86,303,48698,5,10,0:0:0:0:
238,102,48865,1,8,3:0:0:0:
18,176,49032,1,0,3:2:0:0:
297,330,49198,1,10,0:0:0:0:
297,330,49532,6,0,L|304:285,2,45,0|0|4,3:2|3:2|3:2,0:0:0:0:
297,330,50198,1,8,0:0:0:0:
388,220,50365,2,0,P|348:213|316:175,1,80.9999975280763,0|0,3:2|0:0,0:0:0:0:
305,158,50698,6,2,L|330:11,1,144,6|8,3:2|0:0,0:0:0:0:
405,88,51198,1,2,0:0:0:0:
223,127,51365,1,2,3:2:0:0:
223,127,51532,2,0,P|184:127|152:109,1,72,2|8,0:0|0:0,0:0:0:0:
38,2,51865,6,0,B|82:31|82:31|54:125,1,144,2|0,3:2|3:2,0:0:0:0:
0,228,52365,2,0,P|39:228|71:210,1,72,10|0,0:0|0:0,0:0:0:0:
190,209,52698,2,0,L|179:280,1,72,2|0,3:2|0:0,0:0:0:0:
60,384,53032,2,0,L|49:312,1,72,10|0,0:0|0:0,0:0:0:0:
223,375,53365,6,2,P|290:365|329:303,1,144,2|8,3:2|0:0,0:0:0:0:
342,192,53865,1,2,0:0:0:0:
441,276,54032,2,0,L|512:265,1,72,2|2,3:2|0:0,0:0:0:0:
443,154,54365,1,8,0:0:0:0:
352,283,54532,6,0,B|273:278|296:316|213:312,1,144,0|0,3:2|3:2,0:0:0:0:
80,266,55032,2,0,L|90:194,1,72,8|0,0:0|0:0,0:0:0:0:
143,87,55365,1,2,3:2:0:0:
23,148,55532,1,0,0:0:0:0:
51,0,55698,2,0,L|61:71,1,72,10|0,0:0|0:0,0:0:0:0:
188,176,56032,6,2,B|245:165|245:165|270:179|270:179|340:166,1,144,2|8,3:2|0:0,0:0:0:0:
427,89,56532,1,2,0:0:0:0:
298,22,56698,1,2,3:2:0:0:
298,22,56865,2,0,L|287:93,1,72,2|8,0:0|0:0,0:0:0:0:
306,253,57198,6,0,P|352:202|428:205,1,144,2|0,3:2|3:2,0:0:0:0:
468,318,57698,2,0,L|398:307,1,72,10|0,0:0|0:0,0:0:0:0:
300,373,58032,2,0,L|229:384,1,72,2|0,3:2|3:2,0:0:0:0:
130,271,58365,2,0,L|200:282,1,72,10|0,0:0|0:0,0:0:0:0:
354,202,58698,6,2,P|284:203|235:148,1,144,2|10,3:2|0:0,0:0:0:0:
304,54,59198,2,0,L|316:126,1,72,2|0,0:0|3:2,0:0:0:0:
224,18,59532,1,0,0:0:0:0:
393,48,59698,1,8,0:0:0:0:
236,151,59865,6,0,B|139:132|139:132|123:149|125:174,1,144,6|0,3:2|3:2,0:0:0:0:
187,335,60365,1,8,0:0:0:0:
336,209,60532,2,0,L|480:183,1,144,6|0,3:2|3:2,0:0:0:0:
316,126,61032,1,8,0:0:0:0:
257,235,61198,1,8,3:0:0:0:
181,78,61365,6,2,P|126:35|52:51,1,144,6|8,3:2|0:0,0:0:0:0:
102,131,61865,1,2,0:0:0:0:
212,208,62032,1,2,3:2:0:0:
212,208,62198,2,0,L|285:196,1,72,2|8,0:0|0:0,0:0:0:0:
412,127,62532,6,0,L|387:269,1,144,2|0,3:2|3:2,0:0:0:0:
307,384,63032,2,0,P|268:384|236:366,1,72,10|0,0:0|0:0,0:0:0:0:
185,263,63365,2,0,L|258:251,1,72,2|0,3:2|0:0,0:0:0:0:
142,359,63698,2,0,L|69:347,1,72,10|0,0:0|0:0,0:0:0:0:
0,204,64032,6,2,P|66:197|108:136,1,144,2|8,3:2|0:0,0:0:0:0:
169,21,64532,1,2,0:0:0:0:
24,43,64698,2,0,L|95:54,1,72,2|2,3:2|0:0,0:0:0:0:
216,162,65032,1,8,0:0:0:0:
307,24,65198,6,0,B|416:4|416:4|439:32,1,144,0|0,3:2|3:2,0:0:0:0:
510,152,65698,2,0,L|438:140,1,72,8|0,0:0|0:0,0:0:0:0:
311,153,66032,2,0,L|322:224,1,72,2|0,3:2|0:0,0:0:0:0:
427,335,66365,2,0,L|438:263,1,72,10|0,0:0|0:0,0:0:0:0:
279,358,66698,6,2,B|222:348|222:348|204:324|204:324|148:314,1,144,2|8,3:2|0:0,0:0:0:0:
46,359,67198,1,2,0:0:0:0:
30,230,67365,1,2,3:2:0:0:
30,230,67532,2,0,L|42:158,1,72,2|8,3:2|0:0,0:0:0:0:
166,43,67865,6,0,B|122:72|122:72|150:166,1,144,2|0,3:2|3:2,0:0:0:0:
293,233,68365,2,0,L|304:161,1,72,10|0,0:0|0:0,0:0:0:0:
422,64,68698,2,0,P|390:79|354:78,1,72,2|0,3:2|0:0,0:0:0:0:
242,0,69032,2,0,L|253:72,1,72,10|0,0:0|0:0,0:0:0:0:
397,172,69365,6,0,B|494:153|494:153|515:170|508:195,1,144,2|10,3:2|0:0,0:0:0:0:
454,299,69865,2,0,L|382:288,1,72,2|0,0:0|3:2,0:0:0:0:
261,321,70198,1,0,3:2:0:0:
303,161,70365,1,8,0:0:0:0:
121,260,70532,6,0,L|274:232,1,144,4|0,3:2|3:2,0:0:0:0:
151,142,71032,1,8,0:0:0:0:
93,355,71198,2,0,P|39:316|26:236,1,144,4|0,3:2|3:2,0:0:0:0:
43,124,71698,2,0,L|34:83,2,36,8|8|8,0:0|3:0|3:0,0:0:0:0:
138,241,72032,6,0,B|195:245|185:221|243:224,1,107.999996704102,6|2,3:2|0:0,0:0:0:0:
322,255,72532,1,2,1:2:0:0:
322,255,72698,2,0,L|331:311,1,53.9999983520508,2|0,3:3|0:0,0:0:0:0:
391,383,73032,2,0,P|417:381|443:372,1,53.9999983520508,10|0,0:0|0:0,0:0:0:0:
512,282,73365,6,0,L|402:261,1,107.999996704102,2|0,3:3|0:0,0:0:0:0:
361,165,73865,1,0,1:2:0:0:
361,165,74032,2,0,L|417:155,1,53.9999983520508,2|0,3:3|3:2,0:0:0:0:
512,199,74365,1,10,0:0:0:0:
512,199,74532,1,0,3:2:0:0:
466,73,74698,6,0,P|427:35|369:29,1,107.999996704102,2|2,3:3|0:0,0:0:0:0:
301,97,75198,2,0,L|290:154,1,53.9999983520508,2|2,1:2|3:3,0:0:0:0:
201,189,75532,2,0,L|191:135,1,53.9999983520508,2|10,0:0|0:0,0:0:0:0:
215,27,75865,1,2,3:2:0:0:
215,27,76032,6,0,L|108:6,1,107.999996704102,2|8,0:3|0:0,0:0:0:0:
0,138,76698,1,2,3:3:0:0:
0,138,76865,1,10,3:0:0:0:
35,55,77032,1,10,0:0:0:0:
35,55,77198,1,2,0:0:0:0:
110,160,77365,6,0,B|98:224|98:224|76:245|76:245|62:324,1,161.999995056153,6|0,3:2|0:0,0:0:0:0:
166,352,78032,2,0,L|157:296,1,53.9999983520508,2|0,3:3|0:0,0:0:0:0:
235,211,78365,2,0,P|275:214|313:238,1,80.9999975280763,10|0,0:0|0:0,0:0:0:0:
333,259,78698,6,0,L|341:312,1,53.9999983520508,2|2,3:3|0:0,0:0:0:0:
432,371,79032,1,2,0:0:0:0:
432,371,79198,2,0,L|440:317,1,53.9999983520508,2|2,0:0|3:3,0:0:0:0:
472,206,79532,1,10,3:0:0:0:
472,206,79698,2,0,P|446:214|419:217,1,53.9999983520508,10|2,0:0|3:2,0:0:0:0:
279,151,80032,6,0,P|353:148|404:76,1,161.999995056153,2|0,3:3|0:0,0:0:0:0:
323,17,80698,2,0,L|215:-1,1,107.999996704102,2|8,3:3|0:0,0:0:0:0:
131,53,81198,1,0,3:2:0:0:
131,53,81365,6,0,L|149:158,1,107.999996704102,2|8,0:3|0:0,0:0:0:0:
135,261,81865,1,8,1:3:0:0:
135,261,82032,2,0,L|81:252,1,53.9999983520508,2|8,3:3|3:0,0:0:0:0:
0,330,82365,2,0,P|39:341|70:371,1,80.9999975280763,10|0,0:0|0:0,0:0:0:0:
95,384,82698,6,0,B|184:389|162:346|258:350,1,161.999995056153,6|2,3:2|0:0,0:0:0:0:
298,257,83365,2,0,L|309:192,1,53.9999983520508,2|0,3:3|0:0,0:0:0:0:
397,228,83698,2,0,L|408:292,1,53.9999983520508,10|0,0:0|0:0,0:0:0:0:
461,375,84032,6,0,B|513:345|513:345|489:242,1,161.999995056153,2|2,3:3|0:0,0:0:0:0:
408,187,84698,2,0,L|351:178,1,53.9999983520508,2|8,3:3|3:0,0:0:0:0:
459,107,85032,2,0,L|515:98,1,53.9999983520508,10|0,0:0|3:2,0:0:0:0:
402,28,85365,6,0,P|331:33|293:107,1,161.999995056153,2|2,3:3|3:2,0:0:0:0:
242,196,86032,2,0,L|177:184,1,53.9999983520508,2|2,0:3|0:0,0:0:0:0:
91,212,86365,1,10,0:0:0:0:
91,212,86532,1,2,3:2:0:0:
176,306,86698,6,0,L|250:292,1,72,2|0,1:2|3:2,0:0:0:0:
356,384,87032,2,0,L|281:370,1,72,8|0,0:0|3:2,0:0:0:0:
176,306,87365,1,2,1:2:0:0:
245,182,87532,1,2,3:2:0:0:
340,299,87698,2,0,L|409:286,1,72,10|0,0:0|0:0,0:0:0:0:
274,100,88032,6,0,B|187:91|204:136|115:126,1,161.999995056153,6|8,3:2|0:0,0:0:0:0:
143,28,88532,1,0,3:2:0:0:
245,182,88698,2,0,L|332:196,1,80.9999975280763,0|0,3:2|0:0,0:0:0:0:
506,122,89032,1,10,0:0:0:0:
454,327,89198,6,0,L|424:166,1,161.999995056153,6|0,3:2|0:0,0:0:0:0:
312,29,89698,2,0,L|298:108,1,80.9999975280763,10|0,0:0|0:0,0:0:0:0:
214,226,90032,2,0,P|172:229|131:210,1,80.9999975280763,2|0,3:2|0:0,0:0:0:0:
55,72,90365,1,10,0:0:0:0:
0,206,90532,1,2,0:0:0:0:
191,140,90698,5,6,3:2:0:0:
34,54,90865,1,2,0:0:0:0:
113,224,91032,1,10,0:0:0:0:
231,57,91198,2,0,P|288:5|367:19,1,161.999995056153,2|0,3:2|3:2,0:0:0:0:
512,189,91698,1,8,0:0:0:0:
461,0,91865,6,0,L|428:166,1,161.999995056153,6|0,3:2|3:2,0:0:0:0:
290,328,92365,5,8,0:0:0:0:
317,110,92532,1,0,3:2:0:0:
423,328,92698,5,8,0:0:0:0:
205,278,92865,1,0,3:2:0:0:
429,158,93032,1,8,0:0:0:0:
429,158,93365,5,10,0:0:0:0:
199,61,93532,1,0,3:2:0:0:
297,318,93698,5,8,0:0:0:0:
342,50,93865,1,2,3:2:0:0:
123,257,94032,5,10,0:0:0:0:
267,0,94198,1,0,3:2:0:0:
419,273,94365,5,8,0:0:0:0:
97,140,94532,1,2,3:2:0:0:
97,140,94615,1,2,3:2:0:0:
97,140,94698,5,10,0:0:0:0:
415,112,94865,1,2,3:2:0:0:
218,371,95032,5,8,0:0:0:0:
201,105,95198,1,2,3:2:0:0:
4,307,95365,5,10,0:0:0:0:
227,204,95532,1,0,3:2:0:0:
0,98,95698,5,8,0:0:0:0:
106,384,95865,1,0,3:2:0:0:
106,384,95948,1,0,3:2:0:0:
106,384,96032,5,14,0:0:0:0:
295,138,96198,1,0,3:2:0:0:
4,307,96365,5,8,0:0:0:0:
341,277,96532,1,2,3:2:0:0:
108,17,96698,5,10,0:0:0:0:
222,358,96865,1,8,3:0:0:0:
422,70,97032,1,8,3:0:0:0:
0,189,97198,1,14,3:2:0:0:
0,189,97532,5,0,3:0:0:0:
91,301,97698,2,0,L|104:226,1,72,10|0,0:0|0:0,0:0:0:0:
202,166,98032,2,0,L|215:240,1,72,10|0,0:0|3:2,0:0:0:0:
227,276,98282,1,0,3:2:0:0:
227,276,98365,2,0,P|263:277|299:258,1,72,10|0,0:0|0:0,0:0:0:0:
512,135,98698,6,0,L|326:100,1,188.999994232178,6|8,3:2|0:0,0:0:0:0:
173,192,99198,1,2,0:0:0:0:
214,5,99365,2,0,L|230:104,1,94.499997116089,2|0,3:2|3:0,0:0:0:0:
145,312,99698,1,8,0:0:0:0:
72,120,99865,1,2,3:2:0:0:
271,196,100032,5,2,0:0:0:0:
93,243,100198,2,0,L|0:227,1,94.499997116089,2|8,0:0|0:0,0:0:0:0:
166,62,100532,2,0,L|182:160,1,94.499997116089,2|0,0:0|3:2,0:0:0:0:
312,352,100865,2,0,P|361:350|401:324,1,94.499997116089,2|8,3:2|0:0,0:0:0:0:
512,109,101198,6,0,B|410:101|430:150|327:139,1,188.999994232178,2|0,0:0|0:0,0:0:0:0:
117,93,101698,2,0,L|132:0,1,94.499997116089,8|0,0:0|0:0,0:0:0:0:
168,206,102032,1,2,3:2:0:0:
5,72,102198,1,2,3:2:0:0:
243,15,102365,1,8,0:0:0:0:
33,173,102532,6,0,L|67:375,1,188.999994232178,2|0,3:2|0:0,0:0:0:0:
260,222,103032,2,0,L|166:205,1,94.499997116089,8|0,0:0|0:0,0:0:0:0:
348,331,103365,1,2,3:2:0:0:
238,126,103532,1,2,0:2:0:0:
171,367,103698,1,10,0:0:0:0:
363,238,103865,1,2,0:0:0:0:
142,383,104032,6,0,P|54:360|32:263,1,188.999994232178,2|10,3:2|0:0,0:0:0:0:
173,202,104532,1,0,0:0:0:0:
317,363,104698,1,2,3:2:0:0:
326,156,104865,1,2,3:2:0:0:
115,298,105032,1,10,0:0:0:0:
189,92,105198,1,2,3:2:0:0:
370,262,105365,6,0,L|470:244,1,94.499997116089,2|0,0:0|3:2,0:0:0:0:
296,82,105698,2,0,L|277:182,1,94.499997116089,10|0,2:0|2:0,2:0:0:0:
115,298,106032,2,0,L|96:198,1,94.499997116089,2|0,3:2|0:0,2:2:0:0:
0,19,106365,2,0,P|38:44|85:46,1,94.499997116089,10|0,0:0|0:0,0:0:0:0:
330,0,106698,6,0,B|270:40|270:40|306:160,1,188.999994232178,2|8,3:2|0:0,0:0:0:0:
385,298,107198,1,2,0:0:0:0:
512,129,107365,2,0,L|419:111,1,94.499997116089,2|0,3:2|3:0,0:0:0:0:
153,156,107698,1,10,0:0:0:0:
364,384,107865,6,0,L|329:195,1,188.999994232178,6|0,3:2|0:0,0:0:0:0:
131,18,108365,1,10,0:0:0:0:
220,278,108532,1,4,3:2:0:0:
359,46,108698,2,0,P|415:5|486:12,1,141.749995674133,10|0,0:0|0:0,0:0:0:0:
512,32,109032,2,0,L|487:171,1,141.749995674133,10|0,0:0|0:0,0:0:0:0:
487,205,109365,6,0,B|384:198|407:250|304:243,1,188.999994232178,6|8,3:2|0:0,0:0:0:0:
96,321,109865,1,2,0:0:0:0:
161,103,110032,2,0,L|178:204,1,94.499997116089,2|0,3:2|3:0,0:0:0:0:
26,384,110365,1,8,0:0:0:0:
49,188,110532,1,2,0:0:0:0:
219,314,110698,5,2,0:0:0:0:
32,171,110865,2,0,L|49:69,1,94.499997116089,2|8,3:2|0:0,0:0:0:0:
239,0,111198,2,0,L|254:93,1,94.499997116089,2|0,0:0|3:2,0:0:0:0:
416,245,111532,2,0,P|464:243|505:217,1,94.499997116089,2|8,3:2|0:0,0:0:0:0:
391,46,111865,1,2,0:0:0:0:
251,271,112032,6,0,B|175:257|175:257|154:230|154:230|71:216,1,188.999994232178,2|8,3:2|0:0,0:0:0:0:
80,355,112532,1,2,0:0:0:0:
230,161,112698,1,2,3:2:0:0:
29,224,112865,1,2,3:2:0:0:
275,308,113032,1,8,0:0:0:0:
114,88,113198,6,0,L|147:283,1,188.999994232178,2|0,3:2|0:0,0:0:0:0:
354,378,113698,2,0,L|370:280,1,94.499997116089,8|0,0:0|0:0,0:0:0:0:
315,55,114032,1,2,3:2:0:0:
495,207,114198,1,2,0:2:0:0:
230,154,114365,1,10,0:0:0:0:
454,71,114532,1,2,0:0:0:0:
266,270,114698,6,0,B|162:263|188:315|74:310,1,188.999994232178,2|8,3:2|0:0,0:0:0:0:
230,154,115198,1,0,0:0:0:0:
234,366,115365,1,2,3:2:0:0:
52,216,115532,1,2,3:2:0:0:
242,384,115698,1,10,0:0:0:0:
0,338,115865,1,2,3:2:0:0:
153,202,116032,6,0,L|135:296,1,94.499997116089,2|0,0:0|3:2,0:0:0:0:
333,178,116365,2,0,P|372:152|418:151,1,94.499997116089,10|0,0:0|0:0,0:0:0:0:
512,347,116698,2,0,L|419:329,1,94.499997116089,2|0,3:2|3:0,0:0:0:0:
239,154,117032,2,0,L|256:246,1,94.499997116089,10|0,0:0|0:0,0:0:0:0:
512,162,117365,6,0,P|472:80|382:64,1,188.999994232178,2|8,3:2|0:0,0:0:0:0:
239,154,117865,1,0,0:0:0:0:
408,294,118032,1,2,3:2:0:0:
363,73,118198,1,2,3:2:0:0:
249,315,118365,1,10,0:0:0:0:
512,162,118532,6,0,L|327:195,1,188.999994232178,6|8,3:2|3:0,0:0:0:0:
116,247,119032,1,2,3:2:0:0:
188,3,119198,2,0,P|275:6|321:97,1,188.999994232178,6|2,3:2|0:0,0:0:0:0:
228,276,119698,1,8,0:0:0:0:
228,276,119782,1,8,0:0:0:0:
228,276,119865,2,0,L|219:229,1,47.2499985580445,10|8,0:0|0:0,0:0:0:0:
40,91,120032,6,0,B|134:86|112:133|205:127,1,170.999995433807,6|8,3:2|0:0,0:0:0:0:
356,181,120532,1,0,0:0:0:0:
317,0,120698,2,0,L|302:89,1,85.4999977169037,0|0,3:2|0:0,0:0:0:0:
348,285,121032,1,8,0:0:0:0:
159,155,121198,6,0,P|77:168|42:243,1,170.999995433807,0|2,3:2|0:0,0:0:0:0:
186,352,121698,1,8,0:0:0:0:
251,205,121865,2,0,L|340:189,1,85.4999977169037,2|0,0:0|3:2,0:0:0:0:
490,235,122198,1,2,0:0:0:0:
333,99,122365,1,10,0:0:0:0:
379,270,122532,1,2,0:0:0:0:
421,57,122698,6,0,P|357:3|275:19,1,170.999995433807,0|8,3:2|0:0,0:0:0:0:
187,122,123198,1,0,0:0:0:0:
265,273,123365,1,2,3:2:0:0:
333,99,123532,1,2,0:0:0:0:
163,236,123698,1,10,0:0:0:0:
350,87,123865,6,0,P|389:69|433:74,1,85.4999977169037,2|0,3:2|0:0,0:0:0:0:
295,181,124198,1,2,0:0:0:0:
263,0,124365,1,10,0:0:0:0:
404,167,124532,2,0,L|388:251,1,85.4999977169037,2|0,0:0|3:2,0:0:0:0:
296,384,124865,1,2,0:0:0:0:
295,181,125032,1,10,0:0:0:0:
512,312,125198,5,0,3:2:0:0:
512,312,125282,1,0,3:2:0:0:
512,312,125365,2,0,B|389:289|389:289|360:325,1,170.999995433807,6|10,3:2|0:0,0:0:0:0:
235,263,125865,1,0,0:0:0:0:
212,92,126032,1,0,3:2:0:0:
378,151,126198,1,2,0:0:0:0:
187,83,126365,1,10,0:0:0:0:
344,252,126532,6,0,L|512:222,1,170.999995433807,2|2,3:2|3:2,0:0:0:0:
392,66,127032,2,0,L|377:151,1,85.4999977169037,8|2,0:0|0:0,0:0:0:0:
308,333,127365,1,0,3:2:0:0:
245,162,127532,1,2,0:0:0:0:
204,368,127698,1,10,0:0:0:0:
344,252,127865,1,2,0:0:0:0:
108,243,128032,6,0,P|35:214|19:113,1,170.999995433807,0|8,3:2|0:0,0:0:0:0:
155,53,128532,1,0,0:0:0:0:
242,265,128698,1,2,3:2:0:0:
319,74,128865,1,2,0:0:0:0:
106,146,129032,1,10,0:0:0:0:
344,252,129198,6,0,P|386:254|425:231,1,85.4999977169037,2|0,3:2|0:0,0:0:0:0:
287,165,129532,1,2,0:0:0:0:
202,355,129698,1,10,0:0:0:0:
114,188,129865,2,0,L|99:103,1,85.4999977169037,2|0,0:0|3:2,0:0:0:0:
257,256,130198,1,8,3:2:0:0:
257,256,130282,1,8,3:0:0:0:
257,256,130365,2,0,L|212:264,1,42.7499988584519,8|0,0:0|3:0,0:0:0:0:
68,351,130532,2,0,L|112:359,1,42.7499988584519,10|8,0:0|0:0,0:0:0:0:
312,384,130698,6,0,B|324:314|324:314|346:296|346:296|361:226,1,170.999995433807,6|10,3:2|0:0,0:0:0:0:
357,81,131198,1,0,0:0:0:0:
237,165,131365,2,0,P|195:168|155:151,1,85.4999977169037,0|0,3:2|0:0,0:0:0:0:
0,6,131698,1,8,0:0:0:0:
52,203,131865,6,0,B|81:33,1,170.999995433807,0|2,3:2|3:2,0:0:0:0:
195,168,132365,1,8,0:0:0:0:
105,291,132532,2,0,L|20:305,1,85.4999977169037,2|0,0:0|3:2,0:0:0:0:
193,353,132865,1,2,0:0:0:0:
52,203,133032,1,10,0:0:0:0:
78,380,133198,1,2,0:0:0:0:
273,241,133365,6,0,B|380:260|380:260|410:239|399:203,1,170.999995433807,0|8,3:2|0:0,0:0:0:0:
478,96,133865,1,0,0:0:0:0:
321,161,134032,1,2,3:2:0:0:
485,274,134198,1,2,0:0:0:0:
301,148,134365,1,10,0:0:0:0:
370,373,134532,6,0,L|400:198,1,170.999995433807,2|2,3:2|0:0,0:0:0:0:
325,14,135032,1,10,0:0:0:0:
219,161,135198,2,0,P|260:164|301:147,1,85.4999977169037,2|0,0:0|3:2,0:0:0:0:
145,19,135532,1,10,3:0:0:0:
123,271,135698,1,8,0:0:0:0:
249,81,135865,1,10,3:0:0:0:
112,294,136032,6,0,B|-3:273|-3:273|30:317,1,170.999995433807,4|10,3:2|0:0,0:0:0:0:
192,384,136532,2,0,P|210:345|208:302,1,85.4999977169037,2|0,0:0|3:2,0:0:0:0:
177,141,136865,1,2,0:0:0:0:
332,261,137032,1,10,0:0:0:0:
280,58,137198,6,0,L|251:227,1,170.999995433807,2|2,3:2|3:2,0:0:0:0:
314,371,137698,2,0,P|355:374|396:357,1,85.4999977169037,8|2,0:0|0:0,0:0:0:0:
497,218,138032,1,0,3:2:0:0:
332,261,138198,1,2,0:0:0:0:
484,381,138365,2,0,L|468:294,1,85.4999977169037,10|2,0:0|0:0,0:0:0:0:
376,116,138698,6,0,B|306:101|306:101|288:79|288:79|218:67,1,170.999995433807,2|8,3:2|0:0,0:0:0:0:
82,16,139198,2,0,L|96:100,1,85.4999977169037,0|0,0:0|3:2,0:0:0:0:
74,242,139532,1,0,0:0:0:0:
171,141,139698,1,8,0:0:0:0:
240,333,139865,6,0,P|325:331|368:256,1,170.999995433807,2|0,3:2|0:0,0:0:0:0:
261,160,140365,2,0,L|275:244,1,85.4999977169037,4|0,3:2|0:0,0:0:0:0:
413,184,140698,6,0,L|356:174,2,56.9999984779358,8|8|8,0:0|0:0|3:0,0:0:0:0:
456,258,141032,6,0,L|512:248,2,56.9999984779358,12|8|8,3:0|3:3|3:3,0:0:0:0:
406,325,141365,6,0,B|341:321|350:348|276:345,1,125.999996154785,6|8,3:2|0:2,0:0:0:0:
196,280,141865,1,2,1:2:0:0:
196,280,142032,1,2,3:2:0:0:
135,359,142198,2,0,L|202:370,1,62.9999980773926,10|0,0:0|0:0,0:0:0:0:
280,256,142532,6,0,L|255:125,1,125.999996154785,10|0,0:2|0:0,3:0:0:0:
370,111,143032,2,0,L|358:174,1,62.9999980773926,2|0,0:0|1:2,0:0:0:0:
398,261,143365,2,0,P|430:263|465:247,1,62.9999980773926,2|0,3:2|0:0,0:0:0:0:
512,163,143698,2,0,P|479:165|444:149,1,62.9999980773926,10|0,0:2|0:0,0:0:0:0:
398,24,144032,6,0,P|336:22|291:64,1,125.999996154785,2|8,3:2|0:0,0:0:0:0:
244,163,144532,1,2,1:2:0:0:
161,72,144698,2,0,B|63:54|63:54|46:75,1,125.999996154785,2|0,3:2|0:0,0:0:0:0:
0,161,145198,6,0,B|65:157|56:184|130:181,2,125.999996154785,0|0|0,1:2|0:0|0:2,0:0:0:0:
19,244,146032,2,0,L|29:306,1,62.9999980773926,10|0,0:2|0:0,0:0:0:0:
117,383,146365,2,0,L|127:320,1,62.9999980773926,2|0,1:2|1:0,0:0:0:0:
123,181,146698,6,0,P|158:225|231:235,1,125.999996154785,2|8,0:0|0:0,0:0:0:0:
305,188,147198,1,2,1:2:0:0:
305,188,147365,1,2,3:2:0:0:
322,297,147532,2,0,L|311:359,1,62.9999980773926,10|0,0:2|0:0,0:0:0:0:
453,384,147865,6,0,P|503:354|505:287,1,125.999996154785,10|0,0:0|0:0,0:0:0:0:
453,215,148365,2,0,L|390:204,1,62.9999980773926,2|8,0:0|0:2,0:0:0:0:
309,123,148698,2,0,P|340:125|369:114,1,62.9999980773926,2|0,0:2|0:0,0:0:0:0:
474,59,149032,2,0,L|463:121,1,62.9999980773926,10|0,0:2|0:0,0:0:0:0:
324,43,149365,6,0,L|199:22,1,125.999996154785,2|10,3:2|0:0,0:0:0:0:
85,0,149865,2,0,L|95:62,1,62.9999980773926,2|0,0:0|3:0,0:0:0:0:
109,174,150198,1,8,0:2:0:0:
109,174,150532,6,0,L|180:186,1,72,4|0,3:2|0:0,0:0:0:0:
285,250,150865,1,0,3:2:0:0:
215,102,151032,1,8,0:0:0:0:
122,264,151198,2,0,P|87:264|52:248,1,72,4|0,3:2|0:0,0:0:0:0:
203,347,151532,1,0,3:0:0:0:
203,347,151615,1,0,3:0:0:0:
203,347,151698,2,0,L|209:304,1,36,8|8,0:0|3:0,0:0:0:0:
282,170,151865,5,8,0:0:0:0:
282,170,151948,1,8,0:0:0:0:
282,170,152032,2,0,B|381:187|381:187|419:166,1,144,6|8,3:2|0:0,0:0:0:0:
489,69,152532,1,2,0:0:0:0:
348,32,152698,1,2,3:2:0:0:
348,32,152865,2,0,L|361:107,1,72,2|8,0:0|0:0,0:0:0:0:
310,262,153198,6,0,B|232:255|248:295|162:284,1,144,2|0,3:2|3:2,0:0:0:0:
22,259,153698,2,0,L|6:178,1,72,10|0,0:0|0:0,0:0:0:0:
122,136,154032,2,0,L|106:216,1,72,2|0,3:2|0:0,0:0:0:0:
75,340,154365,2,0,P|42:355|6:355,1,72,10|0,0:0|0:0,0:0:0:0:
170,284,154698,6,2,B|248:295|232:255|310:262,1,144,2|8,3:2|0:0,0:0:0:0:
427,318,155198,1,2,0:0:0:0:
406,168,155365,2,0,L|394:239,1,72,2|0,3:2|0:0,0:0:0:0:
493,122,155698,1,8,0:0:0:0:
319,190,155865,6,0,B|260:179|260:179|242:160|242:160|185:150,1,144,0|0,3:2|3:2,0:0:0:0:
75,52,156365,2,0,L|148:40,1,72,8|0,0:0|0:0,0:0:0:0:
264,0,156698,2,0,L|252:73,1,72,2|0,3:2|0:0,0:0:0:0:
319,190,157032,2,0,P|354:189|387:174,1,72,10|0,0:0|0:0,0:0:0:0:
512,62,157365,6,2,L|486:204,1,144,2|8,3:2|0:0,0:0:0:0:
502,339,157865,1,2,0:0:0:0:
384,280,158032,1,2,3:2:0:0:
384,280,158198,2,0,L|303:294,1,72,2|8,0:0|0:0,0:0:0:0:
186,384,158532,6,0,B|196:325|196:325|215:307|215:307|225:250,1,144,2|0,3:2|3:2,0:0:0:0:
104,178,159032,2,0,L|116:248,1,72,10|0,0:0|0:0,0:0:0:0:
202,158,159365,2,0,P|235:142|271:142,1,72,2|0,3:2|0:0,0:0:0:0:
377,241,159698,2,0,L|391:160,1,72,10|0,0:0|0:0,0:0:0:0:
467,7,160032,6,2,P|426:56|344:64,1,144,2|10,3:2|0:0,0:0:0:0:
227,0,160532,1,2,0:0:0:0:
255,144,160698,2,0,L|269:63,1,72,0|0,3:2|0:0,0:0:0:0:
140,155,161032,1,8,0:0:0:0:
300,267,161198,6,0,B|376:264|360:301|442:298,1,144,4|0,3:2|3:2,0:0:0:0:
358,155,161698,1,8,0:0:0:0:
221,317,161865,2,0,P|149:302|115:237,1,144,6|0,3:2|3:2,0:0:0:0:
160,88,162365,1,10,0:0:0:0:
57,156,162532,1,8,3:0:0:0:
209,221,162698,6,0,L|320:201,1,107.999996704102,6|2,3:2|0:0,0:0:0:0:
419,166,163198,1,2,0:0:0:0:
419,166,163365,2,0,L|428:110,1,53.9999983520508,2|0,3:3|0:0,0:0:0:0:
381,16,163698,2,0,L|325:25,1,53.9999983520508,10|0,0:0|0:0,0:0:0:0:
206,80,164032,6,0,P|255:96|277:146,1,107.999996704102,2|0,3:3|0:0,0:0:0:0:
229,239,164532,1,0,0:0:0:0:
229,239,164698,2,0,L|175:248,1,53.9999983520508,2|0,3:3|3:2,0:0:0:0:
83,193,165032,1,10,0:0:0:0:
83,193,165198,1,0,3:2:0:0:
102,329,165365,6,0,L|214:349,1,107.999996704102,2|2,3:3|0:0,0:0:0:0:
321,319,165865,2,0,L|331:264,1,53.9999983520508,2|2,1:2|3:3,0:0:0:0:
405,214,166198,2,0,L|415:267,1,53.9999983520508,2|8,0:0|0:0,0:0:0:0:
512,338,166532,1,2,3:2:0:0:
512,338,166698,6,0,B|453:335|463:357|406:355,1,107.999996704102,2|8,0:3|0:0,0:0:0:0:
331,265,167365,1,2,3:3:0:0:
331,265,167532,1,2,3:2:0:0:
310,370,167698,1,10,0:0:0:0:
310,370,167865,1,2,0:0:0:0:
415,267,168032,6,0,B|403:201|403:201|381:180|381:180|369:116,1,161.999995056153,6|0,3:2|0:0,0:0:0:0:
308,36,168698,2,0,P|279:28|249:25,1,53.9999983520508,2|0,3:3|0:0,0:0:0:0:
225,138,169032,2,0,L|279:127,1,53.9999983520508,10|0,0:0|0:0,0:0:0:0:
159,63,169365,6,0,L|104:52,1,53.9999983520508,2|2,3:3|0:0,0:0:0:0:
0,30,169698,1,2,0:0:0:0:
0,30,169865,2,0,L|10:84,1,53.9999983520508,2|2,3:2|3:3,0:0:0:0:
52,190,170198,1,2,3:2:0:0:
52,190,170365,2,0,P|25:187|0:179,1,53.9999983520508,10|2,0:0|3:2,0:0:0:0:
122,117,170698,6,0,P|188:137|206:232,1,161.999995056153,2|0,3:3|0:0,0:0:0:0:
180,331,171365,2,0,L|289:311,1,107.999996704102,2|8,3:3|0:0,0:0:0:0:
390,263,171865,1,0,3:2:0:0:
390,263,172032,6,0,P|424:220|414:166,1,107.999996704102,2|8,0:3|0:0,0:0:0:0:
323,110,172532,1,0,1:2:0:0:
323,110,172698,2,0,L|312:170,1,53.9999983520508,2|0,3:3|3:2,0:0:0:0:
200,231,173032,2,0,L|186:150,1,80.9999975280763,10|0,0:0|0:0,0:0:0:0:
177,116,173365,6,0,B|65:96|65:96|23:120,1,161.999995056153,6|2,3:2|1:2,0:0:0:0:
22,234,174032,2,0,P|48:231|74:223,1,53.9999983520508,2|0,0:3|0:0,0:0:0:0:
200,231,174365,2,0,L|189:291,1,53.9999983520508,10|0,0:0|0:0,0:0:0:0:
89,356,174698,6,0,L|249:385,1,161.999995056153,2|0,0:3|1:2,0:0:0:0:
368,333,175365,2,0,L|357:273,1,53.9999983520508,2|0,3:3|3:2,0:0:0:0:
262,222,175698,2,0,L|252:275,1,53.9999983520508,10|0,0:0|3:2,0:0:0:0:
348,186,176032,6,0,P|401:134|484:139,1,161.999995056153,2|2,3:3|3:2,0:0:0:0:
492,234,176698,2,0,L|439:225,1,53.9999983520508,0|2,0:3|0:0,0:0:0:0:
330,274,177032,1,10,0:0:0:0:
397,374,177198,1,2,3:2:0:0:
317,259,177365,6,0,L|246:247,1,72,2|0,0:3|0:0,0:0:0:0:
115,144,177698,2,0,L|186:132,1,72,8|0,0:0|3:2,0:0:0:0:
345,92,178032,1,2,3:2:0:0:
246,247,178198,1,2,3:2:0:0:
211,41,178365,1,10,0:0:0:0:
318,185,178532,1,2,0:0:0:0:
74,70,178698,6,0,B|17:104|17:104|47:216,1,180,6|8,3:2|0:0,0:0:0:0:
105,349,179198,1,0,3:2:0:0:
229,200,179365,2,0,L|316:185,1,90,0|0,3:2|0:0,0:0:0:0:
511,284,179698,1,10,0:0:0:0:
460,36,179865,6,0,L|427:212,1,180,6|0,3:2|3:2,0:0:0:0:
290,365,180365,2,0,L|275:277,1,90,10|0,0:0|0:0,0:0:0:0:
159,127,180698,1,10,0:0:0:0:
159,127,180782,1,8,0:0:0:0:
159,127,180865,2,0,L|151:170,1,45,10|8,0:0|0:0,0:0:0:0:
146,327,181032,1,8,0:0:0:0:
330,138,181198,6,0,B|426:130|407:176|505:166,1,180,6|0,3:2|0:0,0:0:0:0:
375,339,181698,2,0,L|359:251,1,90,10|0,0:0|0:0,0:0:0:0:
261,58,182032,1,0,3:2:0:0:
206,262,182198,1,0,3:2:0:0:
418,152,182365,1,8,0:0:0:0:
184,276,182532,6,0,P|99:250|76:165,1,180,2|0,3:2|3:2,0:0:0:0:
261,58,183032,2,0,L|277:146,1,90,8|0,0:0|0:0,0:0:0:0:
315,348,183365,1,2,3:2:0:0:
418,152,183532,1,2,0:0:0:0:
186,174,183698,1,8,0:0:0:0:
379,271,183865,1,2,0:0:0:0:
261,58,184032,6,0,P|220:39|176:44,1,90,0|0,3:2|0:0,0:0:0:0:
11,203,184365,2,0,L|99:187,1,90,10|0,0:0|0:0,0:0:0:0:
340,191,184698,1,2,3:2:0:0:
142,329,184865,1,2,0:0:0:0:
164,72,185032,1,10,0:0:0:0:
314,306,185198,6,0,L|494:272,1,180,2|0,3:2|3:2,0:0:0:0:
329,95,185698,1,10,0:0:0:0:
225,268,185865,1,2,0:0:0:0:
225,268,185948,1,2,0:0:0:0:
225,268,186032,1,0,3:2:0:0:
434,193,186198,1,0,0:0:0:0:
189,116,186365,1,10,0:0:0:0:
365,338,186532,6,0,B|269:330|288:376|190:366,1,180,6|0,3:2|0:0,0:0:0:0:
0,259,187032,2,0,L|92:242,1,90,10|0,0:0|0:0,0:0:0:0:
283,169,187365,1,2,3:2:0:0:
91,134,187532,1,0,0:0:0:0:
302,176,187698,1,8,0:0:0:0:
175,1,187865,6,0,L|191:93,1,90,2|2,3:2|0:0,0:0:0:0:
254,270,188198,1,2,3:2:0:0:
363,74,188365,2,0,P|404:55|448:60,1,90,8|2,0:0|0:0,0:0:0:0:
357,266,188698,1,2,3:2:0:0:
269,32,188865,1,2,3:2:0:0:
494,159,189032,2,0,L|406:173,1,90,10|0,0:0|0:0,0:0:0:0:
127,103,189365,6,0,P|211:117|229:212,1,180,2|8,3:2|0:0,0:0:0:0:
164,359,189865,1,2,0:0:0:0:
164,359,189948,1,2,0:0:0:0:
164,359,190032,1,2,3:2:0:0:
357,266,190198,1,2,3:2:0:0:
144,191,190365,1,10,0:0:0:0:
279,384,190532,6,0,L|264:294,1,90,2|0,3:2|0:0,0:0:0:0:
203,106,190865,1,0,3:2:0:0:
35,291,191032,2,0,L|124:276,1,90,10|2,0:0|0:0,0:0:0:0:
323,144,191365,1,2,3:2:0:0:
271,339,191532,1,10,0:0:0:0:
271,339,191615,1,10,0:0:0:0:
271,339,191698,2,0,L|264:295,1,45,10|8,3:2|3:2,0:2:0:0:
114,105,191865,6,0,B|-8:82|-8:82|26:129,1,180,6|0,3:2|0:0,0:0:0:0:
180,257,192365,2,0,P|224:259|263:238,1,90,10|0,0:0|0:0,0:0:0:0:
422,96,192698,1,2,3:2:0:0:
388,303,192865,1,2,3:2:0:0:
271,98,193032,1,10,0:0:0:0:
512,195,193198,6,0,B|437:181|437:181|410:196|410:196|337:183,1,180,2|0,3:2|3:2,0:0:0:0:
130,65,193698,1,10,0:0:0:0:
348,25,193865,1,2,0:0:0:0:
157,168,194032,1,2,3:2:0:0:
329,43,194198,1,2,0:0:0:0:
279,286,194365,1,10,0:0:0:0:
237,68,194532,1,2,0:0:0:0:
433,199,194698,6,0,L|344:183,1,90,0|0,3:2|0:0,0:0:0:0:
254,380,195032,2,0,L|342:364,1,90,8|0,0:0|0:0,0:0:0:0:
256,175,195365,1,0,3:2:0:0:
138,312,195532,1,0,0:0:0:0:
146,104,195698,1,8,0:0:0:0:
319,262,195865,6,0,P|403:242|427:153,1,180,0|0,3:2|3:2,0:0:0:0:
269,46,196365,1,8,0:0:0:0:
344,183,196532,1,2,0:0:0:0:
344,183,196615,1,2,0:0:0:0:
344,183,196698,1,2,3:2:0:0:
381,17,196865,1,0,3:2:0:0:
511,168,197032,1,8,0:0:0:0:
262,134,197198,6,0,B|166:126|185:172|87:162,1,180,6|0,3:2|0:0,0:0:0:0:
0,338,197698,2,0,L|91:321,1,90,10|2,0:0|0:0,0:0:0:0:
270,255,198032,1,2,3:2:0:0:
115,207,198198,1,0,0:0:0:0:
210,381,198365,1,8,0:0:0:0:
335,196,198532,6,0,L|512:164,1,180,2|2,3:2|3:2,0:0:0:0:
389,7,199032,2,0,B|374:97|374:96,1,90,10|0,0:0|0:0,0:0:0:0:
365,299,199365,1,2,3:2:0:0:
263,125,199532,1,2,0:0:0:0:
293,362,199698,1,10,0:0:0:0:
424,181,199865,1,2,0:0:0:0:
177,273,200032,6,0,B|64:292|64:292|33:270|44:233,1,180,2|8,3:2|0:0,0:0:0:0:
159,117,200532,1,2,0:0:0:0:
159,117,200615,1,2,0:0:0:0:
159,117,200698,1,2,3:2:0:0:
285,281,200865,1,2,0:0:0:0:
237,15,201032,1,10,0:0:0:0:
44,235,201198,1,2,3:2:0:0:
244,182,201365,6,2,B|360:171|336:229|457:218,1,215.999993408203,2|2,0:0|3:2,0:0:0:0:
419,104,202365,1,2,0:0:0:0:
281,279,202698,6,0,B|169:298,1,107.999996704102,6|2,3:2|0:0,0:0:0:0:
95,257,203198,1,2,1:2:0:0:
95,257,203364,2,0,L|86:310,1,53.9999983520508,2|0,3:3|0:0,0:0:0:0:
9,363,203698,2,0,L|0:309,1,53.9999983520508,10|0,2:0|2:0,2:0:0:0:
28,193,204031,6,0,P|78:168|134:172,1,107.999996704102,2|0,3:3|0:0,0:0:0:0:
210,212,204531,1,0,1:2:0:0:
210,212,204698,2,0,L|219:158,1,53.9999983520508,2|8,3:3|3:3,0:0:0:0:
275,89,205031,1,10,0:0:0:0:
275,89,205198,1,0,3:2:0:0:
357,167,205364,6,0,P|409:158|447:121,1,107.999996704102,2|2,3:3|0:0,0:0:0:0:
457,38,205864,2,0,L|403:27,1,53.9999983520508,2|2,1:2|3:3,0:0:0:0:
328,79,206198,2,0,L|274:89,1,53.9999983520508,2|10,0:0|0:0,0:0:0:0:
180,49,206531,1,2,3:2:0:0:
180,49,206698,6,0,L|200:154,1,107.999996704102,2|8,0:3|0:0,0:0:0:0:
242,285,207364,1,2,3:3:0:0:
242,285,207531,1,10,3:0:0:0:
303,183,207698,1,10,0:0:0:0:
303,183,207864,1,2,0:0:0:0:
150,243,208032,6,0,B|86:231|86:231|65:209|65:209|0:197,1,161.999995056153,6|0,3:2|0:0,0:0:0:0:
0,99,208698,2,0,L|53:90,1,53.9999983520508,2|0,3:3|0:0,0:0:0:0:
128,17,209031,2,0,L|74:7,1,53.9999983520508,10|0,0:0|0:0,0:0:0:0:
143,103,209364,6,0,L|196:95,1,53.9999983520508,2|2,3:3|0:0,0:0:0:0:
291,66,209698,1,2,0:0:0:0:
291,66,209864,2,0,L|283:120,1,53.9999983520508,2|2,1:2|3:3,0:0:0:0:
267,209,210198,1,2,3:2:0:0:
267,209,210364,2,0,P|292:201|319:198,1,53.9999983520508,10|2,0:0|3:2,0:0:0:0:
441,262,210699,6,0,P|362:267|316:330,1,161.999995056153,2|0,3:3|0:0,0:0:0:0:
236,384,211364,2,0,L|218:277,1,107.999996704102,2|8,3:3|0:0,0:0:0:0:
158,211,211864,1,0,3:2:0:0:
158,211,212031,6,0,P|104:214|55:189,1,107.999996704102,2|8,0:3|0:0,0:0:0:0:
38,108,212531,1,0,1:2:0:0:
38,108,212698,2,0,L|92:99,1,53.9999983520508,10|8,3:3|3:0,0:0:0:0:
203,42,213031,2,0,P|241:52|266:83,1,80.9999975280763,10|0,0:0|0:0,0:0:0:0:
281,109,213364,6,0,B|370:104|348:147|436:143,1,161.999995056153,6|2,3:2|0:0,0:0:0:0:
508,196,214031,2,0,L|498:249,1,53.9999983520508,2|0,3:3|0:0,0:0:0:0:
412,286,214364,2,0,L|402:232,1,53.9999983520508,10|0,0:0|0:0,0:0:0:0:
496,358,214698,6,0,L|336:384,1,161.999995056153,2|0,0:3|1:2,0:0:0:0:
223,345,215364,2,0,L|214:291,1,53.9999983520508,2|8,3:3|3:0,0:0:0:0:
321,235,215698,2,0,L|312:288,1,53.9999983520508,10|0,0:0|3:2,0:0:0:0:
226,184,216032,6,0,B|137:179|159:222|70:218,1,161.999995056153,2|2,3:3|3:2,0:0:0:0:
0,108,216698,2,0,L|53:117,1,53.9999983520508,2|2,0:3|0:0,0:0:0:0:
148,107,217031,1,10,0:0:0:0:
148,107,217198,1,2,3:2:0:0:
208,267,217365,6,0,P|244:268|277:253,1,72,2|0,1:3|3:2,0:0:0:0:
398,140,217698,2,0,L|327:127,1,72,8|0,0:0|1:2,0:0:0:0:
148,107,218032,1,2,3:2:0:0:
295,0,218198,1,2,3:2:0:0:
248,183,218365,2,0,L|235:112,1,72,10|0,0:0|0:0,0:0:0:0:
421,288,218698,6,0,B|334:279|351:324|262:314,1,161.999995056153,6|8,3:2|0:0,0:0:0:0:
127,208,219198,1,0,3:2:0:0:
160,384,219365,2,0,L|174:299,1,80.9999975280763,0|0,3:2|0:0,0:0:0:0:
235,112,219698,1,10,0:0:0:0:
377,290,219865,6,0,P|456:272|487:197,1,161.999995056153,6|0,3:2|3:2,0:0:0:0:
355,56,220365,2,0,L|340:140,1,80.9999975280763,10|0,0:0|0:0,0:0:0:0:
171,226,220698,2,0,L|156:146,1,80.9999975280763,2|0,3:2|0:0,0:0:0:0:
270,298,221032,1,10,0:0:0:0:
88,273,221198,1,2,0:0:0:0:
297,171,221365,5,6,3:2:0:0:
169,327,221532,1,2,0:0:0:0:
129,118,221698,1,10,0:0:0:0:
304,273,221865,2,0,B|370:260|370:260|394:273|394:273|468:258,1,161.999995056153,2|0,3:2|3:2,0:0:0:0:
343,86,222365,1,8,0:0:0:0:
151,225,222532,6,0,P|69:214|36:141,1,161.999995056153,6|0,3:2|0:0,0:0:0:0:
273,18,223032,5,8,0:0:0:0:
328,242,223198,1,0,3:2:0:0:
411,3,223365,5,8,0:0:0:0:
196,108,223532,1,0,3:2:0:0:
461,221,223698,1,8,0:0:0:0:
461,221,224032,5,10,0:0:0:0:
273,18,224198,1,0,3:2:0:0:
328,272,224365,5,8,0:0:0:0:
503,73,224532,1,2,3:2:0:0:
431,336,224698,5,10,0:0:0:0:
354,81,224865,1,0,3:2:0:0:
157,316,225032,5,8,0:0:0:0:
468,222,225198,1,2,3:2:0:0:
468,222,225282,1,2,3:2:0:0:
468,222,225365,5,10,0:0:0:0:
195,97,225532,1,2,3:2:0:0:
272,383,225698,5,8,0:0:0:0:
326,108,225865,1,2,3:2:0:0:
49,301,226032,5,10,0:0:0:0:
308,214,226198,1,0,3:2:0:0:
59,83,226365,5,8,0:0:0:0:
155,384,226532,1,0,3:2:0:0:
155,384,226615,1,0,3:2:0:0:
155,384,226698,5,14,0:0:0:0:
326,108,226865,1,0,3:2:0:0:
0,193,227032,5,8,0:0:0:0:
303,354,227198,1,2,3:2:0:0:
141,0,227365,5,10,0:0:0:0:
435,222,227532,1,8,3:0:0:0:
27,316,227698,1,10,3:0:0:0:
410,33,227865,1,14,0:0:0:0:
410,33,228198,5,0,3:2:0:0:
315,135,228365,2,0,L|302:60,1,72,10|0,0:0|0:0,0:0:0:0:
204,0,228699,2,0,L|191:74,1,72,10|0,0:0|3:2,0:0:0:0:
180,101,228949,1,0,3:2:0:0:
180,101,229032,2,0,L|191:172,1,72,10|0,0:0|0:0,0:0:0:0:
415,323,229365,6,0,B|306:313|328:364|222:356,1,198.000006042481,6|8,3:2|0:0,0:0:0:0:
55,195,229865,1,2,0:0:0:0:
108,384,230032,2,0,L|126:276,1,99.0000030212403,2|0,3:2|3:2,0:3:0:0:
256,75,230365,1,8,0:0:0:0:
55,195,230532,1,2,3:2:0:0:
252,271,230698,5,2,0:0:0:0:
165,68,230865,2,0,L|147:165,1,99.0000030212403,2|8,3:2|0:0,0:3:0:0:
234,367,231198,2,0,P|284:365|324:336,1,99.0000030212403,2|0,0:0|3:2,0:0:0:0:
506,185,231532,2,0,L|408:167,1,99.0000030212403,2|8,3:2|0:0,0:0:0:0:
230,0,231865,1,2,0:0:0:0:
279,261,232032,6,0,L|313:65,1,198.000006042481,2|10,3:2|0:0,0:0:0:0:
170,186,232532,1,0,0:0:0:0:
348,337,232698,1,2,3:2:0:0:
304,115,232865,1,2,3:2:0:0:
151,320,233032,1,8,0:0:0:0:
319,96,233198,6,0,P|388:32|481:55,1,198.000006042481,2|0,3:2|0:0,0:0:0:0:
309,222,233698,1,8,0:0:0:0:
233,39,233865,1,0,0:0:0:0:
423,161,234032,1,2,3:2:0:0:
214,188,234198,1,2,3:2:0:0:
430,30,234365,1,10,0:0:0:0:
404,264,234532,1,2,0:0:0:0:
172,112,234698,6,0,B|40:86|40:86|80:143,1,198.000006042481,2|10,3:2|0:0,0:0:0:0:
166,277,235198,1,0,0:0:0:0:
303,127,235365,1,2,3:2:0:0:
289,321,235532,1,2,3:2:0:0:
172,112,235698,1,10,0:0:0:0:
356,235,235865,1,2,3:2:0:0:
320,29,236032,6,0,L|302:129,1,99.0000030212403,2|0,0:0|3:2,0:0:0:0:
152,293,236365,2,0,P|102:298|57:274,1,99.0000030212403,10|0,0:0|0:0,0:0:0:0:
185,86,236698,2,0,L|202:183,1,99.0000030212403,2|0,3:2|3:2,0:0:0:0:
430,303,237032,2,0,L|447:205,1,99.0000030212403,10|0,0:0|0:0,0:0:0:0:
238,4,237365,6,0,P|145:-5|88:73,1,198.000006042481,2|8,3:2|0:0,0:0:0:0:
202,183,237865,1,2,0:0:0:0:
369,0,238032,2,0,L|386:98,1,99.0000030212403,2|0,3:2|0:0,0:0:0:0:
444,332,238365,1,10,0:0:0:0:
246,99,238532,6,0,B|137:89|159:140|53:132,1,198.000006042481,6|0,3:2|0:0,0:0:0:0:
274,265,239032,1,10,0:0:0:0:
359,0,239198,1,4,3:2:0:0:
53,132,239365,2,0,L|79:280,1,148.50000453186,10|0,0:0|0:0,0:0:0:0:
89,311,239698,2,0,P|161:315|218:270,1,148.50000453186,10|0,0:0|0:0,0:0:0:0:
239,246,240032,6,0,B|376:222|376:222|429:251,1,198.000006042481,6|8,3:2|0:0,0:0:0:0:
294,383,240532,1,2,0:0:0:0:
153,199,240698,2,0,L|170:100,1,99.0000030212403,2|0,3:2|3:2,0:0:0:0:
385,0,241032,1,8,0:0:0:0:
321,187,241198,1,2,3:2:0:0:
207,0,241365,5,2,0:0:0:0:
373,104,241532,2,0,L|471:87,1,99.0000030212403,2|8,0:0|0:0,0:0:0:0:
351,286,241865,2,0,L|252:269,1,99.0000030212403,2|0,0:0|3:2,0:0:0:0:
38,158,242198,2,0,P|88:156|128:127,1,99.0000030212403,2|8,3:2|0:0,0:0:0:0:
306,0,242532,1,2,0:0:0:0:
379,256,242698,6,0,P|472:243|512:155,1,198.000006042481,0|10,3:2|0:0,0:0:0:0:
337,95,243198,1,0,0:0:0:0:
305,326,243365,1,2,3:2:0:0:
248,127,243532,1,2,3:2:0:0:
398,353,243698,1,8,0:0:0:0:
141,257,243865,6,0,L|337:222,1,198.000006042481,2|0,3:2|0:0,0:0:0:0:
142,384,244365,1,8,0:0:0:0:
70,185,244532,1,0,0:0:0:0:
267,326,244698,1,2,3:2:0:0:
45,328,244865,1,2,3:2:0:0:
247,126,245032,1,10,0:0:0:0:
153,360,245198,1,2,0:0:0:0:
264,98,245365,6,0,B|389:76|389:76|424:101|411:140,1,198.000006042481,2|10,3:2|0:0,0:0:0:0:
317,335,245865,1,0,0:0:0:0:
512,200,246032,1,2,3:2:0:0:
336,164,246198,1,2,3:2:0:0:
512,348,246365,1,10,0:0:0:0:
496,113,246532,1,2,3:2:0:0:
303,247,246698,6,0,L|205:230,1,99.0000030212403,2|0,0:0|3:2,0:0:0:0:
8,125,247032,2,0,L|24:222,1,99.0000030212403,10|0,0:0|0:0,0:0:0:0:
141,373,247365,2,0,P|190:376|233:351,1,99.0000030212403,2|0,3:2|3:0,0:0:0:0:
401,162,247698,2,0,P|351:165|308:140,1,99.0000030212403,10|0,0:0|0:0,0:0:0:0:
117,0,248032,5,2,3:2:0:0:
177,207,248198,2,0,L|193:109,1,99.0000030212403,2|8,0:0|0:0,0:0:0:0:
0,39,248532,2,0,L|16:136,1,99.0000030212403,2|0,0:0|3:2,0:0:0:0:
249,23,248865,2,0,P|291:0|340:2,1,99.0000030212403,2|8,3:2|0:0,0:0:0:0:
512,249,249198,6,0,B|317:214,1,198.000006042481,6|0,3:2|0:0,0:0:0:0:
89,80,249698,2,0,L|106:180,1,99.0000030212403,10|0,0:0|3:2,0:0:0:0:
273,366,250032,1,10,0:0:0:0:
273,366,250115,1,8,0:0:0:0:
273,366,250198,2,0,L|282:314,1,49.5000015106202,8|8,3:0|3:0,0:0:0:0:
359,135,250365,1,10,0:0:0:0:
118,306,250532,5,8,0:0:0:0:
118,306,250615,1,8,0:0:0:0:
118,306,250698,2,0,P|26:290|3:189,1,198.000006042481,6|8,3:2|0:0,0:0:0:0:
184,111,251198,1,2,0:0:0:0:
281,317,251365,2,0,L|379:300,1,99.0000030212403,2|0,3:2|3:2,0:0:0:0:
512,111,251698,1,8,0:0:0:0:
302,198,251865,1,2,3:2:0:0:
486,291,252032,5,2,0:0:0:0:
395,92,252198,2,0,L|297:75,1,99.0000030212403,2|8,3:2|0:0,0:0:0:0:
122,203,252532,2,0,P|170:202|212:176,1,99.0000030212403,2|0,0:2|3:0,0:0:0:0:
58,8,252865,2,0,L|40:107,1,99.0000030212403,2|8,3:2|0:0,0:0:0:0:
101,323,253198,1,2,0:0:0:0:
282,124,253365,6,0,B|391:114|369:165|475:157,1,198.000006042481,0|10,3:2|0:0,0:0:0:0:
310,269,253865,1,0,0:0:0:0:
212,52,254032,1,2,3:2:0:0:
425,117,254198,1,2,3:2:0:0:
182,234,254365,1,8,0:0:0:0:
318,0,254532,6,0,L|352:194,1,198.000006042481,2|0,3:2|0:0,0:0:0:0:
204,384,255032,1,8,0:0:0:0:
256,170,255198,1,0,0:0:0:0:
384,384,255365,1,2,3:2:0:0:
168,303,255532,1,2,3:2:0:0:
398,165,255698,1,10,0:0:0:0:
296,363,255865,1,2,0:0:0:0:
169,120,256032,6,0,P|105:53|7:70,1,198.000006042481,2|8,3:2|0:0,0:0:0:0:
86,241,256532,1,0,0:0:0:0:
283,111,256698,1,2,3:2:0:0:
77,133,256865,1,2,3:2:0:0:
309,221,257032,1,10,0:0:0:0:
58,123,257198,1,2,3:2:0:0:
185,285,257365,6,0,L|201:185,1,99.0000030212403,2|0,0:0|3:2,0:0:0:0:
369,42,257698,2,0,L|385:141,1,99.0000030212403,10|0,0:0|0:0,0:0:0:0:
377,354,258032,2,0,P|329:353|287:327,1,99.0000030212403,2|0,3:2|3:0,0:0:0:0:
141,111,258365,2,0,L|238:95,1,99.0000030212403,10|0,0:0|0:0,0:0:0:0:
131,351,258698,6,0,P|30:314|20:216,1,198.000006042481,2|8,3:2|0:0,0:0:0:0:
91,36,259198,1,2,0:0:0:0:
216,232,259365,2,0,P|264:233|308:209,1,99.0000030212403,2|0,3:2|3:0,0:0:0:0:
506,51,259698,1,10,0:0:0:0:
460,344,259865,6,0,L|426:149,1,198.000006042481,6|0,3:2|0:0,0:0:0:0:
202,0,260365,1,10,0:0:0:0:
266,282,260532,1,4,3:2:0:0:
506,51,260698,2,0,P|448:7|377:18,1,148.50000453186,10|0,0:0|0:0,0:0:0:0:
352,43,261032,2,0,L|326:189,1,148.50000453186,10|0,0:0|0:0,0:0:0:0:
318,231,261365,6,0,B|209:221|231:272|125:264,1,198.000006042481,6|8,3:2|0:0,0:0:0:0:
0,135,261865,1,2,0:0:0:0:
15,355,262032,2,0,L|31:254,1,99.0000030212403,2|0,3:2|3:0,0:0:0:0:
211,90,262365,1,8,0:0:0:0:
0,135,262532,1,2,3:2:0:0:
150,264,262698,5,2,0:0:0:0:
229,60,262865,2,0,L|327:42,1,99.0000030212403,2|8,3:2|0:0,0:0:0:0:
467,197,263198,2,0,L|368:179,1,99.0000030212403,2|0,0:0|3:2,0:0:0:0:
113,144,263532,1,2,3:2:0:0:
290,384,263698,1,8,0:0:0:0:
335,88,263865,1,2,3:2:0:0:
119,331,264032,6,0,P|178:254|277:266,1,198.000006042481,6|10,3:2|0:0,0:0:0:0:
423,152,264532,1,0,0:0:0:0:
398,376,264698,2,0,L|383:278,1,99.0000030212403,2|2,3:2|3:2,0:0:0:0:
444,35,265032,1,10,0:0:0:0:
217,245,265198,6,0,B|134:234|134:234|106:251|106:251|26:241,1,198.000006042481,6|0,3:2|3:2,3:0:0:0:
145,36,265698,2,0,L|161:133,1,99.0000030212403,10|0,0:0|0:0,0:0:0:0:
160,378,266032,1,2,3:2:0:0:
78,162,266198,1,2,3:2:0:0:
324,240,266365,1,10,0:0:0:0:
92,309,266532,1,2,0:0:0:0:
353,227,266698,6,0,L|388:32,1,198.000006042481,6|8,3:2|0:0,0:0:0:0:
249,151,267198,1,0,0:0:0:0:
415,306,267365,1,2,3:2:0:0:
230,137,267532,1,2,3:2:0:0:
283,384,267698,1,10,0:0:0:0:
464,166,267865,1,6,3:2:0:0:
272,257,268032,6,0,P|224:258|180:234,1,99.0000030212403,2|0,0:0|3:2,0:0:0:0:
0,96,268365,2,0,P|48:97|92:73,1,99.0000030212403,10|0,0:0|0:0,0:0:0:0:
287,0,268698,2,0,L|304:100,1,99.0000030212403,2|0,3:2|3:0,0:0:0:0:
496,252,269032,2,0,L|513:154,1,99.0000030212403,10|0,0:0|0:0,0:0:0:0:
292,361,269365,6,0,B|183:371|205:320|99:328,1,198.000006042481,6|0,3:2|0:0,0:0:0:0:
5,143,269865,1,8,3:0:0:0:
253,246,270032,1,6,3:2:0:0:
13,332,270198,1,2,3:2:0:0:
92,116,270365,1,8,3:0:0:0:
292,361,270532,6,0,P|388:352|434:265,1,198.000006042481,6|2,3:2|3:2,0:0:0:0:
341,86,271032,1,8,3:0:0:0:
512,156,271198,1,10,0:0:0:0:
512,156,271282,1,8,0:0:0:0:
512,156,271365,2,0,L|462:164,1,49.5000015106202,8|8,0:0|0:0,0:0:0:0:
311,222,271532,2,0,L|361:230,3,49.5000015106202,10|8|8|8,0:0|0:0|0:0|0:0,0:0:0:0:
341,86,271865,5,10,0:0:0:0:
341,86,271948,1,8,0:0:0:0:
341,86,272032,2,0,B|215:63|215:63|166:90,1,180,2|8,3:2|0:0,0:0:0:0:
51,215,272532,2,0,L|6:207,2,45,8|8|8,0:0|0:0|0:0,0:0:0:0:
218,169,272865,1,8,3:0:0:0:
55,108,273032,1,8,3:0:0:0:
158,295,273198,6,0,B|232:281|232:281|252:262|252:262|327:248,1,180,4|2,3:2|0:0,0:0:0:0:
512,136,273698,1,10,0:0:0:0:
459,372,273865,2,0,L|428:194,1,180,6|8,3:2|3:0,0:0:0:0:
290,65,274365,1,10,0:0:0:0:
290,65,274448,1,8,0:0:0:0:
290,65,274532,2,0,L|281:113,1,45,10|8,0:0|0:0,0:0:0:0:
184,278,274698,6,0,P|94:279|45:199,1,180,2|8,3:2|0:0,0:0:0:0:
146,52,275198,1,8,0:0:0:0:
146,52,275282,1,8,0:0:0:0:
146,52,275365,1,10,0:0:0:0:
278,221,275532,1,8,3:0:0:0:
284,0,275698,1,8,3:0:0:0:
93,153,275865,6,0,B|189:161|170:115|268:125,1,180,6|2,3:2|3:2,0:0:0:0:
471,254,276365,1,10,0:0:0:0:
402,0,276532,2,0,L|370:177,1,180,6|2,3:2|3:2,0:0:0:0:
243,330,277032,1,8,0:0:0:0:
243,330,277115,1,8,0:0:0:0:
243,330,277199,2,0,L|234:282,1,45,10|8,0:0|0:0,0:0:0:0:
133,125,277365,6,0,B|11:102|11:102|45:149,1,180,2|8,3:2|0:0,0:0:0:0:
119,319,277865,2,0,L|126:274,2,45,8|8|8,0:0|0:0|0:0,0:0:0:0:
236,161,278198,1,8,3:0:0:0:
48,230,278365,1,8,3:0:0:0:
263,345,278532,6,0,B|376:364|376:364|407:342|396:305,1,180,6|2,3:2|3:2,0:0:0:0:
311,95,279032,1,8,0:0:0:0:
512,235,279198,2,0,L|334:203,1,180,4|2,3:2|3:2,0:0:0:0:
143,226,279698,1,8,0:0:0:0:
143,226,279781,1,8,0:0:0:0:
143,226,279865,2,0,L|152:178,1,45,8|8,0:0|0:0,0:0:0:0:
195,0,280032,6,0,P|245:64|344:65,1,180,2|8,3:2|0:0,0:0:0:0:
512,0,280532,1,8,0:0:0:0:
512,0,280615,1,8,0:0:0:0:
512,0,280699,1,10,0:0:0:0:
491,186,280865,1,8,3:0:0:0:
389,0,281032,1,8,3:0:0:0:
512,211,281198,6,0,B|416:203|435:249|337:239,1,180,6|2,3:2|3:2,0:0:0:0:
136,175,281698,1,8,3:0:0:0:
266,384,281865,1,6,3:2:0:0:
242,176,282032,1,8,0:0:0:0:
242,176,282115,1,8,0:0:0:0:
242,176,282198,2,0,L|233:223,1,45,10|8,0:0|0:0,0:0:0:0:
117,339,282365,2,0,L|109:294,1,45,8|8,0:0|0:0,0:0:0:0:
38,145,282532,2,0,L|30:190,1,45,10|8,0:0|0:0,0:0:0:0:
210,307,282698,6,0,B|284:293|284:293|308:306|308:306|387:293,1,180,6|10,3:2|0:0,0:0:0:0:
512,147,283198,1,0,0:0:0:0:
505,359,283365,2,0,L|487:264,1,90,0|0,3:2|0:0,0:0:0:0:
405,71,283698,1,8,0:0:0:0:
266,256,283865,6,0,P|182:250|135:173,1,180,0|2,3:2|3:2,0:0:0:0:
262,4,284365,1,8,0:0:0:0:
383,166,284532,2,0,L|471:150,1,90,2|0,0:0|3:2,0:0:0:0:
285,109,284865,1,2,0:0:0:0:
444,282,285032,1,10,0:0:0:0:
405,71,285198,1,2,0:0:0:0:
260,278,285365,6,0,B|134:299|134:299|86:272,1,180,0|8,3:2|0:0,0:0:0:0:
1,137,285865,1,0,0:0:0:0:
209,185,286032,1,2,3:2:0:0:
9,267,286198,1,2,0:0:0:0:
235,179,286365,1,10,0:0:0:0:
87,58,286532,2,0,L|103:147,1,90,2|0,3:2|0:0,0:0:0:0:
43,350,286865,5,2,0:0:0:0:
1,137,287032,1,10,0:0:0:0:
171,294,287198,2,0,L|260:278,1,90,2|0,0:0|3:2,0:0:0:0:
420,310,287532,1,2,0:0:0:0:
235,179,287698,1,8,0:0:0:0:
262,375,287865,1,2,3:2:0:0:
423,154,288032,6,0,P|375:80|281:76,1,180,6|8,3:2|0:0,0:0:0:0:
235,179,288532,2,0,L|324:165,1,90,2|0,0:0|3:2,0:0:0:0:
493,85,288865,1,2,0:0:0:0:
409,290,289032,1,10,0:0:0:0:
284,70,289198,6,0,B|209:56|209:56|189:37|189:37|115:23,1,180,2|2,3:2|3:2,0:0:0:0:
0,170,289698,2,0,L|92:152,1,90,8|2,0:0|0:0,0:0:0:0:
279,170,290032,1,2,3:2:0:0:
147,296,290198,1,2,0:0:0:0:
174,80,290365,2,0,L|191:172,1,90,10|2,0:0|0:0,0:0:0:0:
302,364,290698,6,0,P|389:354|427:273,1,180,2|10,3:2|0:0,0:0:0:0:
396,131,291198,1,0,0:0:0:0:
341,286,291365,1,2,3:2:0:0:
490,211,291532,1,2,0:0:0:0:
453,376,291698,1,2,0:0:0:0:
331,200,291865,6,0,B|235:192|254:238|156:228,1,180,2|8,3:2|3:0,0:0:0:0:
0,102,292365,2,0,L|17:201,1,90,14|2,0:2|0:0,0:0:0:0:
75,384,292698,1,8,3:0:0:0:
200,220,292865,1,8,0:0:0:0:
200,220,292948,1,8,0:0:0:0:
200,220,293032,2,0,L|149:228,1,45,8|0,0:0|3:0,0:0:0:0:
0,309,293198,1,8,3:0:0:0:
295,384,293365,6,0,L|311:286,1,99.0000030212403,14|0,3:2|0:0,0:0:0:0:
251,0,293698,5,8,0:0:0:0:
117,263,293865,1,2,3:2:0:0:
375,61,294032,5,10,0:0:0:0:
58,99,294198,1,0,3:2:0:0:
313,291,294365,5,10,0:0:0:0:
150,43,294532,1,2,3:2:0:0:
105,334,294698,5,8,0:0:0:0:
272,102,294865,1,0,3:2:0:0:
233,384,295032,5,10,0:0:0:0:
28,195,295198,1,0,3:2:0:0:
370,187,295365,5,8,0:0:0:0:
71,362,295532,1,2,3:2:0:0:
158,10,295698,5,8,0:0:0:0:
342,329,295865,1,0,3:2:0:0:
0,116,296032,6,0,L|99:96,1,99.0000030212403,14|0,3:2|0:0,0:0:0:0:
419,25,296365,5,8,0:0:0:0:
247,302,296532,1,2,3:2:0:0:
512,90,296698,5,10,0:0:0:0:
431,371,296865,1,0,3:2:0:0:
277,98,297032,5,10,0:0:0:0:
498,298,297198,1,2,3:2:0:0:
419,25,297365,5,8,0:0:0:0:
360,291,297532,1,0,3:2:0:0:
232,11,297698,5,8,0:0:0:0:
468,174,297865,1,0,3:2:0:0:
82,220,298032,5,10,0:0:0:0:
419,25,298198,1,2,3:2:0:0:
277,358,298365,5,10,0:0:0:0:
108,4,298532,1,2,3:2:0:0:
468,174,298698,6,0,L|368:154,1,99.0000030212403,14|0,3:2|0:0,0:0:0:0:
47,106,299032,5,8,0:0:0:0:
258,346,299198,1,2,3:2:0:0:
218,0,299365,5,10,0:0:0:0:
79,297,299532,1,0,3:2:0:0:
66,0,299698,5,10,0:0:0:0:
290,218,299865,1,2,3:2:0:0:
18,113,300032,5,8,0:0:0:0:
290,55,300198,1,0,3:2:0:0:
79,297,300365,5,10,0:0:0:0:
189,12,300532,1,0,3:2:0:0:
276,358,300698,5,8,0:0:0:0:
3,100,300865,1,2,3:2:0:0:
390,94,301032,5,8,0:0:0:0:
126,384,301198,1,0,3:2:0:0:
92,0,301365,6,0,L|110:98,1,99.0000030212403,14|0,3:2|0:0,0:0:0:0:
281,342,301698,5,8,0:0:0:0:
390,94,301865,1,2,3:2:0:0:
488,365,302032,5,10,0:0:0:0:
311,182,302198,1,8,3:0:0:0:
381,384,302365,1,4,3:3:0:0:
512,160,302532,1,2,3:2:0:0:
512,160,302865,2,0,L|462:169,2,49.5000015106202,0|0|12,3:2|3:2|0:0,0:0:0:0:
