osu file format v14

[General]
AudioFilename: audio.mp3
AudioLeadIn: 0
PreviewTime: 63888
Countdown: 0
SampleSet: Soft
StackLeniency: 0.4
Mode: 0
LetterboxInBreaks: 0
WidescreenStoryboard: 0

[Editor]
Bookmarks: 971,11638,16971,27638,38305,54305,64971,75638,86305,96971,107638,111971,115638
DistanceSpacing: 0.6
BeatDivisor: 4
GridSize: 16
TimelineZoom: 1

[Metadata]
Title:Sunglow
TitleUnicode:Sunglow
Artist:Yamajet feat. Hiura Masako
ArtistUnicode:Yamajet feat. ひうらまさこ
Creator:celerih
Version:Rise and Shine
Source:crossbeats REV. SUNRISE
Tags:Lasse Mir Mao FoxyGrandpa happy high carolie flolf しあわせハイカロリー cross×beats capcom
BeatmapID:1505569
BeatmapSetID:712172

[Difficulty]
HPDrainRate:6
CircleSize:4
OverallDifficulty:8
ApproachRate:9
SliderMultiplier:1.9
SliderTickRate:2

[Events]
//Background and Video events
0,0,"Sunglow BG.jpg",0,0
//Break Periods
//Storyboard Layer 0 (Background)
//Storyboard Layer 1 (Fail)
//Storyboard Layer 2 (Pass)
//Storyboard Layer 3 (Foreground)
//Storyboard Sound Samples

[TimingPoints]
972,333.333333333333,4,2,1,50,1,0
972,-100,4,2,1,55,0,0
2305,-100,4,2,10,55,0,0
2471,-100,4,2,1,55,0,0
4971,-100,4,2,10,55,0,0
5138,-100,4,2,1,55,0,0
7638,-100,4,2,10,55,0,0
7805,-100,4,2,1,55,0,0
10138,-100,4,2,1,65,0,0
10805,-100,4,2,2,65,0,0
11638,-100,4,2,2,65,0,0
14305,-100,4,2,2,65,0,0
14971,-100,4,2,1,65,0,0
15971,-200,4,2,3,50,0,0
16638,-200,4,2,2,50,0,0
16971,-125,4,2,4,50,0,0
18305,-125,4,2,11,50,0,0
18471,-125,4,2,4,50,0,0
19638,-125,4,2,9,50,0,0
19971,-125,4,2,4,50,0,0
20971,-125,4,2,11,50,0,0
21138,-125,4,2,4,50,0,0
22305,-125,4,2,9,50,0,0
22638,-125,4,2,4,50,0,0
23638,-125,4,2,11,50,0,0
23805,-125,4,2,4,50,0,0
24971,-125,4,2,9,50,0,0
25305,-125,4,2,4,50,0,0
27638,-125,4,2,3,50,0,0
27971,-125,4,2,4,50,0,0
28971,-125,4,2,11,50,0,0
29138,-125,4,2,4,50,0,0
30305,-125,4,2,9,50,0,0
30638,-125,4,2,4,50,0,0
31638,-125,4,2,11,50,0,0
31805,-125,4,2,4,50,0,0
32971,-125,4,2,9,50,0,0
33305,-125,4,2,4,50,0,0
33971,-125,4,2,1,50,0,0
34138,-125,4,2,4,50,0,0
34305,-125,4,2,11,50,0,0
34471,-125,4,2,4,50,0,0
35638,-125,4,2,9,50,0,0
35971,-125,4,2,4,50,0,0
37971,-125,4,2,2,50,0,0
38138,-125,4,2,1,50,0,0
38305,-166.666666666667,4,2,3,45,0,0
38805,-166.666666666667,4,2,1,45,0,0
38971,-166.666666666667,4,2,9,45,0,0
39305,-166.666666666667,4,2,2,45,0,0
39638,-166.666666666667,4,2,9,45,0,0
39971,-166.666666666667,4,2,4,45,0,0
40305,-166.666666666667,4,2,9,45,0,0
40638,-166.666666666667,4,2,2,45,0,0
40971,-166.666666666667,4,2,9,45,0,0
41305,-166.666666666667,4,2,4,45,0,0
41638,-166.666666666667,4,2,9,45,0,0
41971,-166.666666666667,4,2,2,45,0,0
42138,-166.666666666667,4,2,1,45,0,0
42305,-166.666666666667,4,2,9,45,0,0
42638,-166.666666666667,4,2,2,45,0,0
42971,-166.666666666667,4,2,9,45,0,0
43305,-166.666666666667,4,2,2,45,0,0
43638,-166.666666666667,4,2,9,55,0,0
43971,-166.666666666667,4,2,4,55,0,0
44305,-166.666666666667,4,2,9,55,0,0
44638,-166.666666666667,4,2,2,55,0,0
44971,-166.666666666667,4,2,9,55,0,0
45305,-166.666666666667,4,2,4,55,0,0
45638,-166.666666666667,4,2,9,55,0,0
45971,-166.666666666667,4,2,2,55,0,0
46305,-166.666666666667,4,2,9,55,0,0
46638,-166.666666666667,4,2,4,55,0,0
46971,-166.666666666667,4,2,9,55,0,0
47305,-166.666666666667,4,2,2,55,0,0
47471,-166.666666666667,4,2,1,55,0,0
47638,-166.666666666667,4,2,9,60,0,0
47971,-166.666666666667,4,2,4,60,0,0
48305,-166.666666666667,4,2,9,60,0,0
48638,-166.666666666667,4,2,2,60,0,0
48971,-166.666666666667,4,2,1,50,0,0
49638,-166.666666666667,4,2,9,50,0,0
49971,-166.666666666667,4,2,2,50,0,0
50305,-166.666666666667,4,2,9,50,0,0
50638,-166.666666666667,4,2,4,50,0,0
50971,-166.666666666667,4,2,9,50,0,0
51305,-166.666666666667,4,2,4,50,0,0
51638,-166.666666666667,4,2,9,50,0,0
51971,-166.666666666667,4,2,4,50,0,0
52305,-166.666666666667,4,2,9,50,0,0
52638,-166.666666666667,4,2,2,50,0,0
52971,-166.666666666667,4,2,9,55,0,0
53305,-166.666666666667,4,2,2,55,0,0
53638,-166.666666666667,4,2,9,55,0,0
53971,-166.666666666667,4,2,2,55,0,0
54221,-166.666666666667,4,2,12,5,0,0
54305,-125,4,2,1,60,0,0
55471,-125,4,2,2,60,0,0
55805,-125,4,2,1,60,0,0
56305,-125,4,2,4,60,0,0
58305,-125,4,2,10,60,0,0
58471,-125,4,2,4,60,0,0
58638,-125,4,2,1,60,0,0
59555,-125,4,2,12,5,0,0
59638,-100,4,2,2,65,0,0
62971,-100,4,3,1,70,0,0
63805,-100,4,3,1,60,0,0
64971,-83.3333333333333,4,2,3,70,0,1
65305,-83.3333333333333,4,2,4,70,0,1
83638,-83.3333333333333,4,2,4,75,0,1
84471,-83.3333333333333,4,2,1,75,0,1
86305,-100,4,2,2,50,0,0
86638,-100,4,2,2,60,0,0
87138,-100,4,2,1,60,0,0
88138,-100,4,2,4,60,0,0
89305,-100,4,2,2,60,0,0
89805,-100,4,2,1,60,0,0
90805,-100,4,2,4,60,0,0
91971,-100,4,2,2,60,0,0
92471,-100,4,2,1,60,0,0
93471,-100,4,2,4,60,0,0
93805,-100,4,2,1,60,0,0
94638,-100,4,2,2,60,0,0
95138,-100,4,2,1,60,0,0
96138,-100,4,2,4,60,0,0
96971,-100,4,2,4,55,0,0
101971,-100,4,2,1,55,0,0
102305,-100,4,2,4,60,0,0
106971,-100,4,2,1,60,0,0
107138,-100,4,2,1,50,0,0
107221,-100,4,2,1,60,0,0
107305,-100,4,2,1,70,0,0
107471,-100,4,2,1,50,0,0
107638,-83.3333333333333,4,2,2,60,0,0
110971,-83.3333333333333,4,2,1,65,0,0
111805,-66.6666666666667,4,2,1,65,0,0
111971,-83.3333333333333,4,2,1,60,0,0
112638,-83.3333333333333,4,2,1,50,0,0
112971,-83.3333333333333,4,2,1,40,0,0
113638,-83.3333333333333,4,2,1,30,0,0
114305,-83.3333333333333,4,2,1,20,0,0
114971,-83.3333333333333,4,2,1,10,0,0
115638,-83.3333333333333,4,2,12,5,0,0

[Colours]
Combo1 : 78,85,133
Combo2 : 214,190,22
Combo3 : 93,108,127
Combo4 : 196,120,36

[HitObjects]
269,230,638,6,0,P|263:203|265:166,1,47.5,2|2,3:0|3:0,0:0:0:0:
284,95,805,1,4,3:0:0:0:
423,259,971,6,0,B|331:297|331:233|229:259,1,190,8|8,0:0|0:0,0:0:0:0:
164,322,1471,1,0,0:0:0:0:
183,178,1638,2,0,P|185:138|168:76,1,95,2|2,0:0|0:0,0:0:0:0:
116,217,1971,1,0,0:0:0:0:
276,339,2138,6,0,B|289:285|289:285|273:142,1,190,12|2,0:1|0:1,0:0:0:0:
363,134,2555,1,2,0:1:0:0:
363,134,2638,2,0,P|314:142|269:133,1,95,8|0,0:0|0:0,0:0:0:0:
135,54,2971,2,0,P|168:58|208:53,1,47.5,2|2,0:1|0:1,0:0:0:0:
314,10,3138,1,2,0:0:0:0:
262,208,3305,1,2,0:0:0:0:
316,24,3471,2,0,P|321:54|317:82,1,47.5,8|8,0:0|0:0,0:0:0:0:
216,142,3638,6,0,P|264:130|314:145,1,95,2|2,0:0|0:1,0:0:0:0:
384,286,3971,2,0,B|346:194|410:194|384:92,1,190,12|2,0:1|0:0,0:0:0:0:
347,25,4388,1,2,0:1:0:0:
347,25,4471,1,2,0:1:0:0:
414,159,4638,1,2,0:0:0:0:
231,149,4805,6,0,P|297:116|421:163,1,190,12|0,0:1|0:0,0:0:0:0:
305,332,5305,2,0,P|293:284|305:227,1,95,8|0,0:0|0:0,0:0:0:0:
416,134,5638,1,8,0:3:0:0:
442,331,5805,1,2,0:3:0:0:
486,178,5971,1,2,0:3:0:0:
436,342,6138,1,4,0:3:0:0:
400,150,6305,6,0,P|395:104|402:51,1,95,2|2,0:0|0:1,0:0:0:0:
492,275,6638,2,0,P|413:233|304:251,1,190,12|2,0:1|0:1,0:0:0:0:
251,293,7055,1,2,0:1:0:0:
251,293,7138,1,2,0:1:0:0:
260,148,7305,1,2,0:0:0:0:
351,276,7471,6,0,B|369:210|362:140|362:140|344:175|349:211,1,190,4|0,0:1|0:0,0:0:0:0:
240,384,7971,2,0,P|230:337|243:265,1,95,8|0,0:1|0:0,0:0:0:0:
159,162,8305,2,0,P|169:209|156:281,1,95,2|0,0:0|0:0,0:0:0:0:
117,354,8638,1,2,0:0:0:0:
36,190,8805,2,0,P|66:183|108:185,1,47.5,8|8,0:0|0:0,0:0:0:0:
252,215,8971,6,0,P|303:224|366:206,1,95,2|0,0:0|0:0,0:0:0:0:
473,95,9305,1,8,0:0:0:0:
449,204,9471,1,0,0:0:0:0:
365,5,9638,1,2,0:0:0:0:
354,143,9804,1,0,0:0:0:0:
449,16,9971,1,2,0:0:0:0:
269,226,10138,6,0,B|276:160|276:160|269:104|269:104|277:28,1,190,12|2,0:0|0:3,0:0:0:0:
201,160,10638,1,6,0:3:0:0:
432,20,10805,1,4,0:1:0:0:
453,46,11305,1,8,0:0:0:0:
453,46,11388,2,0,P|456:20|452:-2,1,47.5,8|8,0:0|0:0,0:0:0:0:
291,93,11555,1,8,0:0:0:0:
291,93,11638,6,0,B|265:97|234:86|234:86|309:64|379:92,1,190,12|8,0:0|0:0,0:0:0:0:
479,142,12138,1,0,3:0:0:0:
324,338,12305,2,0,P|314:284|322:227,1,95,8|0,0:0|3:0,0:0:0:0:
451,41,12638,2,0,P|461:95|453:152,1,95,8|0,0:0|3:0,0:0:0:0:
152,227,12971,6,0,P|210:211|274:213,1,95,8|0,0:0|3:0,0:0:0:0:
512,337,13305,2,0,P|454:321|390:323,1,95,8|0,0:0|3:0,0:0:0:0:
232,360,13638,1,8,0:0:0:0:
341,130,13805,1,0,3:0:0:0:
250,227,13971,2,0,P|307:233|351:221,1,95,8|0,0:0|3:0,0:0:0:0:
174,0,14305,6,0,B|156:51|156:51|175:191,1,190,12|8,0:1|0:0,0:0:0:0:
307,98,14805,1,0,3:0:0:0:
311,81,14971,1,8,0:0:0:0:
316,290,15138,1,2,0:3:0:0:
205,92,15305,1,4,0:3:0:0:
453,204,15471,1,8,0:1:0:0:
470,201,15805,2,0,P|441:197|415:198,1,47.5,0|0,3:0|3:0,0:0:0:0:
240,230,15971,6,0,B|202:235|145:230|145:230|176:239|193:251,1,142.5,12|8,0:0|0:0,0:0:0:0:
486,199,16638,1,8,0:0:0:0:
503,196,16971,6,0,P|430:181|331:214,1,152,4|10,0:0|0:1,0:0:0:0:
287,285,17471,1,2,0:0:0:0:
276,276,17638,2,0,P|309:270|360:280,1,76,2|2,0:0|0:0,0:0:0:0:
437,333,17971,1,8,0:0:0:0:
416,204,18138,6,0,B|407:141|407:141|412:106|412:106|404:39,1,152,2|2,0:0|0:0,0:0:0:0:
333,107,18638,2,0,P|294:115|245:109,1,76,8|0,0:0|0:0,0:0:0:0:
165,47,18971,2,0,P|204:39|253:45,1,76,2|2,0:3|0:1,0:0:0:0:
349,111,19305,2,0,P|311:123|261:122,1,76,8|0,0:0|0:0,0:0:0:0:
148,40,19638,6,0,P|156:118|142:192,1,152,4|8,0:0|0:0,0:0:0:0:
12,243,20138,1,2,0:3:0:0:
6,258,20305,2,0,P|44:258|81:250,1,76,2|2,0:0|0:0,0:0:0:0:
165,200,20638,1,8,0:0:0:0:
81,335,20805,6,0,B|56:339|41:331|41:331|94:313|156:329,1,152,2|2,0:0|0:0,0:0:0:0:
296,287,21305,2,0,P|250:293|202:284,1,76,8|2,0:0|0:0,0:0:0:0:
161,216,21638,1,2,0:0:0:0:
152,204,21805,1,2,0:1:0:0:
373,238,21971,1,8,0:0:0:0:
393,246,22305,6,0,P|379:167|398:94,1,152,4|8,0:0|0:0,0:0:0:0:
483,83,22805,1,2,0:3:0:0:
493,95,22972,2,0,P|444:99|399:90,1,76,2|2,0:0|0:0,0:0:0:0:
331,42,23305,1,8,0:0:0:0:
291,208,23472,6,0,B|281:99|281:99|303:135,1,152,2|2,0:0|0:0,0:0:0:0:
378,222,23971,2,0,P|386:183|380:134,1,76,8|0,0:0|0:0,0:0:0:0:
318,54,24304,2,0,P|310:93|316:142,1,76,2|2,0:3|0:1,0:0:0:0:
382,238,24638,2,0,P|394:200|393:150,1,76,8|0,0:0|0:0,0:0:0:0:
331,42,24972,6,0,P|429:41|470:-2,1,152,4|8,0:0|0:0,0:0:0:0:
492,132,25472,1,2,0:0:0:0:
508,125,25639,2,0,P|467:116|420:122,1,76,2|0,0:3|0:0,0:0:0:0:
359,180,25972,1,8,0:0:0:0:
395,6,26138,6,0,L|387:184,1,152,4|2,0:0|0:0,0:0:0:0:
269,206,26638,1,8,0:0:0:0:
413,3,26805,2,0,L|405:181,1,152,4|2,0:0|0:0,0:0:0:0:
282,215,27305,1,8,0:0:0:0:
427,160,27471,1,2,0:0:0:0:
359,349,27638,6,0,B|352:307|352:307|357:190,1,152,4|8,0:0|0:0,0:0:0:0:
426,302,28138,1,2,0:0:0:0:
437,313,28305,2,0,P|485:315|531:303,1,76,2|2,0:3|0:0,0:0:0:0:
512,212,28638,1,8,0:0:0:0:
377,354,28805,6,0,P|397:296|353:199,1,152,2|2,0:0|0:0,0:0:0:0:
253,157,29305,2,0,L|260:233,1,76,8|0,0:0|0:0,0:0:0:0:
182,314,29638,2,0,L|189:237,1,76,2|2,0:0|0:1,0:0:0:0:
265,143,29971,2,0,L|272:219,1,76,8|0,0:0|0:0,0:0:0:0:
174,331,30305,6,0,P|243:298|322:301,1,152,4|8,0:0|0:0,0:0:0:0:
398,363,30805,1,2,0:0:0:0:
388,379,30972,2,0,P|383:348|390:303,1,76,2|2,0:3|0:0,0:0:0:0:
440,222,31305,1,8,0:0:0:0:
311,153,31472,6,0,B|299:163|271:174|271:174|328:161|394:170,1,152,2|2,0:0|0:0,0:0:0:0:
488,96,31972,2,0,P|454:104|391:99,1,76,8|2,0:0|0:0,0:0:0:0:
298,58,32305,1,2,0:0:0:0:
295,43,32472,1,2,0:1:0:0:
335,258,32638,1,8,0:0:0:0:
320,248,32972,6,0,B|272:240|272:240|145:255,1,152,4|8,0:0|0:0,0:0:0:0:
105,200,33472,1,2,0:0:0:0:
91,209,33639,2,0,P|87:160|96:115,1,76,2|2,0:0|0:0,0:0:0:0:
169,55,33972,1,8,0:1:0:0:
240,206,34139,6,0,P|316:213|392:181,1,152,2|2,0:0|0:0,0:0:0:0:
471,111,34638,2,0,L|395:104,1,76,8|0,0:0|0:0,0:0:0:0:
314,182,34971,2,0,L|391:175,1,76,2|2,0:0|0:1,0:0:0:0:
485,99,35304,2,0,L|409:92,1,76,8|0,0:0|0:0,0:0:0:0:
298,191,35639,6,0,P|226:205|147:181,1,152,4|8,0:0|0:0,0:0:0:0:
136,96,36139,1,2,0:0:0:0:
149,86,36306,2,0,P|155:135|145:175,1,76,2|2,0:3|0:0,0:0:0:0:
86,253,36639,1,8,0:0:0:0:
54,55,36806,6,0,P|136:57|218:25,1,152,12|2,0:0|0:0,0:0:0:0:
41,40,37305,1,8,0:0:0:0:
187,129,37471,2,0,P|258:105|334:108,1,152,12|2,0:0|0:0,0:0:0:0:
442,187,37972,1,8,0:0:0:0:
383,354,38138,1,2,3:0:0:0:
261,160,38305,6,0,B|247:97|262:39|262:39|275:74|264:99,1,170.999994781494,4|2,0:0|0:0,0:0:0:0:
312,177,38971,2,0,P|255:177|202:195,1,113.999996520996,6|8,0:0|0:0,0:0:0:0:
101,306,39638,6,0,P|171:328|158:258,1,170.999994781494,6|2,0:0|0:0,0:0:0:0:
90,232,40305,2,0,P|82:200|90:152,1,56.9999982604981,6|2,0:0|0:0,0:0:0:0:
115,72,40638,1,8,0:0:0:0:
296,169,40971,6,0,P|350:177|411:88,1,170.999994781494,6|2,0:0|0:0,0:0:0:0:
512,86,41638,2,0,P|467:98|401:70,1,113.999996520996,6|8,0:0|0:0,0:0:0:0:
358,7,42138,1,2,0:0:0:0:
389,165,42305,6,0,P|392:197|388:246,1,56.9999982604981,6|0,0:0|0:0,0:0:0:0:
346,289,42638,2,0,P|343:321|347:370,1,56.9999982604981,8|2,0:0|0:0,0:0:0:0:
416,377,42971,1,6,0:0:0:0:
450,251,43138,1,2,0:0:0:0:
236,311,43305,1,8,0:0:0:0:
227,34,43638,6,0,B|247:85|247:85|221:211,1,170.999994781494,6|2,0:0|0:0,0:0:0:0:
104,225,44305,2,0,P|143:207|220:214,1,113.999996520996,6|8,0:0|0:0,0:0:0:0:
429,289,44971,6,0,P|348:275|269:332,1,170.999994781494,6|2,0:0|0:0,0:0:0:0:
312,206,45638,2,0,P|318:168|313:128,1,56.9999982604981,6|2,0:0|0:0,0:0:0:0:
284,78,45971,1,8,0:0:0:0:
281,61,46138,1,2,0:0:0:0:
458,88,46305,6,0,P|370:108|289:58,1,170.999994781494,6|2,0:0|0:0,0:0:0:0:
175,93,46971,2,0,P|256:78|290:91,1,113.999996520996,4|8,0:0|0:0,0:0:0:0:
322,172,47471,1,0,3:0:0:0:
417,37,47638,6,0,P|406:88|416:155,1,113.999996520996,4|8,0:0|0:0,0:0:0:0:
467,214,48138,1,2,0:0:0:0:
318,164,48305,2,0,P|290:162|260:167,1,56.9999982604981,4|2,0:0|0:0,0:0:0:0:
186,192,48638,2,0,P|157:196|129:194,1,56.9999982604981,8|0,0:0|0:0,0:0:0:0:
237,78,48971,6,0,P|319:60|406:122,1,170.999994781494,6|2,0:0|0:0,0:0:0:0:
464,143,49638,2,0,P|404:131|343:156,1,113.999996520996,6|8,0:0|0:0,0:0:0:0:
218,307,50305,6,0,B|215:328|226:351|226:351|243:301|234:206,1,170.999994781494,6|2,0:0|0:0,0:0:0:0:
198,154,50972,2,0,P|196:128|197:95,1,56.9999982604981,6|2,0:0|0:0,0:0:0:0:
307,206,51305,2,0,P|309:232|308:265,1,56.9999982604981,8|2,0:0|0:0,0:0:0:0:
143,191,51638,6,0,P|236:172|296:210,1,170.999994781494,6|2,0:0|0:0,0:0:0:0:
379,253,52305,2,0,P|435:263|505:249,1,113.999996520996,6|8,0:0|0:0,0:0:0:0:
508,175,52805,1,2,0:0:0:0:
366,261,52971,6,0,P|362:294|367:324,1,56.9999982604981,6|0,0:0|0:0,0:0:0:0:
442,384,53305,2,0,P|446:351|441:321,1,56.9999982604981,8|2,0:0|0:0,0:0:0:0:
345,124,53638,1,6,0:0:0:0:
358,334,53805,1,2,0:0:0:0:
460,126,53971,2,0,B|470:67|470:67|453:90,1,85.4999973907472,8|0,0:0|0:0,0:0:0:0:
334,152,54305,6,0,P|395:130|483:152,1,152,6|8,0:0|0:0,0:0:0:0:
505,254,54805,1,2,0:0:0:0:
438,364,54971,2,0,P|434:323|438:288,1,76,2|2,0:0|0:0,0:0:0:0:
509,109,55305,1,8,0:0:0:0:
330,261,55471,6,0,P|249:268|196:225,1,152,12|2,0:1|0:0,0:0:0:0:
83,8,55971,2,0,B|96:48|96:48|81:162,1,152,8|2,0:0|0:1,0:0:0:0:
63,261,56471,1,2,0:0:0:0:
19,75,56638,1,8,0:0:0:0:
0,187,56805,1,2,0:0:0:0:
196,127,56971,6,0,P|202:84|202:48,2,76,6|8|0,0:0|0:0|0:0,0:0:0:0:
13,197,57471,1,2,0:0:0:0:
81,328,57638,2,0,P|88:285|81:250,1,76,2|2,0:1|0:0,0:0:0:0:
0,87,57971,1,8,0:0:0:0:
209,187,58138,6,0,B|228:189|256:180|256:180|201:165|144:179,1,152,4|2,0:3|0:0,0:0:0:0:
23,255,58638,1,8,0:0:0:0:
188,334,58805,1,0,3:0:0:0:
143,166,58971,1,8,0:0:0:0:
179,353,59138,1,0,3:0:0:0:
274,179,59305,2,0,B|291:150|300:116|300:116|266:114|249:129,1,114,8|0,0:0|0:0,0:0:0:0:
398,111,59638,6,0,P|356:105|286:125,1,95,8|0,0:0|3:0,0:0:0:0:
30,78,59971,2,0,P|72:72|142:92,1,95,8|0,0:0|3:0,0:0:0:0:
395,130,60305,2,0,P|354:141|298:188,1,95,8|0,0:0|3:0,0:0:0:0:
35,96,60638,2,0,P|75:107|131:154,1,95,8|0,0:0|3:0,0:0:0:0:
194,253,60888,1,0,3:0:0:0:
194,253,60971,6,0,P|187:185|203:129,1,95,8|0,0:0|3:0,0:0:0:0:
511,217,61305,2,0,P|443:224|387:208,1,95,8|0,0:0|3:0,0:0:0:0:
286,53,61638,1,8,0:0:0:0:
310,291,61805,1,0,3:0:0:0:
376,128,61971,1,8,0:0:0:0:
130,184,62138,1,0,3:0:0:0:
130,184,62221,1,0,3:0:0:0:
130,184,62305,6,0,P|196:183|240:199,1,95,12|0,0:1|0:1,0:0:0:0:
338,312,62638,1,12,0:0:0:0:
395,107,62805,1,0,3:0:0:0:
466,368,62971,1,8,3:0:0:0:
300,179,63138,1,2,0:0:0:0:
491,42,63305,1,2,0:0:0:0:
350,328,63471,1,4,0:0:0:0:
343,345,63805,5,0,0:0:0:0:
512,226,63971,2,0,B|419:262|419:200|326:225,1,190,8|8,0:0|0:0,0:0:0:0:
217,329,64471,1,0,0:0:0:0:
217,329,64555,1,0,0:0:0:0:
217,329,64638,2,0,P|219:278|207:219,1,95,12|0,2:0|0:0,0:0:0:0:
86,76,64971,6,0,B|105:94|130:100|166:97|166:97|210:77|255:72|318:83,1,227.999993041992,6|8,0:3|0:0,0:0:0:0:
433,132,65471,1,2,0:0:0:0:
339,364,65638,2,0,P|328:304|344:237,1,113.999996520996,2|2,0:0|0:0,0:0:0:0:
442,118,65971,1,8,0:0:0:0:
262,260,66138,6,0,B|335:283|409:252|409:252|368:235|325:243,1,227.999993041992,2|2,0:0|0:0,0:0:0:0:
175,322,66638,1,8,0:0:0:0:
198,72,66805,2,0,B|311:31|310:109|420:72,1,227.999993041992,2|2,0:0|0:0,0:0:0:0:
201,192,67305,2,0,P|134:194|77:181,1,113.999996520996,8|0,0:0|0:0,0:0:0:0:
363,8,67638,6,0,B|369:84|369:84|348:154|348:154|355:239,1,227.999993041992,2|8,0:0|0:0,0:0:0:0:
429,167,68138,1,0,0:0:0:0:
288,79,68305,2,0,P|233:84|158:72,1,113.999996520996,2|2,0:0|0:0,0:0:0:0:
396,3,68638,1,8,0:0:0:0:
236,226,68805,6,0,B|163:239|88:222|88:222|137:202|194:208,1,227.999993041992,4|0,0:0|0:0,0:0:0:0:
336,203,69305,1,8,0:0:0:0:
250,359,69471,1,2,0:0:0:0:
215,100,69638,2,0,B|222:62|219:23|219:23|199:33|183:58,1,113.999996520996,2|2,0:0|0:0,0:0:0:0:
264,270,69971,2,0,B|271:308|268:347|268:347|248:337|232:312,1,113.999996520996,2|2,0:0|0:0,0:0:0:0:
77,139,70305,6,0,P|178:111|276:180,1,227.999993041992,2|8,0:0|0:0,0:0:0:0:
298,288,70805,1,0,0:0:0:0:
380,134,70971,1,2,0:0:0:0:
371,117,71138,1,2,0:0:0:0:
441,322,71305,1,8,0:0:0:0:
241,67,71471,6,0,P|184:141|270:128,1,227.999993041992,2|2,0:0|0:0,0:0:0:0:
361,31,71971,2,0,P|410:27|476:42,1,113.999996520996,8|0,0:0|0:0,0:0:0:0:
250,95,72305,1,2,0:0:0:0:
230,87,72471,1,2,0:0:0:0:
296,260,72638,2,0,B|279:296|270:333|270:333|270:306|267:296,1,113.999996520996,8|0,0:0|0:0,0:0:0:0:
81,96,72971,6,0,B|56:155|56:155|76:330,1,227.999993041992,2|10,0:0|0:1,0:0:0:0:
215,373,73471,1,2,0:0:0:0:
209,98,73638,2,0,P|167:87|84:99,1,113.999996520996,2|2,0:0|0:0,0:0:0:0:
9,239,73971,1,8,0:0:0:0:
294,276,74138,6,0,B|348:289|397:287|440:269|440:269|386:252|343:266,1,227.999993041992,6|2,0:0|0:0,0:0:0:0:
190,343,74638,1,8,0:0:0:0:
222,121,74805,1,2,0:0:0:0:
44,335,74971,1,8,0:0:0:0:
14,109,75138,1,2,0:0:0:0:
337,213,75305,1,8,0:0:0:0:
357,202,75638,6,0,B|278:184|278:184|127:198,1,227.999993041992,2|12,0:0|0:0,0:0:0:0:
274,263,76138,1,2,0:0:0:0:
228,52,76305,2,0,P|213:102|223:179,1,113.999996520996,2|0,0:0|0:0,0:0:0:0:
357,317,76638,1,8,0:0:0:0:
410,49,76805,6,0,P|465:85|359:109,1,227.999993041992,2|2,0:0|0:0,0:0:0:0:
250,16,77305,1,8,0:0:0:0:
210,230,77471,1,0,0:0:0:0:
43,72,77638,2,0,P|101:87|154:126,1,113.999996520996,2|2,0:0|0:0,0:0:0:0:
173,313,77971,2,0,P|177:249|199:190,1,113.999996520996,8|0,0:0|0:0,0:0:0:0:
441,345,78305,6,0,P|380:273|252:270,1,227.999993041992,2|8,0:0|0:0,0:0:0:0:
140,369,78805,1,2,0:0:0:0:
130,172,78972,2,0,P|124:237|133:296,1,113.999996520996,0|2,0:0|0:0,0:0:0:0:
247,358,79305,1,8,0:0:0:0:
54,136,79472,6,0,B|93:161|136:163|177:148|177:148|227:140|276:160,1,227.999993041992,2|2,0:0|0:0,0:0:0:0:
361,273,79972,1,8,0:0:0:0:
403,88,80138,1,0,0:0:0:0:
205,228,80305,2,0,B|170:211|129:216|129:216|177:238,1,113.999996520996,2|2,0:0|0:0,0:0:0:0:
350,172,80638,2,0,B|391:156|426:160|426:160|378:182,1,113.999996520996,8|0,0:0|0:0,0:0:0:0:
280,309,80972,6,0,B|283:235|283:235|269:158|269:158|274:63,1,227.999993041992,2|8,0:0|0:0,0:0:0:0:
144,241,81472,1,2,0:0:0:0:
348,156,81638,2,0,P|359:89|335:17,1,113.999996520996,0|2,0:0|0:0,0:0:0:0:
264,310,81972,1,8,0:0:0:0:
61,154,82138,6,0,B|46:80|67:12|67:12|87:57|73:102,1,227.999993041992,2|2,0:0|0:0,0:0:0:0:
120,360,82638,2,0,P|71:364|5:346,1,113.999996520996,8|0,0:0|0:0,0:0:0:0:
229,268,82971,1,2,0:0:0:0:
237,285,83138,1,2,0:0:0:0:
114,182,83305,2,0,B|74:186|38:197|38:197|61:183|73:170,1,113.999996520996,8|0,0:0|0:0,0:0:0:0:
229,22,83638,6,0,P|236:87|216:146,1,113.999996520996,12|2,0:0|0:0,0:0:0:0:
45,271,83971,1,2,0:0:0:0:
30,266,84138,1,10,0:0:0:0:
274,251,84305,2,0,P|325:239|399:252,1,113.999996520996,4|2,0:3|0:3,0:0:0:0:
147,363,84638,1,4,0:3:0:0:
288,124,84805,6,0,B|342:111|391:113|434:131|434:131|380:148|337:134,1,227.999993041992,8|2,0:0|0:0,0:0:0:0:
159,349,85305,1,2,0:0:0:0:
156,118,85471,1,8,0:0:0:0:
164,125,85555,1,8,0:0:0:0:
164,125,85638,2,0,P|167:87|157:47,1,56.9999982604981,8|8,0:3|0:3,0:0:0:0:
66,205,85805,1,8,0:3:0:0:
92,226,85888,1,8,0:3:0:0:
123,241,85971,1,8,0:3:0:0:
156,246,86054,1,8,0:3:0:0:
190,243,86138,1,8,0:3:0:0:
222,232,86221,1,8,0:3:0:0:
250,212,86304,5,2,0:0:0:0:
266,202,86638,2,0,P|322:193|413:241,1,142.5,8|8,0:0|0:0,0:0:0:0:
420,318,86971,2,0,P|409:266|423:195,1,95,8|2,0:0|3:0,0:0:0:0:
464,151,87305,1,4,3:0:0:0:
278,294,87471,6,0,B|213:307|146:289|146:289|182:274|220:283,1,190,6|0,0:0|0:0,0:0:0:0:
276,221,87971,1,8,0:0:0:0:
160,88,88138,2,0,P|150:141|162:215,1,95,4|2,0:3|0:0,0:0:0:0:
195,258,88471,1,2,0:0:0:0:
280,132,88638,1,8,0:0:0:0:
298,126,88721,1,8,0:0:0:0:
316,123,88805,1,8,0:0:0:0:
334,123,88888,1,8,0:0:0:0:
352,126,88971,5,2,0:3:0:0:
370,133,89305,2,0,P|359:190|380:277,1,142.5,8|8,0:0|0:0,0:0:0:0:
481,276,89638,2,0,P|415:269|365:288,1,95,8|2,0:0|3:0,0:0:0:0:
318,344,89971,1,4,3:0:0:0:
210,192,90138,6,0,P|310:215|406:181,1,190,6|2,0:0|0:0,0:0:0:0:
452,101,90638,1,8,0:0:0:0:
474,238,90805,2,0,B|489:179|480:118|480:118|457:157|468:191,1,190,4|2,0:3|0:0,0:0:0:0:
364,301,91305,1,8,0:0:0:0:
346,307,91388,1,8,0:0:0:0:
328,310,91472,1,8,0:0:0:0:
310,310,91555,1,8,0:0:0:0:
292,307,91638,5,2,0:3:0:0:
271,298,91972,2,0,P|207:278|115:295,1,142.5,8|8,0:0|0:0,0:0:0:0:
115,384,92305,2,0,P|122:318|103:268,1,95,8|2,0:0|3:0,0:0:0:0:
59,209,92638,1,4,3:0:0:0:
217,344,92805,6,0,B|243:250|182:250|217:144,1,190,6|2,0:0|0:0,0:0:0:0:
286,212,93305,1,10,0:0:0:0:
143,293,93472,2,0,B|75:292|27:301|27:301|71:289|96:271,1,190,4|2,0:3|0:3,0:0:0:0:
223,143,93971,1,8,0:0:0:0:
229,125,94054,1,8,0:0:0:0:
232,107,94138,1,8,0:0:0:0:
232,89,94221,1,8,0:0:0:0:
229,71,94304,5,10,0:1:0:0:
222,51,94638,2,0,P|279:62|366:41,1,142.5,8|8,0:0|0:0,0:0:0:0:
453,33,94971,2,0,P|387:26|337:45,1,95,8|2,0:0|3:0,0:0:0:0:
311,115,95304,1,4,3:0:0:0:
509,134,95471,6,0,B|448:125|448:125|314:137,1,190,6|2,0:0|3:0,0:0:0:0:
425,223,95971,1,0,3:0:0:0:
450,20,96138,1,4,0:3:0:0:
324,153,96305,1,8,0:0:0:0:
341,175,96388,1,8,0:0:0:0:
366,189,96471,1,8,0:0:0:0:
394,193,96554,1,8,0:0:0:0:
421,188,96638,1,8,0:0:0:0:
445,172,96721,1,8,0:0:0:0:
462,149,96804,1,8,0:0:0:0:
468,122,96888,1,8,0:0:0:0:
469,93,96971,6,0,P|460:42|472:-17,1,95,6|0,0:0|0:0,0:0:0:0:
512,216,97305,2,0,P|475:204|410:210,1,95,8|0,0:0|0:0,0:0:0:0:
158,257,97638,2,0,P|226:266|314:168,1,190,2|8,0:0|0:0,0:0:0:0:
506,147,98138,6,0,P|413:148|353:78,1,190,2|2,0:0|0:0,0:0:0:0:
254,7,98638,2,0,P|266:49|255:107,1,95,8|0,0:0|0:0,0:0:0:0:
92,202,98971,2,0,P|142:186|206:191,1,95,2|0,0:0|0:0,0:0:0:0:
349,273,99305,2,0,P|299:257|235:262,1,95,8|0,0:0|0:0,0:0:0:0:
13,317,99638,6,0,P|75:302|203:329,1,190,2|8,0:0|0:0,0:0:0:0:
279,384,100138,1,2,0:0:0:0:
264,182,100305,2,0,P|254:260|329:220,1,190,2|8,0:0|0:0,0:0:0:0:
490,95,100805,6,0,P|429:108|311:48,1,190,2|2,0:0|0:0,0:0:0:0:
138,7,101305,2,0,P|131:57|142:118,1,95,8|0,0:0|0:0,0:0:0:0:
228,274,101638,2,0,P|235:224|224:163,1,95,2|2,0:0|0:0,0:0:0:0:
63,134,101971,1,8,0:3:0:0:
286,62,102138,1,0,3:0:0:0:
140,261,102305,6,0,B|123:325|142:387|142:387|157:350|148:320,1,190,6|8,0:0|0:0,0:0:0:0:
85,189,102805,1,2,0:0:0:0:
238,271,102971,2,0,P|291:274|344:260,1,95,2|2,0:0|0:0,0:0:0:0:
477,158,103305,1,8,0:0:0:0:
439,357,103471,6,0,B|445:299|442:226|442:226|453:273|465:296,1,190,2|2,0:0|0:0,0:0:0:0:
398,143,103971,2,0,P|346:141|289:161,1,95,8|0,0:0|0:0,0:0:0:0:
270,320,104305,2,0,P|272:268|252:211,1,95,2|2,0:0|0:0,0:0:0:0:
59,121,104638,2,0,P|107:135|171:132,1,95,8|0,0:0|0:0,0:0:0:0:
380,41,104971,6,0,P|334:25|268:20,1,95,2|0,0:0|0:0,0:0:0:0:
106,178,105305,2,0,P|157:160|218:157,1,95,8|0,0:0|0:0,0:0:0:0:
275,261,105638,2,0,P|221:251|167:223,1,95,8|0,0:0|0:0,0:0:0:0:
318,66,105971,1,8,0:0:0:0:
369,270,106138,6,0,B|308:290|244:275|244:275|277:262|317:266,1,190,10|2,0:1|0:0,0:0:0:0:
512,348,106638,2,0,P|456:331|408:335,1,95,12|0,0:3|0:0,0:0:0:0:
298,372,106971,1,0,0:0:0:0:
358,130,107138,1,8,0:0:0:0:
358,130,107221,1,8,0:0:0:0:
358,130,107305,1,8,0:0:0:0:
404,321,107471,1,0,3:0:0:0:
91,246,107638,6,0,B|66:243|27:221|27:221|121:235|190:218,1,227.999993041992,12|8,0:1|0:0,0:0:0:0:
315,174,108138,1,0,3:0:0:0:
69,40,108305,2,0,P|64:99|82:165,1,113.999996520996,8|0,0:0|3:0,0:0:0:0:
336,51,108638,2,0,P|341:110|323:176,1,113.999996520996,8|0,0:0|3:0,0:0:0:0:
179,357,108971,6,0,P|174:298|192:232,1,113.999996520996,8|0,0:0|3:0,0:0:0:0:
507,101,109305,2,0,B|396:144|396:76|283:102,1,227.999993041992,8|8,0:0|0:0,0:0:0:0:
184,234,109805,1,0,3:0:0:0:
144,23,109971,1,8,0:0:0:0:
164,247,110138,1,0,3:0:0:0:
439,37,110305,6,0,P|450:99|427:173,1,113.999996520996,12|0,0:3|3:0,0:0:0:0:
213,90,110638,2,0,P|275:79|349:102,1,113.999996520996,8|0,0:0|3:0,0:0:0:0:
464,222,110971,1,8,0:0:0:0:
421,21,111138,1,8,0:0:0:0:
301,283,111305,1,2,3:0:0:0:
217,10,111471,1,4,0:1:0:0:
230,1,111805,6,0,P|234:45|227:90,1,71.2500027179719,0|0,3:0|3:0,0:0:0:0:
147,307,111971,1,12,0:0:0:0:
256,192,112055,12,0,115555,0:0:0:0:
