osu file format v14

[General]
AudioFilename: audio.mp3
AudioLeadIn: 0
PreviewTime: 63888
Countdown: 0
SampleSet: Soft
StackLeniency: 0.6
Mode: 0
LetterboxInBreaks: 0
WidescreenStoryboard: 1

[Editor]
Bookmarks: 971,11638,16971,27638,38305,54305,64971,75638,86305,96971,107638,111971,115638
DistanceSpacing: 1
BeatDivisor: 4
GridSize: 16
TimelineZoom: 1

[Metadata]
Title:Sunglow
TitleUnicode:Sunglow
Artist:Yamajet feat. Hiura Masako
ArtistUnicode:Yamajet feat. ひうらまさこ
Creator:celerih
Version:Normal
Source:crossbeats REV. SUNRISE
Tags:Lasse Mir Mao FoxyGrandpa happy high carolie flolf しあわせハイカロリー cross×beats capcom
BeatmapID:1543217
BeatmapSetID:712172

[Difficulty]
HPDrainRate:2
CircleSize:2.8
OverallDifficulty:2.5
ApproachRate:4.5
SliderMultiplier:0.899999999999999
SliderTickRate:1

[Events]
//Background and Video events
0,0,"Sunglow BG.jpg",0,0
//Break Periods
//Storyboard Layer 0 (Background)
//Storyboard Layer 1 (Fail)
//Storyboard Layer 2 (Pass)
//Storyboard Layer 3 (Foreground)
//Storyboard Sound Samples

[TimingPoints]
972,333.333333333333,4,2,1,50,1,0
972,-100,4,2,1,55,0,0
2305,-100,4,2,10,55,0,0
2471,-100,4,2,1,55,0,0
4971,-100,4,2,10,55,0,0
5138,-100,4,2,1,55,0,0
7638,-100,4,2,10,55,0,0
7805,-100,4,2,1,55,0,0
10138,-100,4,2,1,65,0,0
10805,-100,4,2,2,65,0,0
11638,-100,4,2,2,65,0,0
14305,-100,4,2,2,65,0,0
14971,-100,4,2,1,65,0,0
15971,-100,4,2,3,50,0,0
16638,-100,4,2,2,50,0,0
16971,-100,4,2,4,50,0,0
18305,-100,4,2,11,50,0,0
18471,-100,4,2,4,50,0,0
19638,-100,4,2,9,50,0,0
19971,-100,4,2,4,50,0,0
20971,-100,4,2,11,50,0,0
21138,-100,4,2,4,50,0,0
22305,-100,4,2,9,50,0,0
22638,-100,4,2,4,50,0,0
23638,-100,4,2,11,50,0,0
23805,-100,4,2,4,50,0,0
24971,-100,4,2,9,50,0,0
25305,-100,4,2,4,50,0,0
27638,-100,4,2,3,50,0,0
27971,-100,4,2,4,50,0,0
28971,-100,4,2,11,50,0,0
29138,-100,4,2,4,50,0,0
30305,-100,4,2,9,50,0,0
30638,-100,4,2,4,50,0,0
31638,-100,4,2,11,50,0,0
31805,-100,4,2,4,50,0,0
32971,-100,4,2,9,50,0,0
33305,-100,4,2,4,50,0,0
33971,-100,4,2,1,50,0,0
34138,-100,4,2,4,50,0,0
34305,-100,4,2,11,50,0,0
34471,-100,4,2,4,50,0,0
35638,-100,4,2,9,50,0,0
35971,-100,4,2,4,50,0,0
37971,-100,4,2,2,50,0,0
38138,-100,4,2,1,50,0,0
38305,-100,4,2,3,45,0,0
38805,-100,4,2,1,45,0,0
38971,-100,4,2,9,45,0,0
39305,-100,4,2,2,45,0,0
39638,-100,4,2,9,45,0,0
39971,-100,4,2,4,45,0,0
40305,-100,4,2,9,45,0,0
40638,-100,4,2,2,45,0,0
40971,-100,4,2,9,45,0,0
41305,-100,4,2,4,45,0,0
41638,-100,4,2,9,45,0,0
41971,-100,4,2,2,45,0,0
42138,-100,4,2,1,45,0,0
42305,-100,4,2,9,45,0,0
42638,-100,4,2,2,45,0,0
42971,-100,4,2,9,45,0,0
43305,-100,4,2,2,45,0,0
43638,-100,4,2,9,55,0,0
43971,-100,4,2,4,55,0,0
44305,-100,4,2,9,55,0,0
44638,-100,4,2,2,55,0,0
44971,-100,4,2,9,55,0,0
45305,-100,4,2,4,55,0,0
45638,-100,4,2,9,55,0,0
45971,-100,4,2,2,55,0,0
46305,-100,4,2,9,55,0,0
46638,-100,4,2,4,55,0,0
46971,-100,4,2,9,55,0,0
47305,-100,4,2,2,55,0,0
47471,-100,4,2,1,55,0,0
47638,-100,4,2,9,60,0,0
47971,-100,4,2,4,60,0,0
48305,-100,4,2,9,60,0,0
48638,-100,4,2,2,60,0,0
48971,-100,4,2,1,50,0,0
49638,-100,4,2,9,50,0,0
49971,-100,4,2,2,50,0,0
50305,-100,4,2,9,50,0,0
50638,-100,4,2,4,50,0,0
50971,-100,4,2,9,50,0,0
51305,-100,4,2,4,50,0,0
51638,-100,4,2,9,50,0,0
51971,-100,4,2,4,50,0,0
52305,-100,4,2,9,50,0,0
52638,-100,4,2,2,50,0,0
52971,-100,4,2,9,55,0,0
53305,-100,4,2,2,55,0,0
53638,-100,4,2,9,55,0,0
53971,-100,4,2,2,55,0,0
54221,-100,4,2,12,5,0,0
54305,-100,4,2,1,60,0,0
55471,-100,4,2,2,60,0,0
55805,-100,4,2,1,60,0,0
56305,-100,4,2,4,60,0,0
58305,-100,4,2,10,60,0,0
58471,-100,4,2,4,60,0,0
58638,-100,4,2,1,60,0,0
59555,-100,4,2,12,5,0,0
59638,-100,4,2,2,65,0,0
62971,-100,4,3,1,70,0,0
63805,-100,4,3,1,60,0,0
64971,-100,4,2,3,70,0,1
65305,-100,4,2,4,70,0,1
83638,-100,4,2,4,75,0,1
84471,-100,4,2,1,75,0,1
86305,-100,4,2,2,50,0,0
86638,-100,4,2,2,60,0,0
87138,-100,4,2,1,60,0,0
88138,-100,4,2,4,60,0,0
89305,-100,4,2,2,60,0,0
89805,-100,4,2,1,60,0,0
90805,-100,4,2,4,60,0,0
91971,-100,4,2,2,60,0,0
92471,-100,4,2,1,60,0,0
93471,-100,4,2,4,60,0,0
93805,-100,4,2,1,60,0,0
94638,-100,4,2,2,60,0,0
95138,-100,4,2,1,60,0,0
96138,-100,4,2,4,60,0,0
96971,-100,4,2,4,55,0,0
101971,-100,4,2,1,55,0,0
102305,-100,4,2,4,60,0,0
106971,-100,4,2,1,60,0,0
107138,-100,4,2,1,50,0,0
107221,-100,4,2,1,60,0,0
107305,-100,4,2,1,70,0,0
107471,-100,4,2,1,50,0,0
107638,-100,4,2,2,60,0,0
110971,-100,4,2,1,65,0,0
111971,-100,4,2,1,60,0,0
112638,-100,4,2,1,50,0,0
112971,-100,4,2,1,40,0,0
113638,-100,4,2,1,30,0,0
114305,-100,4,2,1,20,0,0
114971,-100,4,2,1,10,0,0
115638,-100,4,2,12,5,0,0

[Colours]
Combo1 : 78,85,133
Combo2 : 214,190,22
Combo3 : 93,108,127
Combo4 : 196,120,36

[HitObjects]
483,315,638,6,0,P|456:317|430:312,1,45,2|2,3:0|3:0,0:0:0:0:
392,305,971,6,0,P|344:289|296:289,1,89.9999999999999,8|8,0:0|0:0,0:0:0:0:
220,319,1638,1,2,0:0:0:0:
231,184,2138,2,0,P|146:160|139:110,1,135,12|8,0:1|0:0,0:0:0:0:
157,36,2971,2,0,P|205:40|264:30,1,89.9999999999999,2|2,0:1|0:0,0:0:0:0:
334,14,3638,6,0,P|327:74|332:110,1,89.9999999999999,2|12,0:0|0:1,0:0:0:0:
369,184,4305,1,2,0:0:0:0:
250,249,4805,2,0,P|176:229|111:239,1,135,12|8,0:1|0:0,0:0:0:0:
66,308,5638,2,0,P|68:262|55:210,1,89.9999999999999,8|2,0:3|0:3,0:0:0:0:
18,138,6305,5,2,0:0:0:0:
39,50,6639,2,0,P|83:41|127:43,1,89.9999999999999,12|2,0:1|0:1,0:0:0:0:
220,132,7472,2,0,P|189:201|133:243,1,135,4|8,0:1|0:1,0:0:0:0:
72,292,8305,2,0,P|113:287|165:298,1,89.9999999999999,2|2,0:0|0:0,0:0:0:0:
242,334,8971,6,0,P|294:343|346:333,2,89.9999999999999,2|8|2,0:0|0:0|0:0,0:0:0:0:
167,221,10138,2,0,P|155:157|177:75,1,135,12|6,0:0|0:3,0:0:0:0:
202,58,10805,1,4,0:1:0:0:
331,95,11305,1,8,0:0:0:0:
370,175,11638,6,0,P|332:182|273:167,1,89.9999999999999,12|8,0:0|0:0,0:0:0:0:
203,214,12305,2,0,P|159:203|115:210,1,89.9999999999999,8|8,0:0|0:0,0:0:0:0:
56,279,12971,1,8,0:0:0:0:
105,355,13305,1,8,0:0:0:0:
192,333,13638,2,0,P|217:331|243:333,1,45,8|0,0:0|3:0,0:0:0:0:
280,344,13971,1,8,0:0:0:0:
366,318,14305,6,0,P|378:274|374:222,1,89.9999999999999,12|8,0:1|0:0,0:0:0:0:
315,162,14971,2,0,L|269:166,2,45,8|2|4,0:0|0:3|0:3,0:0:0:0:
349,133,15471,1,8,0:1:0:0:
295,9,15971,1,12,0:0:0:0:
427,32,16471,1,8,0:0:0:0:
427,32,16638,1,8,0:0:0:0:
462,114,16971,6,0,P|467:186|448:261,1,135,4|2,0:0|0:0,0:0:0:0:
422,280,17638,2,0,P|390:274|363:273,1,45,2|2,0:0|0:0,0:0:0:0:
288,288,18138,2,0,P|283:216|302:141,1,135,2|8,0:0|0:0,0:0:0:0:
342,77,18971,1,2,0:3:0:0:
289,4,19305,1,8,0:0:0:0:
199,15,19638,6,0,P|179:91|194:153,1,135,4|2,0:0|0:3,0:0:0:0:
216,181,20305,2,0,P|169:177|116:191,1,89.9999999999999,2|8,0:0|0:0,0:0:0:0:
87,207,20805,2,0,P|83:254|97:307,1,89.9999999999999,2|2,0:0|0:0,0:0:0:0:
115,334,21305,1,8,0:0:0:0:
204,335,21638,2,0,P|250:327|304:334,1,89.9999999999999,2|8,0:0|0:0,0:0:0:0:
380,352,22305,6,0,P|341:311|373:241,1,135,4|2,0:0|0:3,0:0:0:0:
409,233,22971,2,0,L|415:172,1,45,2|2,0:0|0:0,0:0:0:0:
415,98,23471,2,0,P|341:80|271:93,1,135,2|8,0:0|0:0,0:0:0:0:
207,136,24305,1,2,0:3:0:0:
117,125,24638,1,8,0:0:0:0:
63,52,24971,6,0,P|100:36|163:38,1,89.9999999999999,4|8,0:0|0:0,0:0:0:0:
194,31,25471,2,0,P|257:49|336:28,1,135,2|8,0:0|0:0,0:0:0:0:
363,13,26138,2,0,P|352:71|355:121,1,89.9999999999999,4|2,0:0|0:0,0:0:0:0:
354,146,26638,1,8,0:0:0:0:
354,146,26805,2,0,P|289:135|208:169,1,135,4|8,0:0|0:0,0:0:0:0:
166,224,27638,6,0,P|231:213|312:247,1,135,4|2,0:0|0:0,0:0:0:0:
323,269,28305,2,0,P|326:299|322:326,1,45,2|2,0:3|0:0,0:0:0:0:
246,358,28805,2,0,P|181:369|100:335,1,135,2|8,0:0|0:0,0:0:0:0:
68,271,29638,1,2,0:0:0:0:
90,183,29972,1,8,0:0:0:0:
58,98,30305,6,0,P|62:53|141:27,1,135,4|2,0:0|0:0,0:0:0:0:
178,45,30972,2,0,P|225:52|278:43,1,89.9999999999999,2|8,0:3|0:0,0:0:0:0:
299,77,31471,2,0,P|343:71|387:78,1,89.9999999999999,2|2,0:0|0:0,0:0:0:0:
430,92,31972,1,8,0:0:0:0:
403,177,32305,2,0,P|395:223|402:277,1,89.9999999999999,2|8,0:0|0:0,0:0:0:0:
461,330,32972,6,0,P|397:307|323:313,1,135,4|2,0:0|0:0,0:0:0:0:
287,320,33638,2,0,L|230:313,1,45,2|2,0:0|0:0,0:0:0:0:
152,316,34138,2,0,P|132:275|194:199,1,135,2|8,0:0|0:0,0:0:0:0:
264,211,34972,1,2,0:0:0:0:
350,188,35305,1,8,0:0:0:0:
383,104,35638,6,0,P|385:54|367:6,1,89.9999999999999,4|8,0:0|0:0,0:0:0:0:
329,28,36138,2,0,P|264:40|187:31,1,135,2|8,0:0|0:0,0:0:0:0:
152,47,36805,2,0,P|94:36|44:39,1,89.9999999999999,12|2,0:0|0:0,0:0:0:0:
21,52,37305,1,8,0:0:0:0:
21,52,37472,2,0,P|11:127|25:192,1,135,12|8,0:0|0:0,0:0:0:0:
100,228,38305,5,4,0:0:0:0:
223,173,38805,1,2,0:0:0:0:
223,173,38971,2,0,P|271:178|331:174,2,89.9999999999999,6|8|6,0:0|0:0|0:0,0:0:0:0:
93,135,40138,1,2,0:0:0:0:
93,135,40304,2,0,P|99:191|91:236,1,89.9999999999999,6|8,0:0|0:0,0:0:0:0:
60,307,40971,6,0,P|101:323|162:318,1,89.9999999999999,6|0,0:0|0:0,0:0:0:0:
188,307,41471,2,0,P|232:306|274:322,1,89.9999999999999,2|0,0:0|0:0,0:0:0:0:
312,346,41971,2,0,P|306:305|319:249,1,89.9999999999999,8|6,0:0|0:0,0:0:0:0:
373,189,42638,1,8,0:0:0:0:
295,143,42971,2,0,L|236:151,2,45,6|2|8,0:0|0:0|0:0,0:0:0:0:
372,97,43638,5,6,0:0:0:0:
360,231,44138,1,2,0:0:0:0:
360,231,44305,2,0,P|313:236|256:225,2,89.9999999999999,6|8|6,0:0|0:0|0:0,0:0:0:0:
479,168,45471,1,2,0:0:0:0:
479,168,45638,2,0,P|484:228|475:271,1,89.9999999999999,6|8,0:0|0:0,0:0:0:0:
410,315,46305,5,6,0:0:0:0:
284,264,46805,1,2,0:0:0:0:
284,264,46971,2,0,P|234:256|181:266,1,89.9999999999999,4|8,0:0|0:0,0:0:0:0:
149,339,47638,2,0,P|199:347|252:337,1,89.9999999999999,4|8,0:0|0:0,0:0:0:0:
309,287,48305,1,4,0:0:0:0:
394,313,48638,1,8,0:0:0:0:
372,225,48971,5,6,0:0:0:0:
281,123,49471,1,2,0:0:0:0:
281,123,49638,2,0,P|287:77|278:22,2,89.9999999999999,6|8|6,0:0|0:0|0:0,0:0:0:0:
184,217,50805,1,2,0:0:0:0:
184,217,50971,2,0,P|135:222|89:208,1,89.9999999999999,6|8,0:0|0:0,0:0:0:0:
46,135,51638,6,0,P|58:91|85:56,1,89.9999999999999,6|0,0:0|0:0,0:0:0:0:
124,35,52137,2,0,L|222:45,1,89.9999999999999,2|0,0:0|0:0,0:0:0:0:
245,76,52638,2,0,L|343:65,1,89.9999999999999,8|6,0:0|0:0,0:0:0:0:
413,109,53305,1,8,0:0:0:0:
428,197,53637,2,0,P|432:225|434:259,2,45,6|2|8,0:0|0:0|0:0,0:0:0:0:
342,168,54305,6,0,P|295:163|241:177,1,89.9999999999999,6|8,0:0|0:0,0:0:0:0:
194,239,54971,1,2,0:0:0:0:
169,152,55305,1,8,0:0:0:0:
169,152,55471,2,0,P|174:101|247:67,1,135,12|8,0:1|0:0,0:0:0:0:
320,112,56305,2,0,P|366:119|426:110,1,89.9999999999999,2|8,0:1|0:0,0:0:0:0:
453,105,56805,1,2,0:0:0:0:
453,105,56971,6,0,P|446:152|449:199,1,89.9999999999999,6|0,0:0|0:0,0:0:0:0:
496,270,57638,1,2,0:1:0:0:
412,302,57971,1,8,0:0:0:0:
412,302,58138,2,0,P|351:282|278:310,1,135,4|8,0:3|0:0,0:0:0:0:
199,328,58971,2,0,L|193:379,2,45,8|0|8,0:0|3:0|0:0,0:0:0:0:
186,235,59638,6,0,P|194:195|184:130,1,89.9999999999999,8|8,0:0|0:0,0:0:0:0:
169,106,60138,1,0,3:0:0:0:
169,106,60305,2,0,P|217:97|262:103,1,89.9999999999999,8|8,0:0|0:0,0:0:0:0:
298,120,60805,2,0,L|396:111,2,89.9999999999999,0|0|0,3:0|3:0|3:0,0:0:0:0:
268,154,61638,1,8,0:0:0:0:
140,281,62305,6,0,P|192:291|242:279,1,89.9999999999999,12|12,0:1|0:0,0:0:0:0:
271,271,62805,1,0,3:0:0:0:
271,271,62971,2,0,P|315:264|358:274,1,89.9999999999999,8|2,3:0|0:0,0:0:0:0:
391,306,63471,1,4,0:0:0:0:
286,99,64971,6,0,P|226:90|182:101,1,89.9999999999999,6|8,0:3|0:0,0:0:0:0:
159,119,65471,1,2,0:0:0:0:
159,119,65638,2,0,L|61:108,1,89.9999999999999,2|8,0:0|0:0,0:0:0:0:
61,198,66305,1,0,0:0:0:0:
61,198,66471,2,0,P|68:242|65:286,2,89.9999999999999,2|2|2,0:0|0:0|0:0,0:0:0:0:
12,66,67638,6,0,P|52:57|114:64,1,89.9999999999999,2|8,0:0|0:0,0:0:0:0:
185,103,68305,1,2,0:0:0:0:
185,103,68471,1,2,0:0:0:0:
268,138,68805,2,0,P|340:135|386:90,1,135,4|8,0:0|0:0,0:0:0:0:
427,172,69638,2,0,L|422:261,1,89.9999999999999,2|2,0:0|0:0,0:0:0:0:
416,351,70305,5,2,0:0:0:0:
326,362,70638,1,8,0:0:0:0:
270,291,70971,2,0,P|222:282|171:287,1,89.9999999999999,2|8,0:0|0:0,0:0:0:0:
116,222,71638,2,0,P|71:224|27:215,2,89.9999999999999,0|8|2,0:0|0:0|0:0,0:0:0:0:
185,170,72638,1,8,0:0:0:0:
266,132,72971,6,0,P|327:123|391:174,1,135,2|2,0:0|0:0,0:0:0:0:
399,205,73638,1,2,0:0:0:0:
349,288,73971,1,8,0:0:0:0:
349,288,74138,1,6,0:0:0:0:
215,269,74638,2,0,L|117:279,2,89.9999999999999,8|8|8,0:0|0:0|0:0,0:0:0:0:
273,200,75638,6,0,P|282:153|272:92,1,89.9999999999999,2|12,0:0|0:0,0:0:0:0:
253,73,76138,1,2,0:0:0:0:
253,73,76305,2,0,P|306:75|349:62,1,89.9999999999999,2|8,0:0|0:0,0:0:0:0:
417,113,76972,1,0,0:0:0:0:
417,113,77138,2,0,P|465:108|515:122,2,89.9999999999999,2|0|2,0:0|0:0|0:0,0:0:0:0:
321,208,78305,6,0,L|309:315,1,89.9999999999999,2|8,0:0|0:0,0:0:0:0:
235,345,78972,1,0,0:0:0:0:
235,345,79138,1,2,0:0:0:0:
158,298,79472,2,0,P|90:308|29:276,1,135,2|8,0:0|0:0,0:0:0:0:
7,192,80305,2,0,B|0:149|0:149|12:103,1,89.9999999999999,2|8,0:0|0:0,0:0:0:0:
51,22,80972,5,2,0:0:0:0:
107,94,81305,1,8,0:0:0:0:
194,130,81638,2,0,P|238:132|282:123,1,89.9999999999999,0|8,0:0|0:0,0:0:0:0:
368,95,82305,2,0,P|413:93|457:102,2,89.9999999999999,0|8|2,0:0|0:0|0:0,0:0:0:0:
296,39,83305,1,8,0:0:0:0:
207,25,83638,6,0,P|138:48|67:39,1,135,12|10,0:0|0:0,0:0:0:0:
34,26,84305,1,4,0:3:0:0:
4,111,84638,1,4,0:3:0:0:
4,111,84805,1,8,0:0:0:0:
61,179,85138,2,0,L|160:189,1,89.9999999999999,2|8,0:0|0:0,0:0:0:0:
240,197,85805,1,8,0:3:0:0:
337,103,86305,6,0,P|343:60|336:12,2,89.9999999999999,2|8|8,0:0|0:0|0:0,0:0:0:0:
202,111,87471,2,0,P|136:101|57:121,1,135,6|8,0:0|0:0,0:0:0:0:
35,144,88138,2,0,P|19:208|37:279,1,135,4|8,0:3|0:0,0:0:0:0:
110,322,88971,6,0,P|154:328|202:323,2,89.9999999999999,2|8|8,0:3|0:0|0:0,0:0:0:0:
157,195,90138,2,0,P|228:187|274:244,1,135,6|8,0:0|0:0,0:0:0:0:
300,262,90805,2,0,L|290:353,1,89.9999999999999,4|2,0:3|0:0,0:0:0:0:
329,374,91305,1,8,0:0:0:0:
413,342,91638,6,0,P|456:350|504:347,2,89.9999999999999,2|8|8,0:3|0:0|0:0,0:0:0:0:
359,218,92805,2,0,P|291:201|214:228,1,135,6|10,0:0|0:0,0:0:0:0:
185,209,93471,2,0,P|137:218|92:212,1,89.9999999999999,4|2,0:3|0:3,0:0:0:0:
55,194,93971,1,8,0:0:0:0:
25,108,94305,6,0,P|60:77|117:66,1,89.9999999999999,10|8,0:1|0:0,0:0:0:0:
189,82,94971,1,8,0:0:0:0:
189,82,95138,2,0,L|181:135,1,45,2|4,3:0|3:0,0:0:0:0:
202,162,95471,2,0,P|263:180|327:154,1,135,6|0,0:0|3:0,0:0:0:0:
362,126,96138,2,0,P|354:176|358:229,1,89.9999999999999,4|8,0:3|0:0,0:0:0:0:
366,258,96638,1,8,0:0:0:0:
401,340,96971,6,0,P|356:349|297:334,1,89.9999999999999,6|8,0:0|0:0,0:0:0:0:
234,296,97638,2,0,P|170:277|94:291,1,135,2|2,0:0|0:0,0:0:0:0:
20,322,98471,2,0,L|24:275,1,45,2|8,0:0|0:0,0:0:0:0:
0,238,98805,2,0,L|13:89,1,135,0|8,0:0|0:0,0:0:0:0:
89,58,99638,6,0,P|138:52|187:70,1,89.9999999999999,2|8,0:0|0:0,0:0:0:0:
257,102,100305,1,2,0:0:0:0:
346,114,100639,1,8,0:0:0:0:
346,114,100805,2,0,P|333:183|357:246,1,135,2|8,0:0|0:0,0:0:0:0:
390,269,101471,2,0,P|336:260|283:265,1,89.9999999999999,0|2,0:0|0:0,0:0:0:0:
263,286,101971,1,8,0:3:0:0:
172,287,102305,6,0,P|171:240|176:189,1,89.9999999999999,6|8,0:0|0:0,0:0:0:0:
208,109,102971,2,0,L|154:103,2,45,2|2|8,0:0|0:0|0:0,0:0:0:0:
249,126,103471,2,0,P|289:127|346:116,1,89.9999999999999,2|2,0:0|0:0,0:0:0:0:
372,89,103971,1,8,0:0:0:0:
435,153,104305,2,0,P|439:204|434:249,1,89.9999999999999,2|8,0:0|0:0,0:0:0:0:
407,328,104971,5,2,0:0:0:0:
319,307,105305,2,0,P|276:300|231:310,1,89.9999999999999,8|8,0:0|0:0,0:0:0:0:
178,382,105971,1,8,0:0:0:0:
178,382,106138,2,0,P|192:325|177:240,1,135,10|12,0:1|0:3,0:0:0:0:
160,209,106805,2,0,L|171:99,1,89.9999999999999,0|8,0:0|0:0,0:0:0:0:
178,75,107305,1,8,0:0:0:0:
262,105,107638,6,0,P|310:112|363:105,1,89.9999999999999,12|8,0:1|0:0,0:0:0:0:
417,47,108305,2,0,P|406:91|413:135,1,89.9999999999999,8|8,0:0|0:0,0:0:0:0:
463,208,108971,1,8,0:0:0:0:
434,293,109305,1,8,0:0:0:0:
344,292,109638,2,0,L|293:286,1,45,8|0,0:0|3:0,0:0:0:0:
254,284,109971,1,8,0:0:0:0:
174,326,110305,6,0,L|170:225,1,89.9999999999999,12|8,0:3|0:0,0:0:0:0:
209,158,110971,2,0,P|257:165|308:155,1,89.9999999999999,8|2,0:0|3:0,0:0:0:0:
337,136,111471,1,4,0:1:0:0:
358,48,111805,1,0,3:0:0:0:
358,48,111971,1,12,0:0:0:0:
256,192,112138,12,0,115555,0:0:0:0:
