osu file format v14

[General]
AudioFilename: audio.mp3
AudioLeadIn: 0
PreviewTime: 63888
Countdown: 0
SampleSet: Soft
StackLeniency: 0.6
Mode: 0
LetterboxInBreaks: 0
WidescreenStoryboard: 0

[Editor]
Bookmarks: 971,11638,16971,27638,38305,54305,64971,75638,86305,96971,107638,111971,115638
DistanceSpacing: 1
BeatDivisor: 4
GridSize: 16
TimelineZoom: 1

[Metadata]
Title:Sunglow
TitleUnicode:Sunglow
Artist:Yamajet feat. Hiura Masako
ArtistUnicode:Yamajet feat. ひうらまさこ
Creator:celerih
Version:Mir's Advanced
Source:crossbeats REV. SUNRISE
Tags:Lasse Mir Mao FoxyGrandpa happy high carolie flolf しあわせハイカロリー cross×beats capcom
BeatmapID:1543216
BeatmapSetID:712172

[Difficulty]
HPDrainRate:3
CircleSize:3
OverallDifficulty:4.5
ApproachRate:5.5
SliderMultiplier:0.999999999999999
SliderTickRate:1

[Events]
//Background and Video events
0,0,"Sunglow BG.jpg",0,0
//Break Periods
//Storyboard Layer 0 (Background)
//Storyboard Layer 1 (Fail)
//Storyboard Layer 2 (Pass)
//Storyboard Layer 3 (Foreground)
//Storyboard Sound Samples

[TimingPoints]
972,333.333333333333,4,2,1,55,1,0
972,-100,4,2,1,55,0,0
2305,-100,4,2,10,55,0,0
2471,-100,4,2,1,55,0,0
4971,-100,4,2,10,55,0,0
5138,-100,4,2,1,55,0,0
7638,-100,4,2,10,55,0,0
7805,-100,4,2,1,55,0,0
10138,-100,4,2,1,65,0,0
10805,-100,4,2,2,65,0,0
11638,-100,4,2,2,65,0,0
14305,-100,4,2,2,65,0,0
14971,-100,4,2,1,65,0,0
15971,-100,4,2,3,50,0,0
16638,-100,4,2,2,50,0,0
16971,-100,4,2,4,50,0,0
18305,-100,4,2,11,50,0,0
18471,-100,4,2,4,50,0,0
19638,-100,4,2,9,50,0,0
19971,-100,4,2,4,50,0,0
20971,-100,4,2,11,50,0,0
21138,-100,4,2,4,50,0,0
22305,-100,4,2,9,50,0,0
22638,-100,4,2,4,50,0,0
23638,-100,4,2,11,50,0,0
23805,-100,4,2,4,50,0,0
24971,-100,4,2,9,50,0,0
25305,-100,4,2,4,50,0,0
27638,-100,4,2,3,50,0,0
27971,-100,4,2,4,50,0,0
28971,-100,4,2,11,50,0,0
29138,-100,4,2,4,50,0,0
30305,-100,4,2,9,50,0,0
30638,-100,4,2,4,50,0,0
31638,-100,4,2,11,50,0,0
31805,-100,4,2,4,50,0,0
32971,-100,4,2,9,50,0,0
33305,-100,4,2,4,50,0,0
33971,-100,4,2,1,50,0,0
34138,-100,4,2,4,50,0,0
34305,-100,4,2,11,50,0,0
34471,-100,4,2,4,50,0,0
35638,-100,4,2,9,50,0,0
35971,-100,4,2,4,50,0,0
37971,-100,4,2,2,50,0,0
38138,-100,4,2,1,50,0,0
38305,-100,4,2,3,45,0,0
38805,-100,4,2,1,45,0,0
38971,-100,4,2,9,45,0,0
39305,-100,4,2,2,45,0,0
39638,-100,4,2,9,45,0,0
39971,-100,4,2,4,45,0,0
40305,-100,4,2,9,45,0,0
40638,-100,4,2,2,45,0,0
40971,-100,4,2,9,45,0,0
41305,-100,4,2,4,45,0,0
41638,-100,4,2,9,45,0,0
41971,-100,4,2,2,45,0,0
42138,-100,4,2,1,45,0,0
42305,-100,4,2,9,45,0,0
42638,-100,4,2,2,45,0,0
42971,-100,4,2,9,45,0,0
43305,-100,4,2,2,45,0,0
43638,-100,4,2,9,55,0,0
43971,-100,4,2,4,55,0,0
44305,-100,4,2,9,55,0,0
44638,-100,4,2,2,55,0,0
44971,-100,4,2,9,55,0,0
45305,-100,4,2,4,55,0,0
45638,-100,4,2,9,55,0,0
45971,-100,4,2,2,55,0,0
46305,-100,4,2,9,55,0,0
46638,-100,4,2,4,55,0,0
46971,-100,4,2,9,55,0,0
47305,-100,4,2,2,55,0,0
47471,-100,4,2,1,55,0,0
47638,-100,4,2,9,60,0,0
47971,-100,4,2,4,60,0,0
48305,-100,4,2,9,60,0,0
48638,-100,4,2,2,60,0,0
48971,-100,4,2,1,50,0,0
49638,-100,4,2,9,50,0,0
49971,-100,4,2,2,50,0,0
50305,-100,4,2,9,50,0,0
50638,-100,4,2,4,50,0,0
50971,-100,4,2,9,50,0,0
51305,-100,4,2,4,50,0,0
51638,-100,4,2,9,50,0,0
51971,-100,4,2,4,50,0,0
52305,-100,4,2,9,50,0,0
52638,-100,4,2,2,50,0,0
52971,-100,4,2,9,55,0,0
53305,-100,4,2,2,55,0,0
53638,-100,4,2,9,55,0,0
53971,-100,4,2,2,55,0,0
54221,-100,4,2,12,5,0,0
54305,-100,4,2,1,60,0,0
55471,-100,4,2,2,60,0,0
55805,-100,4,2,1,60,0,0
56305,-100,4,2,4,60,0,0
58305,-100,4,2,10,60,0,0
58471,-100,4,2,4,60,0,0
58638,-100,4,2,1,60,0,0
59555,-100,4,2,12,5,0,0
59638,-100,4,2,2,65,0,0
62971,-100,4,3,1,70,0,0
63805,-100,4,3,1,60,0,0
64971,-100,4,2,3,70,0,1
65305,-100,4,2,4,70,0,1
83638,-100,4,2,4,75,0,1
84471,-100,4,2,1,75,0,1
86305,-100,4,2,2,50,0,0
86638,-100,4,2,2,60,0,0
87138,-100,4,2,1,60,0,0
88138,-100,4,2,4,60,0,0
89305,-100,4,2,2,60,0,0
89805,-100,4,2,1,60,0,0
90805,-100,4,2,4,60,0,0
91971,-100,4,2,2,60,0,0
92471,-100,4,2,1,60,0,0
93471,-100,4,2,4,60,0,0
93805,-100,4,2,1,60,0,0
94638,-100,4,2,2,60,0,0
95138,-100,4,2,1,60,0,0
96138,-100,4,2,4,60,0,0
96971,-100,4,2,4,55,0,0
101971,-100,4,2,1,55,0,0
102305,-100,4,2,4,60,0,0
106971,-100,4,2,1,60,0,0
107138,-100,4,2,1,50,0,0
107221,-100,4,2,1,60,0,0
107305,-100,4,2,1,70,0,0
107471,-100,4,2,1,50,0,0
107638,-100,4,2,2,60,0,0
110971,-100,4,2,1,65,0,0
111971,-100,4,2,1,60,0,0
112638,-100,4,2,1,50,0,0
112971,-100,4,2,1,40,0,0
113638,-100,4,2,1,30,0,0
114305,-100,4,2,1,20,0,0
114971,-100,4,2,1,10,0,0
115638,-100,4,2,12,5,0,0

[Colours]
Combo1 : 78,85,133
Combo2 : 214,190,22
Combo3 : 93,108,127
Combo4 : 196,120,36

[HitObjects]
416,130,971,6,0,P|360:113|298:121,1,99.9999999999999,8|8,0:0|0:0,0:0:0:0:
229,160,1638,1,2,0:0:0:0:
229,160,1805,1,2,0:0:0:0:
146,103,2138,2,0,B|135:159|135:159|157:258,1,150,12|8,0:1|0:0,0:0:0:0:
178,346,2971,1,2,0:1:0:0:
253,279,3305,1,2,0:0:0:0:
329,343,3638,6,0,P|397:344|441:317,1,99.9999999999999,2|12,0:0|0:1,0:0:0:0:
465,238,4305,1,2,0:0:0:0:
465,238,4471,1,2,0:1:0:0:
390,170,4805,2,0,B|376:118|376:118|392:12,1,150,12|8,0:1|0:0,0:0:0:0:
290,22,5638,2,0,L|282:89,1,50,8|2,0:3|0:3,0:0:0:0:
277,121,5971,2,0,L|269:188,1,50,2|4,0:3|0:3,0:0:0:0:
262,220,6305,6,0,B|224:234|224:234|154:222,1,99.9999999999999,2|12,0:0|0:1,0:0:0:0:
67,202,6971,1,2,0:1:0:0:
67,202,7138,1,2,0:1:0:0:
1,126,7471,2,0,P|83:103|148:144,1,150,4|8,0:1|0:1,0:0:0:0:
165,223,8305,1,2,0:0:0:0:
132,317,8638,1,2,0:0:0:0:
229,296,8971,5,2,0:0:0:0:
229,296,9138,2,0,P|270:298|291:300,1,50,0|8,0:0|0:0,0:0:0:0:
317,331,9471,2,0,P|320:278|357:222,1,99.9999999999999,0|0,0:0|0:0,0:0:0:0:
436,270,10138,2,0,L|420:152,1,99.9999999999999,12|2,0:0|0:3,0:0:0:0:
410,122,10638,1,6,0:3:0:0:
410,122,10805,1,4,0:1:0:0:
322,72,11138,1,0,0:0:0:0:
322,72,11305,2,0,P|284:82|268:84,1,50,8|8,0:0|0:0,0:0:0:0:
225,69,11638,5,12,0:0:0:0:
144,128,11971,2,0,B|133:177|133:177|155:235,2,99.9999999999999,8|8|8,0:0|0:0|0:0,0:0:0:0:
225,69,12971,1,8,0:0:0:0:
132,30,13305,2,0,B|84:44|84:44|44:93,2,99.9999999999999,8|8|8,0:0|0:0|0:0,0:0:0:0:
225,69,14305,5,12,0:1:0:0:
318,34,14638,2,0,P|371:19|419:32,1,99.9999999999999,8|8,0:0|0:0,0:0:0:0:
452,60,15138,1,2,0:3:0:0:
414,152,15471,1,8,0:1:0:0:
477,287,15971,2,0,L|317:281,1,150,12|8,0:0|0:0,0:0:0:0:
297,321,16638,1,8,0:0:0:0:
204,359,16971,6,0,L|87:351,1,99.9999999999999,4|10,0:0|0:1,0:0:0:0:
33,281,17638,1,2,0:0:0:0:
33,281,17805,2,0,P|26:230|27:212,1,50,2|8,0:0|0:0,0:0:0:0:
52,189,18138,2,0,L|169:181,1,99.9999999999999,2|2,0:0|0:0,0:0:0:0:
194,207,18638,1,8,0:0:0:0:
267,139,18971,1,2,0:3:0:0:
222,49,19305,1,8,0:0:0:0:
126,77,19638,6,0,B|75:84|75:84|6:71,1,99.9999999999999,4|8,0:0|0:0,0:0:0:0:
23,125,20138,1,2,0:3:0:0:
23,125,20305,1,2,0:0:0:0:
94,194,20638,1,8,0:0:0:0:
94,194,20805,2,0,L|100:299,1,99.9999999999999,2|2,0:0|0:0,0:0:0:0:
64,329,21305,1,8,0:0:0:0:
152,375,21638,2,0,P|201:379|247:361,1,99.9999999999999,2|8,0:0|0:0,0:0:0:0:
346,346,22305,6,0,L|351:246,1,99.9999999999999,4|8,0:0|0:0,0:0:0:0:
312,162,22971,1,2,0:0:0:0:
312,162,23138,2,0,P|268:157|244:160,1,50,2|8,0:0|0:0,0:0:0:0:
228,194,23471,2,0,L|222:94,1,99.9999999999999,2|2,0:0|0:0,0:0:0:0:
218,44,23971,1,8,0:0:0:0:
125,5,24305,2,0,P|68:-3|15:17,1,99.9999999999999,2|8,0:3|0:0,0:0:0:0:
80,94,24971,6,0,B|88:147|88:147|71:205,1,99.9999999999999,4|8,0:0|0:0,0:0:0:0:
55,237,25471,2,0,L|161:231,1,99.9999999999999,2|0,0:0|0:0,0:0:0:0:
189,267,25971,1,8,0:0:0:0:
189,267,26138,1,4,0:0:0:0:
275,217,26471,2,0,L|284:275,1,50,2|8,0:0|0:0,0:0:0:0:
290,316,26805,2,0,P|337:299|397:306,1,99.9999999999999,4|2,0:0|0:0,0:0:0:0:
423,336,27305,1,8,0:0:0:0:
486,258,27638,6,0,B|495:210|495:210|477:145,1,99.9999999999999,4|8,0:0|0:0,0:0:0:0:
463,62,28305,1,2,0:3:0:0:
463,62,28471,2,0,L|407:73,1,50,2|8,0:0|0:0,0:0:0:0:
365,85,28805,2,0,B|316:95|316:95|247:80,1,99.9999999999999,2|2,0:0|0:0,0:0:0:0:
221,64,29305,1,8,0:0:0:0:
142,126,29638,1,2,0:0:0:0:
59,69,29971,1,8,0:0:0:0:
50,168,30305,6,0,B|44:218|44:218|66:287,1,99.9999999999999,4|8,0:0|0:0,0:0:0:0:
78,311,30805,1,2,0:0:0:0:
78,311,30971,1,2,0:3:0:0:
164,260,31305,1,8,0:0:0:0:
164,260,31471,2,0,P|223:251|314:288,1,150,2|8,0:0|0:0,0:0:0:0:
394,328,32305,1,2,0:0:0:0:
455,249,32638,1,8,0:0:0:0:
478,154,32971,6,0,B|484:104|484:104|462:38,1,99.9999999999999,4|8,0:0|0:0,0:0:0:0:
374,22,33638,1,2,0:0:0:0:
374,22,33805,2,0,L|316:37,1,50,2|8,0:0|0:1,0:0:0:0:
286,65,34138,2,0,B|280:115|280:115|302:181,1,99.9999999999999,2|2,0:0|0:0,0:0:0:0:
319,206,34638,1,8,0:0:0:0:
254,282,34971,1,2,0:0:0:0:
165,234,35305,1,8,0:0:0:0:
75,189,35638,6,0,P|64:243|80:288,1,99.9999999999999,4|8,0:0|0:0,0:0:0:0:
104,327,36138,2,0,L|214:330,1,99.9999999999999,2|2,0:0|0:0,0:0:0:0:
242,361,36638,1,8,0:0:0:0:
242,361,36805,1,12,0:0:0:0:
373,288,37305,1,8,0:0:0:0:
373,288,37471,2,0,P|341:251|335:192,1,99.9999999999999,12|2,0:0|0:0,0:0:0:0:
363,161,37971,1,8,0:0:0:0:
443,106,38305,6,0,L|273:95,1,150,4|2,0:0|0:0,0:0:0:0:
243,95,38971,1,6,0:0:0:0:
156,144,39305,1,8,0:0:0:0:
76,75,39638,2,0,P|52:138|84:217,1,150,6|2,0:0|0:0,0:0:0:0:
117,245,40305,1,6,0:0:0:0:
137,342,40638,1,8,0:0:0:0:
212,277,40971,6,0,B|260:269|260:269|373:298,1,150,6|2,0:0|0:0,0:0:0:0:
356,344,41638,1,6,0:0:0:0:
453,323,41971,1,8,0:0:0:0:
429,225,42305,2,0,P|415:178|463:90,1,150,6|2,0:0|0:0,0:0:0:0:
500,64,42971,1,6,0:0:0:0:
410,18,43305,1,8,0:0:0:0:
320,62,43638,6,0,P|238:76|170:52,1,150,6|2,0:0|0:0,0:0:0:0:
144,16,44305,1,6,0:0:0:0:
44,21,44638,1,8,0:0:0:0:
93,109,44971,2,0,L|102:274,1,150,6|2,0:0|0:0,0:0:0:0:
102,309,45638,1,6,0:0:0:0:
172,380,45971,1,8,0:0:0:0:
227,296,46305,6,0,P|291:264|375:286,1,150,6|2,0:0|0:0,0:0:0:0:
396,318,46971,1,4,0:0:0:0:
486,274,47305,2,0,L|480:216,1,50,8|0,0:0|3:0,0:0:0:0:
496,176,47638,2,0,B|505:130|505:130|487:66,1,99.9999999999999,4|8,0:0|0:0,0:0:0:0:
458,40,48138,1,2,0:0:0:0:
458,40,48305,1,4,0:0:0:0:
386,109,48638,1,8,0:0:0:0:
318,25,48971,6,0,P|271:81|279:154,1,150,6|2,0:0|0:0,0:0:0:0:
317,186,49638,1,6,0:0:0:0:
409,224,49971,1,8,0:0:0:0:
490,165,50305,2,0,B|505:203|505:203|489:317,1,150,6|2,0:0|0:0,0:0:0:0:
453,345,50971,1,6,0:0:0:0:
352,342,51305,1,8,0:0:0:0:
403,265,51638,6,0,P|340:253|252:284,1,150,6|2,0:0|0:0,0:0:0:0:
259,278,52305,1,6,0:0:0:0:
184,344,52638,1,8,0:0:0:0:
113,272,52971,2,0,L|45:267,2,50,6|0|8,0:0|0:0|0:0,0:0:0:0:
192,210,53638,2,0,L|185:158,1,50,6|2,0:0|0:0,0:0:0:0:
219,123,53971,2,0,L|212:71,1,50,6|2,0:0|0:0,0:0:0:0:
248,38,54305,5,6,0:0:0:0:
332,93,54638,1,8,0:0:0:0:
416,39,54971,2,0,P|427:91|420:144,1,99.9999999999999,2|8,0:0|0:0,0:0:0:0:
377,160,55471,2,0,L|493:154,1,99.9999999999999,12|2,0:1|0:0,0:0:0:0:
492,202,55971,1,8,0:0:0:0:
477,301,56305,1,2,0:1:0:0:
377,291,56638,1,8,0:0:0:0:
277,279,56971,6,0,L|216:270,1,50,6|8,0:0|0:0,0:0:0:0:
179,266,57305,1,0,0:0:0:0:
179,266,57471,2,0,B|164:222|164:222|184:120,1,150,2|8,0:0|0:0,0:0:0:0:
193,71,58138,1,4,0:3:0:0:
57,135,58638,1,8,0:0:0:0:
18,227,58971,2,0,L|25:299,2,50,8|0|8,0:0|3:0|0:0,0:0:0:0:
57,135,59638,6,0,B|102:153|102:153|155:151,1,99.9999999999999,8|8,0:0|0:0,0:0:0:0:
233,90,60305,2,0,P|253:130|241:197,1,99.9999999999999,8|8,0:0|0:0,0:0:0:0:
226,229,60805,1,0,3:0:0:0:
175,315,61138,1,0,3:0:0:0:
264,358,61471,1,0,3:0:0:0:
264,358,61638,2,0,L|379:351,1,99.9999999999999,8|8,0:0|0:0,0:0:0:0:
441,288,62305,6,0,P|449:232|431:187,1,99.9999999999999,12|12,0:1|0:0,0:0:0:0:
411,147,62805,1,0,3:0:0:0:
411,147,62971,2,0,L|416:86,2,50,8|2|2,3:0|0:0|0:0,0:0:0:0:
362,159,63471,1,4,0:0:0:0:
213,141,63971,2,0,P|198:73|212:24,2,99.9999999999999,8|8|12,0:0|0:0|2:0,0:0:0:0:
253,232,64971,6,0,P|176:237|145:219,1,99.9999999999999,6|8,0:3|0:0,0:0:0:0:
116,198,65471,1,2,0:0:0:0:
116,198,65638,1,2,0:0:0:0:
66,110,65971,1,8,0:0:0:0:
132,35,66305,1,0,0:0:0:0:
132,35,66471,2,0,P|173:37|204:36,1,50,2|8,0:0|0:0,0:0:0:0:
232,39,66805,2,0,L|213:137,1,99.9999999999999,2|2,0:0|0:0,0:0:0:0:
201,185,67305,1,8,0:0:0:0:
267,259,67638,6,0,P|343:272|371:263,1,99.9999999999999,2|8,0:0|0:0,0:0:0:0:
449,215,68305,2,0,L|444:281,2,50,2|2|8,0:0|0:0|0:0,0:0:0:0:
476,173,68805,2,0,P|476:111|446:66,1,99.9999999999999,4|0,0:0|0:0,0:0:0:0:
423,42,69305,1,8,0:0:0:0:
323,40,69638,2,0,L|255:45,1,50,2|2,0:0|0:0,0:0:0:0:
223,52,69971,2,0,L|155:57,1,50,2|2,0:0|0:0,0:0:0:0:
123,60,70305,5,2,0:0:0:0:
28,28,70638,1,8,0:0:0:0:
54,124,70971,2,0,P|62:162|62:187,1,50,2|2,0:0|0:0,0:0:0:0:
63,223,71305,2,0,P|60:247|54:272,1,50,8|2,0:0|0:0,0:0:0:0:
35,318,71638,1,0,0:0:0:0:
122,365,71971,1,8,0:0:0:0:
196,297,72305,1,2,0:0:0:0:
153,206,72638,1,8,0:0:0:0:
197,116,72971,6,0,P|253:90|305:96,1,99.9999999999999,2|10,0:0|0:1,0:0:0:0:
336,110,73471,1,2,0:0:0:0:
336,110,73638,1,2,0:0:0:0:
408,178,73971,1,8,0:0:0:0:
408,178,74138,2,0,L|400:295,1,99.9999999999999,6|2,0:0|0:0,0:0:0:0:
395,327,74638,1,8,0:0:0:0:
302,290,74971,1,8,0:0:0:0:
212,334,75305,1,8,0:0:0:0:
213,234,75638,6,0,L|218:123,1,99.9999999999999,2|12,0:0|0:0,0:0:0:0:
221,84,76138,1,2,0:0:0:0:
221,84,76305,1,2,0:0:0:0:
130,40,76638,1,8,0:0:0:0:
54,105,76971,1,0,0:0:0:0:
54,105,77138,2,0,L|61:159,1,50,2|8,0:0|0:0,0:0:0:0:
46,202,77471,2,0,L|63:314,1,99.9999999999999,0|2,0:0|0:0,0:0:0:0:
70,349,77971,1,8,0:0:0:0:
156,297,78305,6,0,P|233:284|269:297,1,99.9999999999999,2|8,0:0|0:0,0:0:0:0:
289,322,78805,1,2,0:0:0:0:
289,322,78971,2,0,L|273:378,2,50,0|2|8,0:0|0:0|0:0,0:0:0:0:
337,307,79471,2,0,B|349:265|349:265|338:199,1,99.9999999999999,2|2,0:0|0:0,0:0:0:0:
329,160,79971,1,8,0:0:0:0:
309,61,80305,2,0,L|243:57,1,50,2|2,0:0|0:0,0:0:0:0:
209,52,80638,2,0,L|143:48,1,50,8|0,0:0|0:0,0:0:0:0:
109,46,80971,5,2,0:0:0:0:
39,117,81305,1,8,0:0:0:0:
87,204,81638,2,0,L|136:207,1,50,0|2,0:0|0:0,0:0:0:0:
187,213,81971,2,0,L|236:216,1,50,8|2,0:0|0:0,0:0:0:0:
287,221,82305,1,0,0:0:0:0:
376,176,82638,1,8,0:0:0:0:
449,243,82971,1,2,0:0:0:0:
431,341,83305,1,8,0:0:0:0:
334,366,83638,6,0,L|214:355,1,99.9999999999999,12|2,0:0|0:0,0:0:0:0:
196,324,84138,1,10,0:0:0:0:
196,324,84305,2,0,P|160:346|146:359,2,50,4|2|4,0:3|0:3|0:3,0:0:0:0:
218,279,84805,2,0,P|221:202|204:165,1,99.9999999999999,8|2,0:0|0:0,0:0:0:0:
193,135,85305,1,2,0:0:0:0:
193,135,85471,1,8,0:0:0:0:
107,83,85805,2,0,L|45:86,1,50,8|8,0:3|0:3,0:0:0:0:
18,117,86138,1,8,0:3:0:0:
18,117,86305,5,2,0:0:0:0:
88,187,86638,1,8,0:0:0:0:
71,285,86971,2,0,L|9:293,2,50,8|2|4,0:0|3:0|3:0,0:0:0:0:
116,305,87471,2,0,P|173:314|223:303,1,99.9999999999999,6|0,0:0|0:0,0:0:0:0:
251,273,87971,1,8,0:0:0:0:
251,273,88138,1,4,0:3:0:0:
313,195,88471,1,2,0:0:0:0:
313,195,88638,2,0,L|377:198,1,50,8|8,0:0|0:0,0:0:0:0:
405,224,88971,5,2,0:3:0:0:
472,149,89305,1,8,0:0:0:0:
428,58,89638,2,0,L|446:3,2,50,8|2|4,0:0|3:0|3:0,0:0:0:0:
379,71,90138,2,0,P|284:83|266:79,1,99.9999999999999,6|2,0:0|0:0,0:0:0:0:
234,63,90638,1,8,0:0:0:0:
234,63,90805,1,4,0:3:0:0:
138,33,91138,2,0,L|36:40,1,99.9999999999999,2|8,0:0|0:0,0:0:0:0:
14,83,91638,5,2,0:3:0:0:
85,152,91971,1,8,0:0:0:0:
48,245,92305,2,0,L|28:300,2,50,8|2|4,0:0|3:0|3:0,0:0:0:0:
98,247,92805,2,0,L|208:255,1,99.9999999999999,6|2,0:0|0:0,0:0:0:0:
235,287,93305,1,10,0:0:0:0:
235,287,93471,1,4,0:3:0:0:
325,243,93805,1,2,0:3:0:0:
325,243,93971,2,0,P|336:200|334:185,1,50,8|8,0:0|0:0,0:0:0:0:
325,145,94305,5,10,0:1:0:0:
391,70,94638,1,8,0:0:0:0:
476,122,94971,2,0,L|503:68,2,50,8|2|4,0:0|3:0|3:0,0:0:0:0:
444,160,95471,2,0,B|436:205|436:205|447:269,1,99.9999999999999,6|2,0:0|3:0,0:0:0:0:
460,306,95971,1,0,3:0:0:0:
460,306,96138,1,4,0:3:0:0:
368,346,96471,2,0,P|324:345|306:339,1,50,8|8,0:0|0:0,0:0:0:0:
274,319,96805,1,8,0:0:0:0:
274,319,96971,5,6,0:0:0:0:
178,348,97305,1,8,0:0:0:0:
109,275,97638,2,0,P|101:229|119:165,1,99.9999999999999,2|8,0:0|0:0,0:0:0:0:
132,131,98138,2,0,L|22:129,1,99.9999999999999,2|2,0:0|0:0,0:0:0:0:
19,80,98638,1,8,0:0:0:0:
106,32,98971,2,0,L|205:33,1,99.9999999999999,2|8,0:0|0:0,0:0:0:0:
306,30,99638,6,0,P|310:82|300:134,1,99.9999999999999,2|8,0:0|0:0,0:0:0:0:
266,222,100305,1,2,0:0:0:0:
266,222,100471,2,0,L|338:222,1,50,0|8,0:0|0:0,0:0:0:0:
365,233,100805,2,0,P|369:285|359:337,1,99.9999999999999,2|2,0:0|0:0,0:0:0:0:
323,365,101305,1,8,0:0:0:0:
323,365,101471,1,0,0:0:0:0:
231,323,101805,1,2,0:0:0:0:
137,358,102138,1,0,3:0:0:0:
137,358,102305,6,0,L|120:249,1,99.9999999999999,6|8,0:0|0:0,0:0:0:0:
35,209,102971,2,0,L|52:100,1,99.9999999999999,2|8,0:0|0:0,0:0:0:0:
25,66,103471,2,0,P|98:81|141:75,1,99.9999999999999,2|2,0:0|0:0,0:0:0:0:
167,55,103971,1,8,0:0:0:0:
262,86,104305,2,0,L|278:138,2,50,2|2|8,0:0|0:0|0:0,0:0:0:0:
332,15,104971,6,0,P|378:16|437:40,1,99.9999999999999,2|8,0:0|0:0,0:0:0:0:
466,127,105638,2,0,L|519:127,2,50,8|0|8,0:0|0:0|0:0,0:0:0:0:
419,145,106138,2,0,P|402:213|412:248,1,99.9999999999999,10|2,0:1|0:0,0:0:0:0:
432,284,106638,1,12,0:3:0:0:
355,348,106971,1,0,0:0:0:0:
272,291,107305,2,0,P|231:279|211:281,1,50,8|0,0:0|3:0,0:0:0:0:
186,312,107638,5,12,0:1:0:0:
111,245,107971,1,8,0:0:0:0:
136,148,108305,1,8,0:0:0:0:
235,135,108638,1,8,0:0:0:0:
332,115,108971,2,0,L|445:95,2,99.9999999999999,8|8|8,0:0|0:0|0:0,0:0:0:0:
235,135,109971,1,8,0:0:0:0:
298,212,110305,5,12,0:3:0:0:
334,122,110638,1,8,0:0:0:0:
268,46,110971,2,0,L|262:-7,2,50,8|8|2,0:0|0:0|3:0,0:0:0:0:
247,91,111471,2,0,P|187:103|141:88,1,99.9999999999999,4|0,0:1|3:0,0:0:0:0:
105,70,111971,1,12,0:0:0:0:
256,192,112138,12,0,115555,0:0:0:0:
