osu file format v14

[General]
AudioFilename: audio.mp3
AudioLeadIn: 0
PreviewTime: 63888
Countdown: 0
SampleSet: Soft
StackLeniency: 0.3
Mode: 0
LetterboxInBreaks: 0
WidescreenStoryboard: 1

[Editor]
Bookmarks: 971,11638,16971,27638,38305,48971,54305,64971,75638,86305,96971,107638,111971,115638
DistanceSpacing: 1.1
BeatDivisor: 4
GridSize: 4
TimelineZoom: 1.2

[Metadata]
Title:Sunglow
TitleUnicode:Sunglow
Artist:Yamajet feat. Hiura Masako
ArtistUnicode:Yamajet feat. ひうらまさこ
Creator:celerih
Version:Mao's Hard
Source:crossbeats REV. SUNRISE
Tags:Lasse Mir Mao FoxyGrandpa happy high carolie flolf しあわせハイカロリー cross×beats capcom
BeatmapID:1610023
BeatmapSetID:712172

[Difficulty]
HPDrainRate:5
CircleSize:4
OverallDifficulty:6
ApproachRate:7
SliderMultiplier:1.43
SliderTickRate:1

[Events]
//Background and Video events
0,0,"Sunglow BG.jpg",0,0
//Break Periods
//Storyboard Layer 0 (Background)
//Storyboard Layer 1 (Fail)
//Storyboard Layer 2 (Pass)
//Storyboard Layer 3 (Foreground)
//Storyboard Sound Samples

[TimingPoints]
972,333.333333333333,4,2,1,50,1,0
972,-100,4,2,1,55,0,0
2305,-100,4,2,10,55,0,0
2471,-100,4,2,1,55,0,0
4971,-100,4,2,10,55,0,0
5138,-100,4,2,1,55,0,0
7638,-100,4,2,10,55,0,0
7805,-100,4,2,1,55,0,0
10138,-100,4,2,1,65,0,0
10805,-100,4,2,2,65,0,0
11638,-100,4,2,2,65,0,0
14305,-100,4,2,2,65,0,0
14971,-100,4,2,1,65,0,0
15971,-100,4,2,3,50,0,0
16638,-100,4,2,2,50,0,0
16971,-100,4,2,4,50,0,0
18305,-100,4,2,11,50,0,0
18471,-100,4,2,4,50,0,0
19638,-100,4,2,9,50,0,0
19971,-100,4,2,4,50,0,0
20971,-100,4,2,11,50,0,0
21138,-100,4,2,4,50,0,0
22305,-100,4,2,9,50,0,0
22638,-100,4,2,4,50,0,0
23638,-100,4,2,11,50,0,0
23805,-100,4,2,4,50,0,0
24971,-100,4,2,9,50,0,0
25305,-100,4,2,4,50,0,0
27638,-100,4,2,3,50,0,0
27971,-100,4,2,4,50,0,0
28971,-100,4,2,11,50,0,0
29138,-100,4,2,4,50,0,0
30305,-100,4,2,9,50,0,0
30638,-100,4,2,4,50,0,0
31638,-100,4,2,11,50,0,0
31805,-100,4,2,4,50,0,0
32971,-100,4,2,9,50,0,0
33305,-100,4,2,4,50,0,0
33971,-100,4,2,1,50,0,0
34138,-100,4,2,4,50,0,0
34305,-100,4,2,11,50,0,0
34471,-100,4,2,4,50,0,0
35638,-100,4,2,9,50,0,0
35971,-100,4,2,4,50,0,0
37971,-100,4,2,2,50,0,0
38138,-100,4,2,1,50,0,0
38305,-100,4,2,3,45,0,0
38805,-100,4,2,1,45,0,0
38971,-100,4,2,9,45,0,0
39305,-100,4,2,2,45,0,0
39638,-100,4,2,9,45,0,0
39971,-100,4,2,4,45,0,0
40305,-100,4,2,9,45,0,0
40638,-100,4,2,2,45,0,0
40971,-100,4,2,9,45,0,0
41305,-100,4,2,4,45,0,0
41638,-100,4,2,9,45,0,0
41971,-100,4,2,2,45,0,0
42138,-100,4,2,1,45,0,0
42305,-100,4,2,9,45,0,0
42638,-100,4,2,2,45,0,0
42971,-100,4,2,9,45,0,0
43305,-100,4,2,2,45,0,0
43638,-100,4,2,9,55,0,0
43971,-100,4,2,4,55,0,0
44305,-100,4,2,9,55,0,0
44638,-100,4,2,2,55,0,0
44971,-100,4,2,9,55,0,0
45305,-100,4,2,4,55,0,0
45638,-100,4,2,9,55,0,0
45971,-100,4,2,2,55,0,0
46305,-100,4,2,9,55,0,0
46638,-100,4,2,4,55,0,0
46971,-100,4,2,9,55,0,0
47305,-100,4,2,2,55,0,0
47471,-100,4,2,1,55,0,0
47638,-100,4,2,9,60,0,0
47971,-100,4,2,4,60,0,0
48305,-100,4,2,9,60,0,0
48638,-100,4,2,2,60,0,0
48971,-100,4,2,1,50,0,0
49638,-100,4,2,9,50,0,0
49971,-100,4,2,2,50,0,0
50305,-100,4,2,9,50,0,0
50638,-100,4,2,4,50,0,0
50971,-100,4,2,9,50,0,0
51305,-100,4,2,4,50,0,0
51638,-100,4,2,9,50,0,0
51971,-100,4,2,4,50,0,0
52305,-100,4,2,9,50,0,0
52638,-100,4,2,2,50,0,0
52971,-100,4,2,9,55,0,0
53305,-100,4,2,2,55,0,0
53638,-100,4,2,9,55,0,0
53971,-100,4,2,2,55,0,0
54221,-100,4,2,12,5,0,0
54305,-100,4,2,1,60,0,0
55471,-100,4,2,2,60,0,0
55805,-100,4,2,1,60,0,0
56305,-100,4,2,4,60,0,0
58305,-100,4,2,10,60,0,0
58471,-100,4,2,4,60,0,0
58638,-100,4,2,1,60,0,0
59555,-100,4,2,12,5,0,0
59638,-100,4,2,2,65,0,0
62971,-100,4,3,1,70,0,0
63805,-100,4,3,1,60,0,0
64971,-90.9090909090909,4,2,3,70,0,1
65305,-90.9090909090909,4,2,4,70,0,1
83638,-90.9090909090909,4,2,4,75,0,1
84471,-90.9090909090909,4,2,1,75,0,1
86305,-100,4,2,2,50,0,0
86638,-100,4,2,2,60,0,0
87138,-100,4,2,1,60,0,0
88138,-100,4,2,4,60,0,0
89305,-100,4,2,2,60,0,0
89805,-100,4,2,1,60,0,0
90805,-100,4,2,4,60,0,0
91971,-100,4,2,2,60,0,0
92471,-100,4,2,1,60,0,0
93471,-100,4,2,4,60,0,0
93805,-100,4,2,1,60,0,0
94638,-100,4,2,2,60,0,0
95138,-100,4,2,1,60,0,0
96138,-100,4,2,4,60,0,0
96971,-100,4,2,4,55,0,0
101971,-100,4,2,1,55,0,0
102305,-100,4,2,4,60,0,0
106971,-100,4,2,1,60,0,0
107138,-100,4,2,1,50,0,0
107221,-100,4,2,1,60,0,0
107305,-100,4,2,1,70,0,0
107471,-100,4,2,1,50,0,0
107638,-100,4,2,2,60,0,0
110971,-100,4,2,1,65,0,0
111971,-100,4,2,1,60,0,0
112638,-100,4,2,1,50,0,0
112971,-100,4,2,1,40,0,0
113638,-100,4,2,1,30,0,0
114305,-100,4,2,1,20,0,0
114971,-100,4,2,1,10,0,0
115638,-100,4,2,12,5,0,0

[Colours]
Combo1 : 78,85,133
Combo2 : 214,190,22
Combo3 : 93,108,127
Combo4 : 196,120,36

[HitObjects]
37,36,971,6,0,L|41:122,1,71.5,8|8,0:0|0:0,0:0:0:0:
46,186,1305,1,0,0:0:0:0:
180,34,1638,1,2,0:0:0:0:
174,112,1806,2,0,L|170:183,1,71.5,2|0,0:0|0:0,0:0:0:0:
111,238,2138,6,0,P|157:235|221:302,1,143,12|2,0:1|0:1,0:0:0:0:
260,367,2638,1,8,0:0:0:0:
303,301,2805,2,0,L|290:147,1,143,0|2,0:0|0:0,0:0:0:0:
282,80,3305,1,2,0:0:0:0:
282,80,3471,1,8,0:0:0:0:
353,112,3638,6,0,P|390:113|422:96,1,71.5,2|2,0:0|0:1,0:0:0:0:
472,38,3971,1,12,0:1:0:0:
504,234,4305,1,2,0:0:0:0:
451,292,4471,2,0,P|414:293|382:276,1,71.5,2|2,0:1|0:0,0:0:0:0:
334,215,4805,6,0,P|336:286|280:338,1,143,12|0,0:1|0:0,0:0:0:0:
217,301,5305,2,0,P|175:302|134:336,1,71.5,8|0,0:0|0:0,0:0:0:0:
87,363,5638,1,8,0:3:0:0:
16,327,5805,1,2,0:3:0:0:
9,248,5971,1,2,0:3:0:0:
71,199,6138,1,4,0:3:0:0:
26,133,6305,6,0,P|8:103|9:42,1,71.5,2|2,0:0|0:1,0:0:0:0:
51,5,6638,1,12,0:1:0:0:
151,176,6971,1,2,0:1:0:0:
222,143,7138,2,0,P|240:113|239:52,1,71.5,2|2,0:1|0:0,0:0:0:0:
204,9,7471,6,0,P|245:42|336:34,1,143,4|0,0:1|0:0,0:0:0:0:
403,4,7971,1,8,0:1:0:0:
396,82,8138,2,0,L|377:223,1,143,0|0,0:0|0:0,0:0:0:0:
370,302,8638,1,2,0:0:0:0:
370,302,8804,1,8,0:0:0:0:
440,269,8971,6,0,P|475:261|513:270,1,71.5,2|0,0:0|0:0,0:0:0:0:
477,340,9304,1,8,0:0:0:0:
304,251,9638,1,2,0:0:0:0:
304,251,9804,2,0,P|287:284|292:326,1,71.5,0|2,0:0|0:0,0:0:0:0:
228,368,10138,6,0,P|158:358|115:303,1,143,12|2,0:0|0:3,0:0:0:0:
152,233,10638,1,6,0:3:0:0:
73,235,10805,2,0,L|83:164,1,71.5,4|0,0:1|0:0,0:0:0:0:
47,93,11138,2,0,L|117:82,1,71.5,0|8,0:0|0:0,0:0:0:0:
195,71,11471,1,8,0:0:0:0:
195,71,11638,6,0,P|195:110|222:132,1,71.5,12|0,0:0|0:0,0:0:0:0:
296,127,11971,2,0,P|296:166|269:188,1,71.5,8|0,0:0|3:0,0:0:0:0:
196,205,12305,1,8,0:0:0:0:
196,205,12471,2,0,P|196:244|223:266,1,71.5,0|8,3:0|0:0,0:0:0:0:
244,339,12805,6,0,P|257:290|341:270,1,143,0|0,3:0|3:0,0:0:0:0:
401,316,13305,2,0,P|410:355|391:394,2,71.5,8|0|8,0:0|3:0|0:0,0:0:0:0:
410,237,13805,2,0,P|455:226|470:137,1,143,0|0,3:0|3:0,0:0:0:0:
502,68,14305,6,0,P|467:105|389:72,1,143,12|8,0:1|0:0,0:0:0:0:
337,16,14805,1,0,3:0:0:0:
337,16,14971,2,0,P|309:47|321:88,1,71.5,8|2,0:0|0:3,0:0:0:0:
337,149,15305,1,4,0:3:0:0:
259,158,15471,1,8,0:1:0:0:
259,158,15805,5,0,3:0:0:0:
228,228,15971,2,0,B|124:238|138:144|31:156,1,214.5,12|8,0:0|0:0,0:0:0:0:
0,228,16638,1,8,0:0:0:0:
0,228,16971,6,0,L|-8:68,1,143,4|10,0:0|0:1,0:0:0:0:
25,13,17471,1,2,0:0:0:0:
87,69,17638,1,2,0:0:0:0:
87,69,17805,2,0,P|134:52|157:12,1,71.5,2|8,0:0|0:0,0:0:0:0:
223,15,18138,6,0,P|197:54|187:156,1,143,2|2,0:0|0:0,0:0:0:0:
221,217,18638,2,0,P|256:203|304:205,1,71.5,8|0,0:0|0:0,0:0:0:0:
302,124,18971,2,0,P|336:138|369:174,1,71.5,2|2,0:3|0:1,0:0:0:0:
424,114,19305,2,0,P|438:149|436:197,1,71.5,8|0,0:0|0:0,0:0:0:0:
511,213,19638,6,0,P|461:229|424:311,1,143,4|8,0:0|0:0,0:0:0:0:
378,370,20138,1,2,0:3:0:0:
299,369,20305,2,0,P|230:352|188:296,1,143,2|8,0:0|0:0,0:0:0:0:
129,243,20805,6,0,P|92:302|102:372,2,143,2|2|2,0:0|0:0|0:0,0:0:0:0:
203,216,21638,2,0,P|197:172|181:136,1,71.5,2|2,0:0|0:1,0:0:0:0:
120,104,21971,2,0,P|126:60|142:24,1,71.5,8|0,0:0|0:0,0:0:0:0:
209,4,22305,6,0,L|355:38,1,143,4|8,0:0|0:0,0:0:0:0:
424,56,22805,1,2,0:3:0:0:
375,117,22972,1,2,0:0:0:0:
375,117,23139,2,0,P|328:134|305:174,1,71.5,2|8,0:0|0:0,0:0:0:0:
379,194,23472,6,0,P|417:235|420:339,1,143,2|2,0:0|0:0,0:0:0:0:
360,361,23972,2,0,P|325:346|269:349,1,71.5,8|0,0:0|0:0,0:0:0:0:
222,381,24305,2,0,P|207:345|166:308,1,71.5,2|2,0:3|0:1,0:0:0:0:
107,311,24638,2,0,P|122:276|119:220,1,71.5,8|0,0:0|0:0,0:0:0:0:
184,192,24971,6,0,P|130:195|60:116,1,143,4|8,0:0|0:0,0:0:0:0:
42,63,25472,1,2,0:0:0:0:
110,25,25638,2,0,P|164:22|234:101,1,143,2|8,0:3|0:0,0:0:0:0:
305,62,26138,6,0,P|305:92|286:132,1,71.5,4|0,0:0|0:0,0:0:0:0:
267,205,26471,1,2,0:0:0:0:
267,205,26638,1,8,0:0:0:0:
299,276,26805,2,0,P|369:270|428:231,1,143,4|2,0:0|0:0,0:0:0:0:
465,162,27305,1,8,0:0:0:0:
465,162,27638,6,0,L|473:308,1,143,4|8,0:0|0:0,0:0:0:0:
421,364,28138,1,2,0:0:0:0:
351,327,28305,1,2,0:3:0:0:
351,327,28472,2,0,P|304:344|281:384,1,71.5,2|8,0:0|0:0,0:0:0:0:
212,353,28805,6,0,P|215:282|260:228,1,143,2|2,0:0|0:0,0:0:0:0:
314,171,29305,2,0,P|280:152|223:159,1,71.5,8|0,0:0|0:0,0:0:0:0:
244,71,29638,2,0,P|206:81|171:126,1,71.5,2|2,0:0|0:1,0:0:0:0:
128,46,29971,2,0,P|109:80|116:137,1,71.5,8|0,0:0|0:0,0:0:0:0:
28,112,30305,6,0,P|78:128|115:210,1,143,4|8,0:0|0:0,0:0:0:0:
74,272,30805,1,2,0:0:0:0:
112,340,30972,2,0,P|165:347|251:276,1,143,2|8,0:3|0:0,0:0:0:0:
270,231,31471,6,0,P|267:301|312:374,2,143,2|2|2,0:0|0:0|0:0,0:0:0:0:
245,155,32305,2,0,P|287:152|329:182,1,71.5,2|2,0:0|0:1,0:0:0:0:
343,237,32638,2,0,P|385:240|427:210,1,71.5,8|0,0:0|0:0,0:0:0:0:
467,283,32972,6,0,L|459:140,1,143,4|8,0:0|0:0,0:0:0:0:
492,68,33472,1,2,0:0:0:0:
430,18,33639,1,2,0:0:0:0:
430,18,33806,2,0,P|383:35|360:75,1,71.5,2|8,0:0|0:1,0:0:0:0:
379,128,34139,6,0,P|338:90|234:87,1,143,2|2,0:0|0:0,0:0:0:0:
185,41,34638,2,0,P|176:80|187:116,1,71.5,8|0,0:0|0:0,0:0:0:0:
229,174,34971,2,0,P|195:195|177:228,1,71.5,2|2,0:0|0:1,0:0:0:0:
167,300,35305,2,0,P|128:291|91:302,1,71.5,8|0,0:0|0:0,0:0:0:0:
24,326,35638,6,0,L|17:231,1,71.5,4|0,0:0|0:0,0:0:0:0:
13,176,35971,1,0,0:0:0:0:
13,176,36138,2,0,P|59:156|87:54,1,143,2|2,0:0|0:0,0:0:0:0:
151,22,36638,1,8,0:0:0:0:
206,77,36805,6,0,L|193:229,1,143,12|2,0:0|0:0,0:0:0:0:
256,267,37305,1,8,0:0:0:0:
318,219,37471,2,0,L|306:77,1,143,12|2,0:0|0:0,0:0:0:0:
362,20,37972,1,8,0:0:0:0:
362,20,38305,6,0,B|442:85|366:141|450:209,1,214.5,4|2,0:0|0:0,0:0:0:0:
508,158,38971,2,0,P|478:234|489:316,1,143,6|8,0:0|0:0,0:0:0:0:
323,382,39638,6,0,B|242:316|318:260|234:192,1,214.5,6|2,0:0|0:0,0:0:0:0:
161,174,40305,2,0,P|177:142|205:121,2,71.5,6|2|8,0:0|0:0|0:0,0:0:0:0:
84,19,40971,6,0,B|3:84|79:140|-4:208,1,214.5,6|2,0:0|0:0,0:0:0:0:
9,285,41638,2,0,P|77:273|134:313,1,143,6|8,0:0|0:0,0:0:0:0:
181,376,42138,1,2,0:0:0:0:
217,306,42305,6,0,P|228:237|188:180,1,143,6|8,0:0|0:0,0:0:0:0:
299,33,42971,1,6,0:0:0:0:
299,33,43138,1,2,0:0:0:0:
311,110,43305,2,0,L|320:194,1,71.5,8|0,0:0|0:0,0:0:0:0:
278,250,43638,6,0,B|370:202|391:295|487:246,1,214.5,6|2,0:0|0:0,0:0:0:0:
512,316,44305,2,0,P|493:232|515:166,1,143,6|8,0:0|0:0,0:0:0:0:
340,99,44971,6,0,B|247:51|226:144|130:95,1,214.5,6|2,0:0|0:0,0:0:0:0:
63,133,45638,2,0,P|55:89|66:53,2,71.5,6|2|8,0:0|0:0|0:0,0:0:0:0:
128,176,46138,1,2,0:0:0:0:
59,214,46305,6,0,B|104:308|177:246|222:339,1,214.5,6|2,0:0|0:0,0:0:0:0:
289,380,46971,2,0,P|264:331|260:231,1,143,4|8,0:0|0:0,0:0:0:0:
303,180,47471,1,0,3:0:0:0:
339,249,47638,6,0,P|397:287|468:286,1,143,4|8,0:0|0:0,0:0:0:0:
401,99,48305,2,0,P|424:133|425:179,2,71.5,4|2|8,0:0|0:0|0:0,0:0:0:0:
328,68,48805,1,0,0:0:0:0:
393,25,48971,6,0,B|300:72|279:-20|183:28,1,214.5,6|2,0:0|0:0,0:0:0:0:
201,104,49638,2,0,P|167:65|83:30,1,143,6|8,0:0|0:0,0:0:0:0:
198,202,50305,6,0,B|290:249|311:156|407:205,1,214.5,6|2,0:0|0:0,0:0:0:0:
468,158,50971,2,0,P|482:190|478:225,2,71.5,6|2|8,0:0|0:0|0:0,0:0:0:0:
324,303,51638,6,0,B|231:350|210:257|114:306,1,214.5,6|2,0:0|0:0,0:0:0:0:
132,382,52305,2,0,P|90:345|46:252,1,143,6|8,0:0|0:0,0:0:0:0:
45,190,52804,1,2,0:0:0:0:
118,160,52971,6,0,P|111:92|46:53,1,143,6|8,0:0|0:0,0:0:0:0:
285,79,53637,1,6,0:0:0:0:
285,79,53804,1,2,0:0:0:0:
219,20,53971,2,0,L|202:90,1,71.5,8|0,0:0|0:0,0:0:0:0:
252,151,54305,6,0,P|295:136|379:179,1,143,6|8,0:0|0:0,0:0:0:0:
416,245,54805,1,2,0:0:0:0:
475,193,54971,2,0,P|450:245|447:344,1,143,2|8,0:0|0:0,0:0:0:0:
377,371,55471,6,0,L|211:342,1,143,12|2,0:1|0:0,0:0:0:0:
163,377,55971,1,8,0:0:0:0:
143,191,56305,2,0,L|137:119,1,71.5,2|2,0:1|0:0,0:0:0:0:
90,56,56638,1,8,0:0:0:0:
90,56,56805,1,2,0:0:0:0:
25,100,56971,6,0,P|8:142|13:190,1,71.5,6|8,0:0|0:0,0:0:0:0:
64,222,57305,1,0,0:0:0:0:
43,297,57471,2,0,P|100:318|189:298,1,143,2|2,0:0|0:0,0:0:0:0:
235,249,57971,1,8,0:0:0:0:
235,249,58138,5,4,0:3:0:0:
372,373,58471,1,2,0:0:0:0:
502,239,58805,1,0,3:0:0:0:
502,239,58971,2,0,L|430:246,1,71.5,8|0,0:0|3:0,0:0:0:0:
351,252,59305,1,8,0:0:0:0:
351,252,59638,6,0,P|336:208|307:186,2,71.5,8|0|8,0:0|3:0|0:0,0:0:0:0:
345,330,60138,1,0,3:0:0:0:
277,289,60305,2,0,P|221:277|183:291,2,71.5,8|0|8,0:0|3:0|0:0,0:0:0:0:
234,355,60805,6,0,P|178:367|140:353,1,71.5,0|8,3:0|0:0,0:0:0:0:
86,370,61138,2,0,P|74:314|88:276,1,71.5,0|8,3:0|0:0,0:0:0:0:
117,234,61471,1,0,3:0:0:0:
68,171,61638,2,0,P|32:168|0:180,2,71.5,8|0|8,0:0|3:0|0:0,0:0:0:0:
190,29,62305,6,0,P|214:97|216:170,1,143,12|12,0:1|0:0,0:0:0:0:
193,242,62805,1,0,3:0:0:0:
256,287,62971,2,0,L|335:270,1,71.5,8|2,3:0|0:0,0:0:0:0:
316,193,63305,2,0,L|395:210,1,71.5,2|4,0:0|0:0,0:0:0:0:
480,32,63805,5,0,0:0:0:0:
480,32,63971,1,8,0:0:0:0:
385,208,64305,1,8,0:0:0:0:
366,8,64638,1,12,2:0:0:0:
496,246,64971,6,0,B|432:256|398:307|398:307|441:293,1,157.300004800415,6|8,0:3|0:0,0:0:0:0:
438,381,65471,1,2,0:0:0:0:
351,381,65638,2,0,P|314:344|339:241,1,157.300004800415,2|8,0:0|0:0,0:0:0:0:
398,194,66138,1,2,0:0:0:0:
337,131,66305,5,0,0:0:0:0:
337,131,66471,2,0,P|298:122|265:146,1,78.6500024002076,2|8,0:0|0:0,0:0:0:0:
238,60,66805,2,0,P|204:80|197:121,1,78.6500024002076,2|0,0:0|0:0,0:0:0:0:
117,79,67138,2,0,P|108:117|132:150,1,78.6500024002076,2|8,0:0|0:0,0:0:0:0:
44,177,67471,2,0,P|64:210|105:217,2,78.6500024002076,0|2|0,0:0|0:0|0:0,0:0:0:0:
32,91,67971,5,8,0:0:0:0:
32,91,68305,1,2,0:0:0:0:
44,177,68471,2,0,P|43:214|14:247,1,78.6500024002076,2|8,0:0|0:0,0:0:0:0:
1,330,68805,2,0,P|32:363|133:256,1,235.950007200623,4|8,0:0|0:0,0:0:0:0:
169,185,69471,5,2,0:0:0:0:
249,215,69638,2,0,P|273:248|259:306,1,78.6500024002076,2|2,0:0|0:0,0:0:0:0:
231,360,69971,1,2,0:0:0:0:
231,360,70138,1,2,0:0:0:0:
317,360,70305,6,0,B|366:398|429:383|429:383|412:372|392:371,1,157.300004800415,2|8,0:0|0:0,0:0:0:0:
495,178,70971,1,2,0:0:0:0:
495,178,71138,1,2,0:0:0:0:
439,244,71305,1,8,0:0:0:0:
439,244,71471,1,2,0:0:0:0:
377,183,71638,6,0,P|368:141|392:109,1,78.6500024002076,0|2,0:0|0:0,0:0:0:0:
339,39,71971,2,0,P|297:48|265:24,1,78.6500024002076,8|0,0:0|0:0,0:0:0:0:
195,77,72305,2,0,P|204:119|180:151,1,78.6500024002076,2|2,0:0|0:0,0:0:0:0:
233,221,72638,2,0,P|275:212|307:236,1,78.6500024002076,8|0,0:0|0:0,0:0:0:0:
361,294,72971,6,0,P|320:287|223:367,1,157.300004800415,2|10,0:0|0:1,0:0:0:0:
153,384,73471,1,2,0:0:0:0:
154,297,73638,2,0,P|115:290|76:302,1,78.6500024002076,2|2,0:0|0:0,0:0:0:0:
14,360,73971,1,8,0:0:0:0:
14,360,74138,2,0,L|-10:274,1,78.6500024002076,6|0,0:0|0:0,0:0:0:0:
49,219,74471,5,2,0:0:0:0:
25,135,74638,1,8,0:0:0:0:
110,148,74805,2,0,P|151:150|242:71,1,157.300004800415,2|2,0:0|0:0,0:0:0:0:
275,3,75305,1,8,0:0:0:0:
275,3,75638,6,0,B|284:67|326:111|326:111|319:48,1,157.300004800415,2|12,0:0|0:0,0:0:0:0:
393,25,76138,1,2,0:0:0:0:
415,108,76305,2,0,P|361:145|360:245,1,157.300004800415,2|8,0:0|0:0,0:0:0:0:
420,285,76805,1,2,0:0:0:0:
362,350,76972,5,0,0:0:0:0:
362,350,77138,2,0,P|329:325|294:341,1,78.6500024002076,2|8,0:0|0:0,0:0:0:0:
219,378,77471,2,0,P|213:337|177:324,1,78.6500024002076,0|2,0:0|0:0,0:0:0:0:
97,298,77805,2,0,P|123:265|106:230,1,78.6500024002076,2|8,0:0|0:0,0:0:0:0:
69,155,78138,2,0,P|110:149|123:113,2,78.6500024002076,0|2|0,0:0|0:0|0:0,0:0:0:0:
0,105,78638,5,8,0:0:0:0:
0,105,78971,1,0,0:0:0:0:
15,19,79138,2,0,P|52:22|69:55,1,78.6500024002076,2|8,0:0|0:0,0:0:0:0:
124,118,79472,2,0,P|83:137|142:278,1,235.950007200623,2|8,0:0|0:0,0:0:0:0:
195,219,80138,5,0,0:0:0:0:
195,219,80305,2,0,P|213:260|214:299,1,78.6500024002076,2|2,0:0|0:0,0:0:0:0:
271,358,80638,1,8,0:0:0:0:
271,358,80805,1,0,0:0:0:0:
301,276,80972,6,0,B|285:208|317:162|317:162|321:184|316:201,1,157.300004800415,2|8,0:0|0:0,0:0:0:0:
460,372,81638,1,0,0:0:0:0:
460,372,81805,1,2,0:0:0:0:
493,291,81972,1,8,0:0:0:0:
493,291,82138,1,2,0:0:0:0:
427,233,82305,6,0,P|412:202|422:151,1,78.6500024002076,0|2,0:0|0:0,0:0:0:0:
432,73,82638,2,0,P|401:88|350:78,1,78.6500024002076,8|0,0:0|0:0,0:0:0:0:
272,68,82971,2,0,P|287:99|277:150,1,78.6500024002076,2|2,0:0|0:0,0:0:0:0:
267,228,83305,2,0,P|298:213|349:223,1,78.6500024002076,8|0,0:0|0:0,0:0:0:0:
427,233,83638,6,0,P|360:282|351:363,1,157.300004800415,12|2,0:0|0:0,0:0:0:0:
157,278,84305,2,0,P|195:286|230:322,1,78.6500024002076,4|2,0:3|0:3,0:0:0:0:
154,363,84638,1,4,0:3:0:0:
154,363,84805,2,0,P|115:354|81:319,1,78.6500024002076,8|0,0:0|0:0,0:0:0:0:
79,242,85138,5,2,0:0:0:0:
11,295,85305,1,2,0:0:0:0:
0,208,85472,2,0,L|27:109,1,78.6500024002076,8|8,0:0|0:3,0:0:0:0:
69,60,85805,2,0,B|94:91|94:91|101:142,1,78.6500024002076,8|8,0:3|0:3,0:0:0:0:
171,176,86138,1,8,0:3:0:0:
217,108,86305,5,2,0:0:0:0:
340,253,86638,1,8,0:0:0:0:
418,84,86971,2,0,P|427:106|390:133,2,71.5,8|2|4,0:0|3:0|3:0,0:0:0:0:
339,84,87471,6,0,P|294:131|281:223,1,143,6|0,0:0|0:0,0:0:0:0:
340,253,87971,1,8,0:0:0:0:
407,211,88138,2,0,P|452:258|465:350,1,143,4|2,0:3|0:0,0:0:0:0:
398,370,88638,2,0,P|350:360|309:368,1,71.5,8|8,0:0|0:0,0:0:0:0:
251,383,88971,5,2,0:3:0:0:
147,228,89305,1,8,0:0:0:0:
266,85,89638,2,0,P|248:124|265:153,2,71.5,8|2|4,0:0|3:0|3:0,0:0:0:0:
331,128,90138,6,0,P|325:198|279:251,1,143,6|2,0:0|0:0,0:0:0:0:
207,282,90638,1,8,0:0:0:0:
147,228,90805,2,0,P|183:278|192:367,1,143,4|2,0:3|0:0,0:0:0:0:
119,383,91305,1,8,0:0:0:0:
119,383,91471,1,8,0:0:0:0:
62,319,91638,5,2,0:3:0:0:
238,260,91971,1,8,0:0:0:0:
95,141,92304,2,0,P|67:123|27:139,2,71.5,8|2|4,0:0|3:0|3:0,0:0:0:0:
59,211,92804,6,0,P|117:219|173:154,1,143,6|2,0:0|0:0,0:0:0:0:
166,83,93304,1,10,0:0:0:0:
237,115,93471,2,0,P|246:160|191:260,1,143,4|2,0:3|0:3,0:0:0:0:
145,292,93971,2,0,P|162:337|160:379,1,71.5,8|8,0:0|0:0,0:0:0:0:
84,347,94304,5,10,0:1:0:0:
265,384,94638,1,8,0:0:0:0:
378,237,94971,2,0,P|344:220|305:243,2,71.5,8|2|4,0:0|3:0|3:0,0:0:0:0:
345,308,95471,6,0,P|417:309|454:251,1,143,6|2,0:0|3:0,0:0:0:0:
430,179,95971,1,0,3:0:0:0:
477,115,96138,2,0,P|420:89|368:17,1,143,4|8,0:3|0:0,0:0:0:0:
293,20,96638,1,8,0:0:0:0:
320,93,96804,1,8,0:0:0:0:
242,81,96971,6,0,B|182:89|148:37|148:37|184:38,1,143,6|8,0:0|0:0,0:0:0:0:
141,106,97471,1,0,0:0:0:0:
73,65,97638,2,0,P|43:32|11:21,2,71.5,2|0|8,0:0|0:0|0:0,0:0:0:0:
67,143,98138,2,0,P|34:157|12:185,1,71.5,2|0,0:0|0:0,0:0:0:0:
12,264,98471,5,2,0:0:0:0:
12,264,98638,1,8,0:0:0:0:
90,266,98805,2,0,P|80:300|87:334,1,71.5,0|2,0:0|0:0,0:0:0:0:
162,359,99138,1,0,0:0:0:0:
162,359,99305,1,8,0:0:0:0:
221,306,99471,6,0,P|251:330|367:316,1,143,0|0,0:0|0:0,0:0:0:0:
406,271,99971,1,8,0:0:0:0:
406,271,100305,2,0,L|486:289,1,71.5,2|0,0:0|0:0,0:0:0:0:
507,214,100638,1,8,0:0:0:0:
507,214,100805,2,0,L|427:196,1,71.5,2|0,0:0|0:0,0:0:0:0:
360,182,101138,5,2,0:0:0:0:
415,126,101305,1,8,0:0:0:0:
415,126,101471,2,0,P|431:87|425:58,1,71.5,0|2,0:0|0:0,0:0:0:0:
357,17,101805,1,2,0:0:0:0:
282,186,102138,1,0,3:0:0:0:
282,186,102305,6,0,P|228:166|205:82,1,143,6|8,0:0|0:0,0:0:0:0:
218,12,102805,2,0,P|181:41|87:59,1,143,2|2,0:0|0:0,0:0:0:0:
13,48,103305,1,8,0:0:0:0:
13,48,103471,2,0,P|23:99|38:119,1,71.5,2|0,0:0|0:0,0:0:0:0:
110,135,103805,6,0,L|96:222,1,71.5,2|8,0:0|0:0,0:0:0:0:
19,205,104138,2,0,L|35:282,1,71.5,0|2,0:0|0:0,0:0:0:0:
108,298,104471,1,2,0:0:0:0:
56,357,104638,1,8,0:0:0:0:
56,357,104805,6,0,P|89:331|192:333,1,143
248,378,105305,1,8,0:0:0:0:
346,210,105638,2,0,P|306:216|277:238,2,71.5,8|0|8,0:0|0:0|0:0,0:0:0:0:
335,288,106138,2,0,P|359:222|419:184,1,143,10|2,0:1|0:0,0:0:0:0:
496,201,106638,5,12,0:3:0:0:
474,125,106805,2,0,P|457:77|426:44,1,71.5,0|0,0:0|0:0,0:0:0:0:
443,266,107305,1,8,0:0:0:0:
443,266,107471,1,0,3:0:0:0:
419,341,107638,6,0,P|380:341|358:314,1,71.5,12|0,0:1|0:0,0:0:0:0:
363,240,107971,2,0,P|324:240|302:267,1,71.5,8|0,0:0|3:0,0:0:0:0:
285,340,108305,1,8,0:0:0:0:
285,340,108471,2,0,P|246:340|224:313,1,71.5,0|8,3:0|0:0,0:0:0:0:
202,241,108805,6,0,P|193:292|102:320,1,143,0|0,3:0|3:0,0:0:0:0:
37,311,109305,2,0,P|25:341|30:379,2,71.5,8|0|8,0:0|0:0|0:0,0:0:0:0:
31,232,109805,2,0,P|40:181|131:153,1,143,0|0,3:0|3:0,0:0:0:0:
196,157,110305,6,0,P|154:111|206:37,1,143,12|8,0:3|0:0,0:0:0:0:
260,27,110805,1,0,3:0:0:0:
314,83,110971,2,0,P|315:123|285:156,1,71.5,8|8,0:0|0:0,0:0:0:0:
256,215,111305,1,2,3:0:0:0:
321,257,111471,1,4,0:1:0:0:
194,369,111805,5,0,3:0:0:0:
194,369,111971,1,12,0:0:0:0:
256,192,112055,12,0,115555,0:0:0:0:
