osu file format v14

[General]
AudioFilename: audio.mp3
AudioLeadIn: 0
PreviewTime: 63888
Countdown: 0
SampleSet: Soft
StackLeniency: 0.7
Mode: 0
LetterboxInBreaks: 0
WidescreenStoryboard: 1

[Editor]
Bookmarks: 971,16971,38305,54305,64971,75638,86305,96971,107638,115638
DistanceSpacing: 1
BeatDivisor: 4
GridSize: 16
TimelineZoom: 1.8

[Metadata]
Title:Sunglow
TitleUnicode:Sunglow
Artist:Yamajet feat. Hiura Masako
ArtistUnicode:Yamajet feat. ひうらまさこ
Creator:celerih
Version:Collab Insane
Source:crossbeats REV. SUNRISE
Tags:Lasse Mir Mao FoxyGrandpa happy high carolie flolf しあわせハイカロリー cross×beats capcom
BeatmapID:1543215
BeatmapSetID:712172

[Difficulty]
HPDrainRate:6
CircleSize:4
OverallDifficulty:8
ApproachRate:9
SliderMultiplier:1.76
SliderTickRate:1

[Events]
//Background and Video events
0,0,"Sunglow BG.jpg",0,0
//Break Periods
//Storyboard Layer 0 (Background)
//Storyboard Layer 1 (Fail)
//Storyboard Layer 2 (Pass)
//Storyboard Layer 3 (Foreground)
//Storyboard Sound Samples

[TimingPoints]
972,333.333333333333,4,2,1,50,1,0
972,-100,4,2,1,55,0,0
2305,-100,4,2,10,55,0,0
2471,-100,4,2,1,55,0,0
4971,-100,4,2,10,55,0,0
5138,-100,4,2,1,55,0,0
7638,-100,4,2,10,55,0,0
7805,-100,4,2,1,55,0,0
10138,-83.3333333333333,4,2,1,65,0,0
10471,-83.3333333333333,4,2,0,50,0,0
10805,-100,4,2,2,65,0,0
11638,-90.9090909090909,4,2,2,65,0,0
14305,-83.3333333333333,4,2,2,65,0,0
14971,-83.3333333333333,4,2,1,65,0,0
15805,-58.8235294117647,4,2,0,50,0,0
15971,-200,4,2,3,50,0,0
16471,-66.6666666666667,4,2,0,50,0,0
16638,-100,4,2,2,50,0,0
16971,-125,4,2,4,50,0,0
18305,-100,4,2,11,50,0,0
18471,-125,4,2,4,50,0,0
19638,-125,4,2,9,50,0,0
19971,-125,4,2,4,50,0,0
20971,-100,4,2,11,50,0,0
21138,-125,4,2,4,50,0,0
22305,-125,4,2,9,50,0,0
22638,-125,4,2,4,50,0,0
23638,-125,4,2,11,50,0,0
23805,-125,4,2,4,50,0,0
24971,-125,4,2,9,50,0,0
25305,-125,4,2,4,50,0,0
27638,-125,4,2,3,50,0,0
27971,-125,4,2,4,50,0,0
28971,-125,4,2,11,50,0,0
29138,-125,4,2,4,50,0,0
30305,-125,4,2,9,50,0,0
30638,-125,4,2,4,50,0,0
31638,-125,4,2,11,50,0,0
31805,-125,4,2,4,50,0,0
32971,-125,4,2,9,50,0,0
33305,-125,4,2,4,50,0,0
33971,-125,4,2,1,50,0,0
34138,-125,4,2,4,50,0,0
34305,-125,4,2,11,50,0,0
34471,-125,4,2,4,50,0,0
35638,-125,4,2,9,50,0,0
35971,-125,4,2,4,50,0,0
37971,-100,4,2,2,50,0,0
38138,-100,4,2,1,50,0,0
38305,-166.666666666667,4,2,3,45,0,0
38805,-166.666666666667,4,2,1,45,0,0
38971,-166.666666666667,4,2,9,45,0,0
39305,-166.666666666667,4,2,2,45,0,0
39638,-166.666666666667,4,2,9,45,0,0
39971,-166.666666666667,4,2,4,45,0,0
40305,-166.666666666667,4,2,9,45,0,0
40638,-166.666666666667,4,2,2,45,0,0
40971,-166.666666666667,4,2,9,45,0,0
41305,-166.666666666667,4,2,4,45,0,0
41638,-166.666666666667,4,2,9,45,0,0
41971,-166.666666666667,4,2,2,45,0,0
42138,-166.666666666667,4,2,1,45,0,0
42305,-166.666666666667,4,2,9,45,0,0
42638,-166.666666666667,4,2,2,45,0,0
42971,-166.666666666667,4,2,9,45,0,0
43305,-166.666666666667,4,2,2,45,0,0
43638,-166.666666666667,4,2,9,55,0,0
43971,-166.666666666667,4,2,4,55,0,0
44305,-166.666666666667,4,2,9,55,0,0
44638,-166.666666666667,4,2,2,55,0,0
44971,-166.666666666667,4,2,9,55,0,0
45305,-166.666666666667,4,2,4,55,0,0
45638,-166.666666666667,4,2,9,55,0,0
45971,-166.666666666667,4,2,2,55,0,0
46305,-166.666666666667,4,2,9,55,0,0
46638,-166.666666666667,4,2,4,55,0,0
46971,-166.666666666667,4,2,9,55,0,0
47305,-166.666666666667,4,2,2,55,0,0
47471,-166.666666666667,4,2,1,55,0,0
47638,-166.666666666667,4,2,9,60,0,0
47971,-166.666666666667,4,2,4,60,0,0
48305,-166.666666666667,4,2,9,60,0,0
48638,-166.666666666667,4,2,2,60,0,0
48971,-166.666666666667,4,2,1,50,0,0
49638,-166.666666666667,4,2,9,50,0,0
49971,-166.666666666667,4,2,2,50,0,0
50305,-166.666666666667,4,2,9,50,0,0
50638,-166.666666666667,4,2,4,50,0,0
50971,-166.666666666667,4,2,9,50,0,0
51305,-166.666666666667,4,2,4,50,0,0
51638,-166.666666666667,4,2,9,50,0,0
51971,-166.666666666667,4,2,4,50,0,0
52305,-166.666666666667,4,2,9,50,0,0
52638,-166.666666666667,4,2,2,50,0,0
52971,-166.666666666667,4,2,9,55,0,0
53305,-166.666666666667,4,2,2,55,0,0
53638,-100,4,2,9,55,0,0
53971,-200,4,2,2,55,0,0
54221,-200,4,2,12,5,0,0
54305,-125,4,2,1,60,0,0
55471,-125,4,2,2,60,0,0
55805,-125,4,2,1,60,0,0
56305,-125,4,2,4,60,0,0
58305,-125,4,2,10,60,0,0
58471,-125,4,2,4,60,0,0
58638,-125,4,2,1,60,0,0
59555,-125,4,2,12,5,0,0
59638,-100,4,2,2,65,0,0
62971,-100,4,3,1,70,0,0
63805,-100,4,3,1,60,0,0
64971,-83.3333333333333,4,2,3,70,0,1
65305,-83.3333333333333,4,2,4,70,0,1
74138,-66.6666666666667,4,2,4,70,0,1
74471,-83.3333333333333,4,2,4,50,0,1
74971,-66.6666666666667,4,2,4,50,0,1
75638,-83.3333333333333,4,2,4,75,0,1
83638,-66.6666666666667,4,2,4,75,0,1
84471,-66.6666666666667,4,2,1,75,0,1
86305,-100,4,2,2,50,0,0
86638,-100,4,2,2,60,0,0
87138,-100,4,2,1,60,0,0
88138,-83.3333333333333,4,2,4,60,0,0
89305,-100,4,2,2,60,0,0
89805,-100,4,2,1,60,0,0
90805,-100,4,2,4,60,0,0
91971,-100,4,2,2,60,0,0
92471,-100,4,2,1,60,0,0
93471,-83.3333333333333,4,2,4,60,0,0
93805,-100,4,2,1,60,0,0
94638,-100,4,2,2,60,0,0
95138,-100,4,2,1,60,0,0
96138,-83.3333333333333,4,2,4,60,0,0
96471,-100,4,2,0,50,0,0
96971,-100,4,2,4,55,0,0
101971,-100,4,2,1,55,0,0
102305,-100,4,2,4,60,0,0
106971,-100,4,2,1,60,0,0
107138,-100,4,2,1,50,0,0
107221,-100,4,2,1,60,0,0
107305,-100,4,2,1,70,0,0
107471,-100,4,2,1,50,0,0
107638,-83.3333333333333,4,2,2,60,0,0
110971,-100,4,2,1,65,0,0
111971,-100,4,2,1,60,0,0
112638,-100,4,2,1,50,0,0
112971,-100,4,2,1,40,0,0
113638,-100,4,2,1,30,0,0
114305,-100,4,2,1,20,0,0
114971,-100,4,2,1,10,0,0
115638,-100,4,2,12,5,0,0

[Colours]
Combo1 : 78,85,133
Combo2 : 214,190,22
Combo3 : 93,108,127
Combo4 : 196,120,36

[HitObjects]
56,101,638,6,0,L|100:95,1,44,2|2,3:0|3:0,0:0:0:0:
140,88,805,1,4,3:0:0:0:
231,194,971,6,0,B|227:263|223:318|223:318|197:330|174:345,2,176,8|8|8,0:0|0:0|0:0,0:0:0:0:
352,120,1805,2,0,P|393:115|407:71,1,88,2|0,0:0|0:0,0:0:0:0:
421,224,2138,6,0,P|393:141|410:56,1,176,12|2,0:1|0:1,0:0:0:0:
504,23,2555,1,2,0:1:0:0:
509,40,2638,2,0,P|462:48|416:40,1,88,8|0,0:0|0:0,0:0:0:0:
240,34,2971,2,0,P|286:25|412:58,1,176,2|2,0:1|0:0,0:0:0:0:
247,164,3471,5,8,0:0:0:0:
247,164,3555,1,8,0:0:0:0:
247,164,3638,2,0,P|200:172|75:140,2,176,2|12|2,0:0|0:1|0:0,0:0:0:0:
363,319,4471,2,0,P|374:279|346:247,1,88,2|2,0:1|0:0,0:0:0:0:
186,359,4805,6,0,P|268:330|355:336,1,176,12|0,0:1|0:0,0:0:0:0:
248,164,5305,2,0,P|236:204|264:236,1,88,8|0,0:0|0:0,0:0:0:0:
403,126,5638,5,8,0:3:0:0:
424,122,5805,1,2,0:3:0:0:
445,118,5971,1,2,0:3:0:0:
466,114,6138,1,4,0:3:0:0:
286,53,6305,6,0,B|201:16|201:89|117:65,2,176,2|12|2,0:0|0:1|0:1,0:0:0:0:
264,236,7138,2,0,P|236:203|247:163,1,88,2|2,0:1|0:0,0:0:0:0:
108,260,7471,6,0,B|192:296|192:223|277:248,1,176,4|0,0:1|0:0,0:0:0:0:
382,364,7971,2,0,P|302:342|291:259,1,176,8|2,0:1|0:0,0:0:0:0:
436,165,8471,1,0,0:0:0:0:
460,256,8638,2,0,P|400:257|376:224,1,88,2|8,0:0|0:0,0:0:0:0:
368,53,8971,5,2,0:0:0:0:
311,114,9138,1,0,0:0:0:0:
217,109,9305,1,8,0:0:0:0:
162,31,9471,1,0,0:0:0:0:
172,16,9638,5,2,0:0:0:0:
232,101,9805,1,0,0:0:0:0:
197,207,9971,1,2,0:0:0:0:
58,159,10138,6,0,B|65:132|83:119|83:119|107:153|107:196|90:229,1,158.399995166016,12|0,0:0|0:0,0:0:0:0:
85,239,10471,1,2,0:3:0:0:
122,337,10638,1,6,0:3:0:0:
228,329,10805,1,4,0:1:0:0:
228,329,11305,5,8,0:0:0:0:
231,346,11388,1,8,0:0:0:0:
375,363,11555,1,8,0:0:0:0:
378,344,11638,6,0,B|398:288|396:245|396:245|383:226|367:186,1,145.200004431152,12|0,0:0|0:0,0:0:0:0:
368,188,11971,2,0,P|366:246|317:220,1,96.8000029541017,8|0,0:0|3:0,0:0:0:0:
249,29,12305,6,0,B|229:85|231:128|231:128|244:147|260:187,1,145.200004431152,8|0,0:0|0:0,0:0:0:0:
258,187,12638,1,8,0:0:0:0:
202,279,12805,1,0,3:0:0:0:
39,140,12971,6,0,B|77:104|144:102|159:158|129:176,1,145.200004431152,8|0,0:0|0:0,0:0:0:0:
123,183,13305,2,0,B|99:184|92:199|92:199|83:241|116:273,1,96.8000029541017,8|0,0:0|3:0,0:0:0:0:
328,176,13638,5,8,0:0:0:0:
391,315,13805,2,0,B|415:314|422:299|422:299|431:257|398:225,2,96.8000029541017,0|8|0,3:0|0:0|3:0,0:0:0:0:
276,73,14305,6,0,B|269:118|247:143|247:143|238:193|263:220,1,158.399995166016,12|0,0:1|0:0,0:0:0:0:
278,234,14638,1,8,0:0:0:0:
391,315,14805,1,0,3:0:0:0:
367,175,14971,5,8,0:0:0:0:
302,253,15138,2,0,B|227:267|227:267|267:233,1,105.599996777344,2|4,0:3|0:3,0:0:0:0:
249,248,15471,1,8,0:1:0:0:
249,248,15805,6,0,P|220:244|226:301,1,74.8000014266968,0|0,3:0|3:0,0:0:0:0:
209,354,15971,6,0,P|225:314|201:279,1,88,12|0,0:0|0:0,0:0:0:0:
95,254,16471,5,8,0:0:0:0:
40,378,16638,1,8,0:0:0:0:
48,357,16971,6,0,B|117:353|143:353|143:353|184:323|199:300,1,140.8,4|10,0:0|0:1,0:0:0:0:
210,245,17471,1,2,0:0:0:0:
185,163,17638,1,2,0:0:0:0:
210,245,17805,2,0,P|256:255|285:219,1,70.4,2|8,0:0|0:0,0:0:0:0:
300,141,18138,6,0,P|283:226|305:300,1,140.8,2|2,0:0|0:0,0:0:0:0:
362,333,18638,2,0,P|397:334|416:299,1,70.4,8|0,0:0|0:0,0:0:0:0:
271,285,18971,2,0,P|236:286|217:251,1,70.4,2|2,0:3|0:1,0:0:0:0:
367,214,19305,2,0,P|402:215|421:180,1,70.4,8|0,0:0|0:0,0:0:0:0:
291,27,19638,6,0,P|282:112|286:192,1,140.8,4|8,0:0|0:0,0:0:0:0:
367,214,20138,1,2,0:3:0:0:
367,214,20305,1,2,0:0:0:0:
202,256,20471,2,0,P|191:216|219:184,1,70.4,2|8,0:0|0:0,0:0:0:0:
188,349,20805,6,0,P|263:322|343:327,1,140.8,2|2,0:0|0:0,0:0:0:0:
405,343,21305,1,8,0:0:0:0:
467,286,21471,1,2,0:0:0:0:
370,199,21638,2,0,P|367:235|397:264,1,70.4,2|2,0:0|0:1,0:0:0:0:
509,211,21971,2,0,P|512:175|482:146,1,70.4,8|0,0:0|0:0,0:0:0:0:
320,118,22305,6,0,B|259:92|255:144|181:127,2,140.8,4|8|2,0:0|0:0|0:0,0:0:0:0:
382,61,23138,2,0,P|410:94|399:134,1,70.4,2|8,0:0|0:0,0:0:0:0:
289,212,23471,2,0,P|337:205|451:214,1,140.8,2|2,0:0|0:0,0:0:0:0:
456,305,23971,2,0,P|439:274|449:241,1,70.4,8|0,0:0|0:0,0:0:0:0:
306,351,24305,2,0,P|315:318|345:301,1,70.4,2|2,0:3|0:1,0:0:0:0:
210,241,24638,2,0,P|240:224|273:234,1,70.4,8|0,0:0|0:0,0:0:0:0:
447,334,24971,6,0,P|380:353|348:285,1,140.8,4|8,0:0|0:0,0:0:0:0:
362,204,25471,2,0,P|374:253|346:289,1,70.4,2|2,0:0|0:3,0:0:0:0:
314,134,25805,1,0,0:0:0:0:
229,137,25971,1,8,0:0:0:0:
475,131,26138,5,4,0:0:0:0:
475,131,26471,6,0,L|421:127,1,35.2,2|0,0:0|0:0,0:0:0:0:
353,119,26638,2,0,L|299:115,1,35.2,8|0,0:0|0:0,0:0:0:0:
229,112,26805,1,4,0:0:0:0:
229,112,27138,5,2,0:0:0:0:
228,329,27305,1,8,0:0:0:0:
228,329,27471,1,2,0:0:0:0:
228,329,27638,6,0,P|185:344|171:253,1,140.8,4|8,0:0|0:0,0:0:0:0:
230,243,28138,1,2,0:0:0:0:
297,294,28305,1,2,0:3:0:0:
374,261,28471,2,0,P|373:210|339:199,1,70.4,2|8,0:0|0:0,0:0:0:0:
282,153,28805,6,0,P|375:158|427:121,1,140.8,2|2,0:0|0:0,0:0:0:0:
434,48,29305,2,0,P|412:74|421:107,1,70.4,8|0,0:0|0:0,0:0:0:0:
286,8,29638,2,0,P|289:41|318:58,1,70.4,2|2,0:0|0:1,0:0:0:0:
164,82,29971,2,0,P|190:103|223:94,1,70.4,8|0,0:0|0:0,0:0:0:0:
82,13,30305,6,0,P|69:85|65:175,1,140.8,4|8,0:0|0:0,0:0:0:0:
78,235,30805,1,2,0:0:0:0:
157,263,30971,1,2,0:3:0:0:
234,228,31138,6,0,P|210:187|187:195,1,70.4,2|8,0:0|0:0,0:0:0:0:
320,259,31471,2,0,P|367:258|372:234,1,70.4,2|0,0:0|0:0,0:0:0:0:
252,314,31805,2,0,P|228:355|246:371,1,70.4,2|8,0:0|0:0,0:0:0:0:
328,365,32138,1,2,0:0:0:0:
458,243,32305,2,0,P|462:200|454:149,1,70.4,2|2,0:0|0:1,0:0:0:0:
388,45,32638,2,0,P|385:80|389:114,1,70.4,8|0,0:0|0:0,0:0:0:0:
245,222,32971,6,0,P|319:182|340:237,1,140.8,4|8,0:0|0:0,0:0:0:0:
301,290,33471,1,2,0:0:0:0:
230,336,33638,1,2,0:0:0:0:
152,301,33805,2,0,P|105:298|78:319,1,70.4,2|8,0:0|0:1,0:0:0:0:
230,336,34138,6,0,P|218:249|185:181,1,140.8,2|2,0:0|0:0,0:0:0:0:
276,167,34638,2,0,P|229:164|202:185,1,70.4,8|0,0:0|0:0,0:0:0:0:
383,135,34971,2,0,P|351:99|317:95,1,70.4,2|2,0:0|0:1,0:0:0:0:
485,184,35305,2,0,P|487:137|466:110,1,70.4,8|0,0:0|0:0,0:0:0:0:
355,16,35638,6,0,B|277:1|294:57|186:23,1,140.8,4|8,0:0|0:0,0:0:0:0:
198,129,36138,2,0,P|219:86|203:61,1,70.4,2|2,0:0|0:3,0:0:0:0:
139,6,36471,1,0,0:0:0:0:
74,63,36638,1,8,0:0:0:0:
109,143,36805,5,12,0:0:0:0:
109,143,37138,1,0,0:0:0:0:
79,274,37305,1,8,0:0:0:0:
41,198,37471,5,12,0:0:0:0:
41,198,37805,1,2,0:0:0:0:
303,276,37971,1,8,0:0:0:0:
303,276,38138,1,2,3:0:0:0:
302,275,38305,6,0,P|271:237|224:255,1,105.599996777344,4|0,0:0|0:0,0:0:0:0:
146,234,38805,1,2,0:0:0:0:
146,234,38971,2,0,P|177:272|224:254,1,105.599996777344,6|8,0:0|0:0,0:0:0:0:
223,254,39638,6,0,P|192:216|145:234,1,105.599996777344,6|0,0:0|0:0,0:0:0:0:
83,313,40138,1,2,0:0:0:0:
83,313,40305,2,0,L|77:377,2,52.7999983886719,6|2|8,0:0|0:0|0:0,0:0:0:0:
83,312,40971,6,0,P|121:280|113:230,1,105.599996777344,6|0,0:0|0:0,0:0:0:0:
57,162,41471,1,2,0:0:0:0:
57,162,41638,2,0,P|65:211|113:230,1,105.599996777344,6|8,0:0|0:0,0:0:0:0:
200,217,42138,1,2,0:0:0:0:
200,217,42305,2,0,P|153:199|113:231,1,105.599996777344,6|8,0:0|0:0,0:0:0:0:
113,230,42805,1,2,0:0:0:0:
178,302,42971,5,6,0:0:0:0:
270,257,43138,1,2,0:0:0:0:
384,330,43305,1,8,0:0:0:0:
384,330,43471,1,0,0:0:0:0:
402,231,43638,6,0,B|400:254|381:276|381:276|370:307|383:329,1,105.599996777344,6|0,0:0|0:0,0:0:0:0:
383,329,44138,1,2,0:0:0:0:
481,256,44305,2,0,B|494:233|483:202|483:202|464:180|462:157,1,105.599996777344,6|8,0:0|0:0,0:0:0:0:
462,158,44971,6,0,P|425:189|383:163,1,105.599996777344,6|0,0:0|0:0,0:0:0:0:
405,43,45471,1,2,0:0:0:0:
404,42,45638,2,0,P|415:65|412:91,1,52.7999983886719,6|2,0:0|0:0,0:0:0:0:
308,153,45971,1,8,0:0:0:0:
308,153,46138,1,2,0:0:0:0:
215,137,46305,6,0,B|243:135|270:123|270:123|297:131|308:153,1,105.599996777344,6|0,0:0|0:0,0:0:0:0:
307,152,46805,1,2,0:0:0:0:
181,207,46971,2,0,B|156:203|132:204|132:204|115:196|90:179,1,79.1999975830079,4|0,0:0|0:0,0:0:0:0:
62,185,47305,1,8,0:0:0:0:
62,185,47471,1,0,3:0:0:0:
92,58,47638,6,0,B|117:54|141:55|141:55|158:47|183:30,1,79.1999975830079,4|0,0:0|0:0,0:0:0:0:
211,36,47972,1,8,0:0:0:0:
211,36,48138,1,2,0:0:0:0:
326,77,48305,2,0,P|356:74|376:51,1,52.7999983886719,4|2,0:0|0:0,0:0:0:0:
211,36,48638,2,0,L|202:91,1,52.7999983886719,8|0,0:0|0:0,0:0:0:0:
318,174,48971,6,0,P|271:156|240:194,1,105.599996777344,6|0,0:0|0:0,0:0:0:0:
163,216,49471,1,2,0:0:0:0:
163,216,49637,2,0,P|209:233|240:195,1,105.599996777344,6|8,0:0|0:0,0:0:0:0:
240,195,50304,6,0,P|193:177|162:215,1,105.599996777344,6|0,0:0|0:0,0:0:0:0:
212,300,50804,1,2,0:0:0:0:
212,300,50971,2,0,L|206:364,2,52.7999983886719,6|2|8,0:0|0:0|0:0,0:0:0:0:
319,227,51637,6,0,P|366:213|395:253,1,105.599996777344,6|0,0:0|0:0,0:0:0:0:
410,333,52137,1,2,0:0:0:0:
410,333,52305,2,0,P|374:298|395:253,1,105.599996777344,6|8,0:0|0:0,0:0:0:0:
457,201,52805,1,2,0:0:0:0:
457,201,52971,2,0,P|444:249|395:253,1,105.599996777344,6|8,0:0|0:0,0:0:0:0:
394,252,53471,1,2,0:0:0:0:
369,170,53637,5,6,0:0:0:0:
426,95,53804,1,2,0:0:0:0:
361,4,53971,2,0,P|361:38|332:41,1,66,8|0,0:0|0:0,0:0:0:0:
316,27,54305,6,0,P|240:37|259:111,1,140.8,6|8,0:0|0:0,0:0:0:0:
286,158,54805,1,2,0:0:0:0:
252,265,54971,1,2,0:0:0:0:
158,201,55138,1,2,0:0:0:0:
286,158,55305,1,8,0:0:0:0:
158,201,55471,6,0,B|93:181|95:238|2:203,1,140.8,12|2,0:1|0:0,0:0:0:0:
58,82,55971,2,0,P|65:122|35:134,1,70.4,8|0,0:0|0:0,0:0:0:0:
203,76,56305,2,0,P|179:109|149:96,1,70.4,2|2,0:1|0:0,0:0:0:0:
296,186,56638,2,0,P|256:193|244:163,1,70.4,8|2,0:0|0:0,0:0:0:0:
299,97,56971,5,6,0:0:0:0:
384,154,57138,1,8,0:0:0:0:
389,60,57305,1,0,0:0:0:0:
295,187,57471,2,0,P|285:275|300:342,1,140.8,2|2,0:0|0:0,0:0:0:0:
371,289,57971,1,8,0:0:0:0:
122,266,58138,6,0,P|197:282|182:342,1,140.8,4|2,0:3|0:0,0:0:0:0:
102,346,58638,1,8,0:0:0:0:
51,226,58805,2,0,P|37:278|73:287,1,70.4,0|8,3:0|0:0,0:0:0:0:
111,122,59138,2,0,P|125:174|89:183,2,70.4,0|8|0,3:0|0:0|0:0,0:0:0:0:
391,171,59638,6,0,B|306:131|305:210|198:153,1,176,8|8,0:0|0:0,0:0:0:0:
261,90,60138,1,0,3:0:0:0:
346,245,60305,1,8,0:0:0:0:
420,94,60471,1,0,3:0:0:0:
346,245,60638,1,8,0:0:0:0:
485,283,60805,6,0,P|491:240|439:205,1,88,0|8,3:0|0:0,0:0:0:0:
370,378,61138,2,0,P|404:351|392:290,1,88,0|8,3:0|0:0,0:0:0:0:
220,348,61471,1,0,3:0:0:0:
220,348,61638,2,0,P|263:354|298:302,1,88,8|0,0:0|3:0,0:0:0:0:
346,245,61971,1,8,0:0:0:0:
111,184,62138,5,0,3:0:0:0:
111,184,62221,1,0,3:0:0:0:
111,184,62305,2,0,P|178:181|184:227,1,88,12|0,0:1|0:1,0:0:0:0:
142,261,62638,1,12,0:0:0:0:
142,261,62805,1,0,3:0:0:0:
31,223,62971,1,8,3:0:0:0:
35,110,63138,1,2,0:0:0:0:
142,68,63305,1,2,0:0:0:0:
196,341,63471,1,4,0:0:0:0:
196,341,63805,5,0,0:0:0:0:
246,269,63971,1,8,0:0:0:0:
255,258,64305,1,8,0:0:0:0:
265,248,64471,2,0,L|290:212,1,44,0|0,0:0|0:0,0:0:0:0:
355,56,64638,6,0,P|382:97|316:153,1,132,12|0,2:0|0:0,0:0:0:0:
272,92,64971,6,0,B|201:69|196:130|117:96,1,158.399995166016,6|0,0:3|0:0,0:0:0:0:
51,70,65305,2,0,P|71:128|38:148,1,105.599996777344,8|2,0:0|0:0,0:0:0:0:
162,321,65638,1,2,0:0:0:0:
232,230,65805,2,0,P|189:204|154:238,1,105.599996777344,2|8,0:0|0:0,0:0:0:0:
319,359,66138,5,2,0:0:0:0:
361,272,66305,1,0,0:0:0:0:
492,342,66472,2,0,P|456:376|414:350,1,105.599996777344,2|8,0:0|0:0,0:0:0:0:
356,190,66805,6,0,B|377:173|412:180|412:180|446:217|440:272,1,158.399995166016,2|0,0:0|0:0,0:0:0:0:
414,350,67138,2,0,B|390:352|390:352|363:334|329:333|329:333|359:364,1,105.599996777344,2|8,0:0|0:0,0:0:0:0:
340,345,67471,1,0,0:0:0:0:
440,272,67638,6,0,B|437:247|447:228|447:228|450:202|432:184|432:184|422:152|433:118,1,158.399995166016,2|0,0:0|0:0,0:0:0:0:
475,42,67971,2,0,P|443:78|402:53,1,105.599996777344,8|0,0:0|0:0,0:0:0:0:
266,16,68305,1,2,0:0:0:0:
272,147,68471,2,0,P|318:161|339:117,1,105.599996777344,2|8,0:0|0:0,0:0:0:0:
208,252,68805,6,0,P|232:178|208:98,1,158.399995166016,4|0,0:0|0:0,0:0:0:0:
153,49,69138,2,0,P|103:88|68:55,1,105.599996777344,0|8,0:0|0:0,0:0:0:0:
74,70,69471,1,2,0:0:0:0:
13,159,69638,5,2,0:0:0:0:
94,169,69805,1,2,0:0:0:0:
157,226,69971,1,2,0:0:0:0:
163,325,70138,1,2,0:0:0:0:
11,341,70305,6,0,B|42:320|79:331|79:331|102:321|102:321|133:334|164:325,1,158.399995166016,2|0,0:0|0:0,0:0:0:0:
241,338,70638,2,0,P|211:305|241:255,1,105.599996777344,8|0,0:0|0:0,0:0:0:0:
414,205,70971,5,2,0:0:0:0:
333,195,71138,1,2,0:0:0:0:
270,138,71304,1,8,0:0:0:0:
264,39,71471,1,2,0:0:0:0:
415,45,71638,6,0,B|371:51|331:27|331:27|285:17|262:40,1,158.399995166016
209,93,71971,2,0,B|185:83|162:91|162:91|130:90|112:51,1,105.599996777344,8|0,0:0|0:0,0:0:0:0:
15,174,72305,6,0,B|35:152|81:162|81:162|120:188|165:180,1,158.399995166016,2|0,0:0|0:0,0:0:0:0:
236,217,72638,2,0,B|242:242|230:263|230:263|226:295|261:319,1,105.599996777344,8|0,0:0|0:0,0:0:0:0:
455,341,72971,6,0,P|412:251|313:262,1,211.199993554688,2|10,0:0|0:1,0:0:0:0:
191,364,73471,1,2,0:0:0:0:
65,279,73638,2,0,P|117:260|140:328,1,105.599996777344,2|2,0:0|0:0,0:0:0:0:
13,363,73971,1,8,0:0:0:0:
3,205,74138,6,0,P|45:165|77:214,1,198.000007553101,6|0,0:0|0:0,0:0:0:0:
95,353,74471,1,2,0:0:0:0:
189,301,74638,1,8,0:0:0:0:
289,353,74805,1,2,0:0:0:0:
469,308,74971,6,0,B|448:269|400:274|400:274|384:291|355:294,1,132,8|2,0:0|0:0,0:0:0:0:
274,269,75305,2,0,P|323:304|289:353,1,132,8|0,0:0|0:0,0:0:0:0:
188,315,75638,6,0,B|165:273|180:233|180:233|213:192|206:148,1,158.399995166016,2|0,0:0|0:0,0:0:0:0:
257,103,75972,2,0,P|199:123|179:90,1,105.599996777344,12|2,0:0|0:0,0:0:0:0:
168,10,76305,1,2,0:0:0:0:
40,18,76472,2,0,P|51:65|100:67,1,105.599996777344,0|8,0:0|0:0,0:0:0:0:
168,10,76805,5,2,0:0:0:0:
179,94,76972,1,0,0:0:0:0:
109,158,77139,2,0,P|73:192|31:166,1,105.599996777344,2|8,0:0|0:0,0:0:0:0:
179,94,77471,6,0,B|200:77|235:84|235:84|231:149|285:207,1,158.399995166016,0|0,0:0|0:0,0:0:0:0:
342,193,77805,2,0,B|345:158|332:137|332:137|349:139|356:187,1,105.599996777344,2|8,0:0|0:0,0:0:0:0:
392,259,78138,1,0,0:0:0:0:
266,344,78305,6,0,P|307:371|340:335,1,105.599996777344,2|0,0:0|0:0,0:0:0:0:
146,244,78638,2,0,P|179:280|220:254,1,105.599996777344,8|2,0:0|0:0,0:0:0:0:
206,106,78971,1,0,0:0:0:0:
275,173,79138,2,0,P|321:187|342:143,1,105.599996777344,2|8,0:0|0:0,0:0:0:0:
220,253,79471,6,0,P|236:183|193:93,1,158.399995166016,2|0,0:0|0:0,0:0:0:0:
187,29,79805,2,0,P|237:68|272:35,1,105.599996777344,2|8,0:0|0:0,0:0:0:0:
336,7,80138,1,0,0:0:0:0:
275,173,80305,5,2,0:0:0:0:
356,183,80472,1,2,0:0:0:0:
419,240,80638,1,8,0:0:0:0:
425,339,80805,1,0,0:0:0:0:
342,366,80971,6,0,P|293:311|361:292,1,158.399995166016,2|0,0:0|0:0,0:0:0:0:
411,331,81305,2,0,B|433:331|447:324|447:324|467:334|467:334|488:328|532:324,1,105.599996777344,8|2,0:0|0:0,0:0:0:0:
414,205,81638,5,0,0:0:0:0:
333,195,81805,1,2,0:0:0:0:
270,138,81971,1,8,0:0:0:0:
264,39,82138,1,2,0:0:0:0:
414,32,82305,6,0,B|367:35|338:23|338:23|306:44|306:44|262:38,1,158.399995166016,0|0,0:0|0:0,0:0:0:0:
209,93,82638,2,0,B|185:83|158:90|158:90|149:64|112:51,1,105.599996777344,8|0,0:0|0:0,0:0:0:0:
73,123,82971,6,0,P|95:185|185:165,1,158.399995166016,2|0,0:0|0:0,0:0:0:0:
265,164,83305,2,0,B|266:197|247:221|247:221|282:223|302:194,1,105.599996777344,8|0,0:0|0:0,0:0:0:0:
65,296,83638,6,0,B|109:285|135:288|135:288|171:314|171:314|208:291|267:307,1,198.000007553101,12|0,0:0|0:0,0:0:0:0:
337,326,83971,1,2,0:0:0:0:
221,384,84138,1,10,0:0:0:0:
368,212,84305,1,4,0:3:0:0:
348,304,84471,1,2,0:3:0:0:
421,368,84638,1,4,0:3:0:0:
382,188,84805,6,0,B|365:62|365:62|351:156,1,198.000007553101,8|0,0:0|0:0,0:0:0:0:
354,132,85138,2,0,L|262:141,1,66.0000025177003,2|0,0:0|0:0,0:0:0:0:
209,148,85305,2,0,L|116:156,1,66.0000025177003,2|0,0:0|0:0,0:0:0:0:
55,167,85471,1,8,0:0:0:0:
123,367,85638,5,8,0:3:0:0:
132,349,85721,1,8,0:3:0:0:
138,330,85804,1,8,0:3:0:0:
140,310,85887,1,8,0:3:0:0:
138,291,85971,1,8,0:3:0:0:
134,272,86054,1,8,0:3:0:0:
125,254,86137,1,8,0:3:0:0:
113,241,86221,1,8,0:3:0:0:
81,250,86305,5,2,0:0:0:0:
81,250,86638,2,0,P|145:237|148:161,1,132,8|8,0:0|0:0,0:0:0:0:
137,140,86971,2,0,B|106:134|80:143|80:143|63:129|45:122,2,88,8|2|4,0:0|3:0|3:0,0:0:0:0:
243,234,87471,6,0,B|294:264|346:233|346:233|327:228|316:220,1,132,6|0,0:0|0:0,0:0:0:0:
295,190,87805,2,0,P|290:141|311:101,1,88,0|8,0:0|0:0,0:0:0:0:
473,45,88138,6,0,B|438:76|400:59|400:59|387:35,1,105.599996777344,4|2,0:3|0:0,0:0:0:0:
227,69,88471,1,2,0:0:0:0:
306,107,88638,1,8,0:0:0:0:
311,84,88721,1,8,0:0:0:0:
311,63,88804,1,8,0:0:0:0:
306,41,88887,1,8,0:0:0:0:
299,27,88971,5,2,0:3:0:0:
299,27,89305,2,0,P|254:71|196:48,1,132,8|8,0:0|0:0,0:0:0:0:
155,30,89638,2,0,B|128:21|98:33|98:33|86:21|73:17,2,88,8|2|4,0:0|3:0|3:0,0:0:0:0:
137,212,90138,6,0,B|178:188|167:133|167:133|147:121|135:101,1,132,6|0,0:0|0:0,0:0:0:0:
137,105,90471,1,2,0:0:0:0:
211,256,90638,1,8,0:0:0:0:
366,188,90805,2,0,B|342:229|287:218|287:218|275:198|255:186,1,132,4|0,0:3|0:0,0:0:0:0:
259,188,91138,1,2,0:0:0:0:
437,237,91305,1,8,0:0:0:0:
445,217,91388,1,8,0:0:0:0:
450,196,91471,1,8,0:0:0:0:
449,174,91554,1,8,0:0:0:0:
449,156,91638,5,2,0:3:0:0:
449,156,91972,2,0,P|383:126|406:49,1,132,8|8,0:0|0:0,0:0:0:0:
416,45,92305,2,0,B|432:42|454:52|454:52|481:55|503:32,2,88,8|2|4,0:0|3:0|3:0,0:0:0:0:
241,64,92805,6,0,B|205:66|180:64|166:48|166:48|188:46|199:59|205:77,1,132,6|0,0:0|0:0,0:0:0:0:
224,116,93138,2,0,P|237:168|218:205,1,88,2|10,0:0|0:0,0:0:0:0:
100,277,93471,6,0,B|63:266|24:265|8:287|8:287|29:290|44:282|55:249,1,158.399995166016,4|0,0:3|0:0,0:0:0:0:
68,213,93805,1,2,0:3:0:0:
109,66,93971,1,8,0:0:0:0:
123,82,94054,1,8,0:0:0:0:
132,103,94137,1,8,0:0:0:0:
132,125,94220,1,8,0:0:0:0:
129,145,94305,5,10,0:1:0:0:
129,145,94638,2,0,P|86:97|99:35,1,132,8|8,0:0|0:0,0:0:0:0:
143,40,94971,2,0,B|163:41|176:49|176:49|200:54|229:40,2,88,8|2|4,0:0|3:0|3:0,0:0:0:0:
5,144,95471,6,0,B|34:118|80:128|80:128|100:142|128:144,1,132,6|0,0:0|0:0,0:0:0:0:
171,131,95805,1,2,3:0:0:0:
240,218,95971,1,0,3:0:0:0:
330,107,96138,6,0,P|281:96|253:137,1,105.599996777344,4|8,0:3|0:0,0:0:0:0:
356,195,96471,1,8,0:0:0:0:
384,199,96554,1,8,0:0:0:0:
410,213,96637,1,8,0:0:0:0:
428,236,96720,1,8,0:0:0:0:
437,264,96804,1,8,0:0:0:0:
435,293,96887,1,8,0:0:0:0:
422,319,96971,6,0,L|256:304,1,132,6|0,0:0|0:0,0:0:0:0:
233,252,97305,2,0,P|232:315|190:333,1,88,8|0,0:0|0:0,0:0:0:0:
146,220,97638,1,2,0:0:0:0:
76,326,97805,2,0,P|50:292|59:250,1,88,0|8,0:0|0:0,0:0:0:0:
168,141,98138,6,0,B|129:134|114:142|114:142|96:139|60:117,1,88,2|0,0:0|0:0,0:0:0:0:
189,61,98471,2,0,P|234:85|254:134,1,88,2|8,0:0|0:0,0:0:0:0:
168,141,98805,1,0,0:0:0:0:
302,197,98971,2,0,P|324:160|374:164,1,88,2|0,0:0|0:0,0:0:0:0:
443,283,99305,1,8,0:0:0:0:
443,283,99471,2,0,P|400:281|378:245,1,88,0|2,0:0|0:0,0:0:0:0:
378,245,99971,6,0,B|370:271|381:286|381:286|392:302|371:349,1,88,8|2,0:0|0:0,0:0:0:0:
444,196,100305,1,2,0:0:0:0:
445,108,100471,1,0,0:0:0:0:
371,59,100638,1,8,0:0:0:0:
290,95,100805,6,0,B|263:110|245:106|228:88|228:88|250:89|266:103,1,88,2|0,0:0|0:0,0:0:0:0:
320,177,101138,1,2,0:0:0:0:
273,252,101305,1,8,0:0:0:0:
325,321,101471,2,0,B|352:336|370:332|387:314|387:314|365:315|349:329,1,88,0|2,0:0|0:0,0:0:0:0:
238,359,101805,2,0,P|191:352|182:302,1,88,2|8,0:0|0:3,0:0:0:0:
273,252,102138,1,0,3:0:0:0:
48,202,102305,6,0,B|108:177|106:239|209:188,1,132,6|0,0:0|0:0,0:0:0:0:
231,154,102638,1,8,0:0:0:0:
234,159,102805,2,0,P|170:147|162:116,1,88,2|2,0:0|0:0,0:0:0:0:
234,72,103138,1,2,0:0:0:0:
309,117,103305,1,8,0:0:0:0:
430,22,103471,6,0,P|387:16|359:48,1,88,2|0,0:0|0:0,0:0:0:0:
357,193,103805,2,0,P|385:224|427:219,1,88,2|8,0:0|0:0,0:0:0:0:
413,121,104138,1,0,0:0:0:0:
265,190,104305,2,0,P|262:232|296:258,2,88,2|2|8,0:0|0:0|0:0,0:0:0:0:
309,117,104805,1,0,0:0:0:0:
168,209,104971,6,0,B|153:194|135:197|135:197|101:209|59:194,1,88,2|0,0:0|0:0,0:0:0:0:
93,44,105305,2,0,P|111:89|69:130,1,88,8|0,0:0|0:0,0:0:0:0:
13,154,105638,1,8,0:0:0:0:
11,242,105805,1,0,0:0:0:0:
87,284,105971,1,8,0:0:0:0:
168,209,106138,6,0,B|183:194|201:197|201:197|235:209|277:194,1,88,10|0,0:1|0:0,0:0:0:0:
341,104,106471,2,0,B|326:89|308:92|308:92|274:104|232:89,1,88,2|12,0:0|0:3,0:0:0:0:
383,21,106805,1,0,0:0:0:0:
201,36,106971,5,0,0:0:0:0:
361,196,107221,5,8,0:0:0:0:
361,196,107305,1,8,0:0:0:0:
341,104,107471,1,0,3:0:0:0:
421,304,107638,6,0,B|338:271|351:336|251:290,1,158.399995166016,12|0,0:1|0:0,0:0:0:0:
226,272,107971,1,8,0:0:0:0:
226,272,108138,1,0,3:0:0:0:
295,113,108305,2,0,P|331:148|314:196,1,105.599996777344,8|0,0:0|3:0,0:0:0:0:
205,98,108638,1,8,0:0:0:0:
72,194,108805,6,0,P|110:213|160:164,2,105.599996777344,0|8|0,3:0|0:0|3:0,0:0:0:0:
0,44,109305,2,0,P|94:25|104:120,1,211.199993554688,8|8,0:0|0:0,0:0:0:0:
0,249,109805,5,0,3:0:0:0:
72,194,109971,1,8,0:0:0:0:
178,261,110138,1,0,3:0:0:0:
316,187,110305,6,0,P|289:118|216:127,1,158.399995166016,12|0,0:3|0:0,0:0:0:0:
186,171,110638,1,8,0:0:0:0:
186,171,110805,1,0,3:0:0:0:
270,270,110971,5,8,0:0:0:0:
316,187,111138,1,8,0:0:0:0:
423,172,111305,1,2,3:0:0:0:
508,253,111471,1,4,0:1:0:0:
508,253,111804,5,0,3:0:0:0:
406,31,111971,1,12,0:0:0:0:
256,192,112055,12,0,115555,0:0:0:0:
