osu file format v14

[General]
AudioFilename: audio.mp3
AudioLeadIn: 0
PreviewTime: 228357
Countdown: 0
SampleSet: Soft
StackLeniency: 0.2
Mode: 0
LetterboxInBreaks: 0
EpilepsyWarning: 1
WidescreenStoryboard: 1

[Editor]
Bookmarks: 13357,24024,45357,50690,72024,88024,93357,98690,107857,109357,119940,141357,162690,178690,181190,202690,218690,224024,229357,238524,240024,249190,250690,259857,261357,272024,282690,293357,302524,302857,306524
DistanceSpacing: 2.6
BeatDivisor: 4
GridSize: 32
TimelineZoom: 3.699998

[Metadata]
Title:Sunglow
TitleUnicode:Sunglow
Artist:Yamajet feat. Hiura Masako
ArtistUnicode:Yamajet feat. ひうらまさこ
Creator:_xyliac
Version:Eternal
Source:crossbeats REV. SUNRISE
Tags:happy high carolie しあわせハイカロリー crossxbeats capcom TyrantsEye2014 Loli Is Real
BeatmapID:1578946
BeatmapSetID:749631

[Difficulty]
HPDrainRate:6
CircleSize:4.5
OverallDifficulty:9
ApproachRate:9.3
SliderMultiplier:1.8
SliderTickRate:1

[Events]
//Background and Video events
0,0,"gg.jpg",0,0
//Break Periods
//Storyboard Layer 0 (Background)
//Storyboard Layer 1 (Fail)
//Storyboard Layer 2 (Pass)
//Storyboard Layer 3 (Foreground)
//Storyboard Sound Samples

[TimingPoints]
2353,333.333333333333,4,2,0,40,1,0
2353,-111.111111111111,4,2,0,40,0,0
2602,-111.111111111111,4,2,0,20,0,0
2691,333.333333333333,4,2,0,40,1,0
2691,-111.111111111111,4,2,0,40,0,0
3024,-111.111111111111,4,2,0,30,0,0
3774,-111.111111111111,4,2,0,15,0,0
3857,-111.111111111111,4,2,0,30,0,0
6440,-111.111111111111,4,2,0,15,0,0
6524,-111.111111111111,4,2,0,30,0,0
9107,-111.111111111111,4,2,0,15,0,0
9190,-111.111111111111,4,2,0,30,0,0
11774,-111.111111111111,4,2,0,15,0,0
11857,-111.111111111111,4,2,0,30,0,0
13357,-90.9090909090909,4,2,0,40,0,0
13607,-90.9090909090909,4,2,0,20,0,0
13690,-90.9090909090909,4,2,0,40,0,0
14440,-90.9090909090909,4,2,0,20,0,0
14524,-90.9090909090909,4,2,0,40,0,0
16274,-90.9090909090909,4,2,0,20,0,0
16357,-90.9090909090909,4,2,0,40,0,0
17107,-90.9090909090909,4,2,0,20,0,0
17190,-90.9090909090909,4,2,0,40,0,0
18024,-90.9090909090909,4,2,0,50,0,0
18190,-90.9090909090909,4,2,0,40,0,0
18357,-90.9090909090909,4,2,0,30,0,0
18524,-90.9090909090909,4,2,0,20,0,0
18690,-90.9090909090909,4,2,0,40,0,0
18940,-90.9090909090909,4,2,0,20,0,0
19024,-90.9090909090909,4,2,0,40,0,0
19774,-90.9090909090909,4,2,0,20,0,0
19857,-90.9090909090909,4,2,0,40,0,0
24024,-76.9230769230769,4,2,1,50,0,0
24274,-76.9230769230769,4,2,1,25,0,0
24357,-76.9230769230769,4,2,1,50,0,0
25524,-71.4285714285714,4,2,1,55,0,0
25857,-66.6666666666667,4,2,1,60,0,0
26190,-76.9230769230769,4,2,1,50,0,0
26940,-76.9230769230769,4,2,1,25,0,0
27024,-76.9230769230769,4,2,1,50,0,0
29607,-76.9230769230769,4,2,1,25,0,0
29690,-76.9230769230769,4,2,1,50,0,0
30857,-71.4285714285714,4,2,1,55,0,0
31190,-76.9230769230769,4,2,1,50,0,0
32274,-76.9230769230769,4,2,1,25,0,0
32357,-76.9230769230769,4,2,1,50,0,0
34940,-76.9230769230769,4,2,1,25,0,0
35024,-76.9230769230769,4,2,1,50,0,0
36190,-71.4285714285714,4,2,1,55,0,0
36524,-66.6666666666667,4,2,1,60,0,0
36857,-76.9230769230769,4,2,1,50,0,0
37607,-76.9230769230769,4,2,1,25,0,0
37690,-76.9230769230769,4,2,1,50,0,0
40274,-76.9230769230769,4,2,1,25,0,0
40357,-76.9230769230769,4,2,1,50,0,0
41524,-71.4285714285714,4,2,1,55,0,0
42190,-76.9230769230769,4,2,1,50,0,0
42940,-76.9230769230769,4,2,1,25,0,0
43024,-76.9230769230769,4,2,1,50,0,0
45274,-76.9230769230769,4,2,1,5,0,0
45357,-66.6666666666667,4,2,1,70,0,1
45688,-66.6666666666667,4,2,1,75,0,1
46024,-66.6666666666667,4,2,1,80,0,1
46357,-66.6666666666667,4,2,1,85,0,1
46690,-66.6666666666667,4,2,1,70,0,1
47024,-66.6666666666667,4,2,1,80,0,1
47357,-66.6666666666667,4,2,1,90,0,1
47607,-66.6666666666667,4,2,1,45,0,1
47690,-66.6666666666667,4,2,1,100,0,1
48024,-66.6666666666667,4,2,1,70,0,1
48357,-66.6666666666667,4,2,1,80,0,1
48690,-66.6666666666667,4,2,1,90,0,1
49024,-66.6666666666667,4,2,1,100,0,1
49190,-66.6666666666667,4,2,1,70,0,0
49524,-66.6666666666667,4,2,1,30,0,0
49690,-142.857142857143,4,2,1,30,0,0
50024,-142.857142857143,4,2,1,30,0,0
50107,-142.857142857143,4,2,1,5,0,0
50190,-90.9090909090909,4,2,1,40,0,0
50274,-90.9090909090909,4,2,1,40,0,0
50357,-200,4,2,1,40,0,0
50440,-200,4,2,1,40,0,0
50607,-200,4,2,1,5,0,0
50690,-90.9090909090909,4,2,1,40,0,0
51524,-200,4,2,1,40,0,0
51857,-90.9090909090909,4,2,1,40,0,0
60107,-90.9090909090909,4,2,1,20,0,0
60190,-90.9090909090909,4,2,1,40,0,0
60774,-90.9090909090909,4,2,1,20,0,0
60857,-90.9090909090909,4,2,1,40,0,0
61024,-200,4,2,1,40,0,0
61357,-90.9090909090909,4,2,1,40,0,0
62524,-90.9090909090909,4,2,1,40,0,0
70774,-90.9090909090909,4,2,1,20,0,0
70857,-90.9090909090909,4,2,1,40,0,0
71440,-90.9090909090909,4,2,1,20,0,0
71524,-90.9090909090909,4,2,1,40,0,0
72024,-142.857142857143,4,2,1,30,0,0
72940,-142.857142857143,4,2,1,15,0,0
73024,-142.857142857143,4,2,1,30,0,0
74190,-142.857142857143,4,2,1,35,0,0
74357,-142.857142857143,4,2,1,40,0,0
74524,-142.857142857143,4,2,1,30,0,0
75607,-142.857142857143,4,2,1,15,0,0
75690,-142.857142857143,4,2,1,30,0,0
76857,-142.857142857143,4,2,1,35,0,0
77024,-142.857142857143,4,2,1,40,0,0
77190,-142.857142857143,4,2,1,45,0,0
77357,-142.857142857143,4,2,1,50,0,0
77690,-142.857142857143,4,2,1,30,0,0
78274,-142.857142857143,4,2,1,15,0,0
78357,-142.857142857143,4,2,1,30,0,0
80940,-142.857142857143,4,2,1,15,0,0
81024,-142.857142857143,4,2,1,30,0,0
81524,-142.857142857143,4,2,1,35,0,0
81690,-142.857142857143,4,2,1,40,0,0
81857,-142.857142857143,4,2,1,30,0,0
83607,-142.857142857143,4,2,1,15,0,0
83690,-142.857142857143,4,2,1,30,0,0
84857,-142.857142857143,4,2,1,35,0,0
85024,-142.857142857143,4,2,1,40,0,0
85190,-142.857142857143,4,2,1,30,0,0
86274,-142.857142857143,4,2,1,15,0,0
86357,-142.857142857143,4,2,1,30,0,0
86857,-142.857142857143,4,2,1,35,0,0
87024,-142.857142857143,4,2,1,40,0,0
87190,-142.857142857143,4,2,1,30,0,0
87524,-142.857142857143,4,2,1,35,0,0
87690,-200,4,2,1,40,0,0
87940,-200,4,2,1,20,0,0
88024,-76.9230769230769,4,2,1,50,0,0
93357,-76.9230769230769,4,2,1,70,0,1
93690,-76.9230769230769,4,2,1,75,0,1
94024,-76.9230769230769,4,2,1,80,0,1
94357,-76.9230769230769,4,2,1,85,0,1
94690,-76.9230769230769,4,2,1,70,0,1
95024,-76.9230769230769,4,2,1,75,0,1
95357,-76.9230769230769,4,2,1,80,0,1
95690,-76.9230769230769,4,2,1,85,0,1
96024,-76.9230769230769,4,2,1,70,0,1
96357,-76.9230769230769,4,2,1,75,0,1
96524,-76.9230769230769,4,2,1,80,0,1
96690,-76.9230769230769,4,2,1,85,0,1
96857,-76.9230769230769,4,2,1,70,0,1
97024,-76.9230769230769,4,2,1,80,0,1
97190,-76.9230769230769,4,2,1,90,0,0
97524,-66.6666666666667,4,2,1,30,0,0
97690,-142.857142857143,4,2,1,40,0,0
97940,-142.857142857143,4,2,1,5,0,0
98024,-111.111111111111,4,2,1,40,0,0
98107,-111.111111111111,4,2,1,5,0,0
98190,-111.111111111111,4,2,1,40,0,0
98357,-90.909090909091,4,2,1,40,0,0
98607,-90.909090909091,4,2,1,5,0,0
98690,-76.9230769230769,4,2,1,50,0,1
98940,-76.9230769230769,4,2,1,25,0,1
99024,-76.9230769230769,4,2,1,50,0,1
101607,-76.9230769230769,4,2,1,25,0,1
101690,-76.9230769230769,4,2,1,50,0,1
104274,-76.9230769230769,4,2,1,25,0,1
104357,-66.6666666666667,4,2,1,50,0,1
104690,-76.9230769230769,4,2,1,50,0,1
107857,-76.9230769230769,4,2,1,50,0,0
108190,-76.9230769230769,4,2,1,25,0,0
108357,-111.111111111111,4,2,1,40,0,0
108690,-76.9230769230769,4,2,1,40,0,0
108940,-76.9230769230769,4,2,1,5,0,0
109024,-66.6666666666667,4,2,1,50,0,0
109274,-66.6666666666667,4,2,1,5,0,0
109357,-76.9230769230769,4,2,1,50,0,1
109607,-76.9230769230769,4,2,1,25,0,1
109690,-76.9230769230769,4,2,1,50,0,1
112274,-76.9230769230769,4,2,1,25,0,1
112357,-76.9230769230769,4,2,1,50,0,1
114940,-76.9230769230769,4,2,1,25,0,1
115024,-66.6666666666667,4,2,1,50,0,1
115357,-76.9230769230769,4,2,1,50,0,1
117607,-76.9230769230769,4,2,1,25,0,1
117690,-76.9230769230769,4,2,1,50,0,1
120024,-76.9230769230769,4,2,1,50,0,0
120274,-76.9230769230769,4,2,1,25,0,0
120357,-76.9230769230769,4,2,1,50,0,0
121524,-71.4285714285714,4,2,1,55,0,0
121857,-66.6666666666667,4,2,1,60,0,0
122190,-76.9230769230769,4,2,1,50,0,0
122940,-76.9230769230769,4,2,1,25,0,0
123024,-76.9230769230769,4,2,1,50,0,0
125607,-76.9230769230769,4,2,1,25,0,0
125690,-76.9230769230769,4,2,1,50,0,0
126857,-71.4285714285714,4,2,1,55,0,0
127190,-76.9230769230769,4,2,1,50,0,0
128274,-76.9230769230769,4,2,1,25,0,0
128357,-76.9230769230769,4,2,1,50,0,0
130940,-76.9230769230769,4,2,1,25,0,0
131024,-76.9230769230769,4,2,1,50,0,0
132190,-71.4285714285714,4,2,1,55,0,0
132524,-66.6666666666667,4,2,1,60,0,0
132857,-76.9230769230769,4,2,1,50,0,0
133607,-76.9230769230769,4,2,1,25,0,0
133690,-76.9230769230769,4,2,1,50,0,0
136274,-76.9230769230769,4,2,1,25,0,0
136357,-76.9230769230769,4,2,1,50,0,0
137524,-71.4285714285714,4,2,1,55,0,0
138190,-76.9230769230769,4,2,1,50,0,0
138940,-76.9230769230769,4,2,1,25,0,0
139024,-76.9230769230769,4,2,1,50,0,0
141357,-111.111111111111,4,2,1,30,0,0
147774,-111.111111111111,4,2,1,15,0,0
147857,-111.111111111111,4,2,1,30,0,0
150774,-111.111111111111,4,2,1,15,0,0
150857,-111.111111111111,4,2,1,30,0,0
151440,-111.111111111111,4,2,1,15,0,0
151524,-111.111111111111,4,2,1,30,0,0
152024,-90.9090909090909,4,2,1,40,0,0
152857,-200,4,2,1,40,0,0
153190,-90.9090909090909,4,2,1,40,0,0
161440,-90.9090909090909,4,2,1,20,0,0
161524,-90.9090909090909,4,2,1,40,0,0
162107,-90.9090909090909,4,2,1,20,0,0
162190,-90.9090909090909,4,2,1,40,0,0
162690,-142.857142857143,4,2,1,30,0,0
163607,-142.857142857143,4,2,1,15,0,0
163690,-142.857142857143,4,2,1,30,0,0
164857,-142.857142857143,4,2,1,35,0,0
165024,-142.857142857143,4,2,1,40,0,0
165190,-142.857142857143,4,2,1,30,0,0
166274,-142.857142857143,4,2,1,15,0,0
166357,-142.857142857143,4,2,1,30,0,0
167524,-142.857142857143,4,2,1,35,0,0
167690,-142.857142857143,4,2,1,40,0,0
167857,-142.857142857143,4,2,1,45,0,0
168024,-142.857142857143,4,2,1,50,0,0
168357,-142.857142857143,4,2,1,30,0,0
168940,-142.857142857143,4,2,1,15,0,0
169024,-142.857142857143,4,2,1,30,0,0
170190,-142.857142857143,4,2,1,35,0,0
170357,-142.857142857143,4,2,1,40,0,0
170524,-142.857142857143,4,2,1,30,0,0
171607,-142.857142857143,4,2,1,15,0,0
171690,-142.857142857143,4,2,1,30,0,0
172190,-142.857142857143,4,2,1,35,0,0
172357,-142.857142857143,4,2,1,40,0,0
172524,-142.857142857143,4,2,1,30,0,0
174274,-142.857142857143,4,2,1,15,0,0
174357,-142.857142857143,4,2,1,30,0,0
175524,-142.857142857143,4,2,1,35,0,0
175690,-142.857142857143,4,2,1,40,0,0
175857,-142.857142857143,4,2,1,30,0,0
176940,-142.857142857143,4,2,1,15,0,0
177024,-142.857142857143,4,2,1,30,0,0
177524,-142.857142857143,4,2,1,35,0,0
177690,-142.857142857143,4,2,1,40,0,0
177857,-142.857142857143,4,2,1,30,0,0
178190,-142.857142857143,4,2,1,35,0,0
178357,-200,4,2,1,40,0,0
178607,-200,4,2,1,20,0,0
178690,-76.9230769230769,4,2,1,50,0,0
181190,-76.9230769230769,4,2,1,60,0,1
181524,-76.9230769230769,4,2,1,50,0,1
183357,-76.9230769230769,4,2,1,40,0,1
183440,-76.9230769230769,4,2,1,20,0,1
183524,-76.9230769230769,4,2,1,60,0,1
183607,-76.9230769230769,4,2,1,30,0,1
183690,-76.9230769230769,4,2,1,60,0,1
184024,-76.9230769230769,4,2,1,50,0,1
184857,-76.9230769230769,4,2,1,60,0,1
184940,-76.9230769230769,4,2,1,30,0,1
185024,-76.9230769230769,4,2,1,70,0,1
185107,-76.9230769230769,4,2,1,35,0,1
185190,-76.9230769230769,4,2,1,50,0,1
186524,-76.9230769230769,4,2,1,60,0,1
186857,-76.9230769230769,4,2,1,50,0,1
188690,-76.9230769230769,4,2,1,40,0,1
188774,-76.9230769230769,4,2,1,20,0,1
188857,-76.9230769230769,4,2,1,60,0,1
188940,-76.9230769230769,4,2,1,30,0,1
189024,-76.9230769230769,4,2,1,60,0,1
189357,-76.9230769230769,4,2,1,50,0,1
191524,-76.9230769230769,4,2,1,60,0,1
191857,-76.9230769230769,4,2,1,70,0,1
192190,-76.9230769230769,4,2,1,50,0,1
192690,-76.9230769230769,4,2,1,40,0,1
192774,-76.9230769230769,4,2,1,20,0,1
192857,-76.9230769230769,4,2,1,60,0,1
192940,-76.9230769230769,4,2,1,30,0,1
193024,-76.9230769230769,4,2,1,60,0,1
193190,-76.9230769230769,4,2,1,50,0,1
194190,-76.9230769230769,4,2,1,40,0,1
194274,-76.9230769230769,4,2,1,20,0,1
194357,-76.9230769230769,4,2,1,60,0,1
194690,-76.9230769230769,4,2,1,50,0,1
197190,-76.9230769230769,4,2,1,60,0,1
197524,-76.9230769230769,4,2,1,50,0,1
198524,-76.9230769230769,4,2,1,60,0,1
198774,-76.9230769230769,4,2,1,30,0,1
198857,-76.9230769230769,4,2,1,50,0,1
199107,-76.9230769230769,4,2,1,40,0,1
199274,-76.9230769230769,4,2,1,20,0,1
199357,-76.9230769230769,4,2,1,50,0,1
199440,-76.9230769230769,4,2,1,25,0,1
199524,-76.9230769230769,4,2,1,60,0,1
199607,-76.9230769230769,4,2,1,30,0,1
199690,-76.9230769230769,4,2,1,70,0,1
200024,-76.9230769230769,4,2,1,50,0,1
200690,-76.9230769230769,4,2,1,30,0,1
200774,-76.9230769230769,4,2,1,35,0,1
200857,-76.9230769230769,4,2,1,40,0,1
200940,-76.9230769230769,4,2,1,45,0,1
201024,-76.9230769230769,4,2,1,50,0,1
201107,-76.9230769230769,4,2,1,55,0,1
201190,-76.9230769230769,4,2,1,60,0,1
201274,-76.9230769230769,4,2,1,65,0,1
201357,-200,4,2,1,70,0,1
202190,-200,4,2,1,50,0,1
202357,-200,4,2,1,25,0,1
202690,-142.857142857143,4,2,1,30,0,0
203607,-142.857142857143,4,2,1,15,0,0
203690,-142.857142857143,4,2,1,30,0,0
204857,-142.857142857143,4,2,1,35,0,0
205024,-142.857142857143,4,2,1,40,0,0
205190,-142.857142857143,4,2,1,30,0,0
206274,-142.857142857143,4,2,1,15,0,0
206357,-142.857142857143,4,2,1,30,0,0
207524,-142.857142857143,4,2,1,35,0,0
207690,-142.857142857143,4,2,1,40,0,0
207857,-142.857142857143,4,2,1,30,0,0
208024,-142.857142857143,4,2,1,40,0,0
208940,-142.857142857143,4,2,1,15,0,0
209024,-142.857142857143,4,2,1,30,0,0
210190,-142.857142857143,4,2,1,35,0,0
210357,-142.857142857143,4,2,1,40,0,0
210524,-142.857142857143,4,2,1,30,0,0
211607,-142.857142857143,4,2,1,15,0,0
211690,-142.857142857143,4,2,1,30,0,0
212190,-142.857142857143,4,2,1,35,0,0
212357,-142.857142857143,4,2,1,40,0,0
212524,-142.857142857143,4,2,1,30,0,0
214274,-142.857142857143,4,2,1,15,0,0
214357,-142.857142857143,4,2,1,30,0,0
215524,-142.857142857143,4,2,1,35,0,0
215690,-142.857142857143,4,2,1,40,0,0
215857,-142.857142857143,4,2,1,30,0,0
216940,-142.857142857143,4,2,1,15,0,0
217024,-142.857142857143,4,2,1,30,0,0
217524,-142.857142857143,4,2,1,35,0,0
217690,-142.857142857143,4,2,1,40,0,0
217857,-142.857142857143,4,2,1,30,0,0
218190,-142.857142857143,4,2,1,35,0,0
218357,-200,4,2,1,40,0,0
218607,-200,4,2,1,20,0,0
218690,-76.923076923077,4,2,1,50,0,0
224024,-76.9230769230769,4,2,1,70,0,1
224357,-76.9230769230769,4,2,1,75,0,1
224690,-76.9230769230769,4,2,1,80,0,1
225024,-76.9230769230769,4,2,1,85,0,1
225357,-76.9230769230769,4,2,1,70,0,1
225690,-76.9230769230769,4,2,1,75,0,1
226024,-76.9230769230769,4,2,1,80,0,1
226357,-76.9230769230769,4,2,1,85,0,1
226690,-76.9230769230769,4,2,1,70,0,1
227024,-76.9230769230769,4,2,1,75,0,1
227190,-76.9230769230769,4,2,1,80,0,1
227357,-76.9230769230769,4,2,1,85,0,1
227524,-76.9230769230769,4,2,1,70,0,1
227690,-76.9230769230769,4,2,1,80,0,1
227857,-76.9230769230769,4,2,1,90,0,0
228190,-66.6666666666667,4,2,1,30,0,0
228357,-142.857142857143,4,2,1,40,0,0
228607,-142.857142857143,4,2,1,5,0,0
228690,-111.111111111111,4,2,1,40,0,0
228774,-111.111111111111,4,2,1,5,0,0
228857,-111.111111111111,4,2,1,40,0,0
229024,-90.909090909091,4,2,1,40,0,0
229274,-90.909090909091,4,2,1,5,0,0
229357,-76.9230769230769,4,2,1,50,0,1
229607,-76.9230769230769,4,2,1,25,0,1
229690,-76.9230769230769,4,2,1,50,0,1
232274,-76.9230769230769,4,2,1,25,0,1
232357,-76.9230769230769,4,2,1,50,0,1
234940,-76.9230769230769,4,2,1,25,0,1
235024,-76.9230769230769,4,2,1,50,0,1
238524,-76.9230769230769,4,2,1,50,0,0
238857,-76.9230769230769,4,2,1,25,0,0
239024,-111.111111111111,4,2,1,40,0,0
239357,-76.9230769230769,4,2,1,40,0,0
239607,-76.9230769230769,4,2,1,5,0,0
239690,-66.6666666666667,4,2,1,40,0,0
239940,-66.6666666666667,4,2,1,5,0,0
240024,-76.9230769230769,4,2,1,50,0,1
240274,-76.9230769230769,4,2,1,25,0,1
240357,-76.9230769230769,4,2,1,50,0,1
242940,-76.9230769230769,4,2,1,25,0,1
243024,-76.9230769230769,4,2,1,50,0,1
245607,-76.9230769230769,4,2,1,25,0,1
245690,-66.6666666666667,4,2,1,50,0,1
246024,-76.9230769230769,4,2,1,50,0,1
249190,-76.9230769230769,4,2,1,50,0,0
249690,-111.111111111111,4,2,1,40,0,0
249940,-111.111111111111,4,2,1,5,0,0
250024,-76.9230769230769,4,2,1,40,0,0
250357,-66.6666666666667,4,2,1,40,0,0
250690,-76.9230769230769,4,2,1,50,0,1
250940,-76.9230769230769,4,2,1,25,0,1
251024,-76.9230769230769,4,2,1,50,0,1
253607,-76.9230769230769,4,2,1,25,0,1
253690,-76.9230769230769,4,2,1,50,0,1
256274,-76.9230769230769,4,2,1,25,0,1
256357,-76.9230769230769,4,2,1,50,0,1
259857,-76.9230769230769,4,2,1,50,0,0
260190,-76.9230769230769,4,2,1,25,0,0
260357,-111.111111111111,4,2,1,40,0,0
260690,-76.9230769230769,4,2,1,40,0,0
260940,-76.9230769230769,4,2,1,5,0,0
261024,-66.6666666666667,4,2,1,40,0,0
261274,-66.6666666666667,4,2,1,5,0,0
261357,-76.9230769230769,4,2,1,50,0,1
261607,-76.9230769230769,4,2,1,25,0,1
261690,-76.9230769230769,4,2,1,50,0,1
264274,-76.9230769230769,4,2,1,25,0,1
264357,-76.9230769230769,4,2,1,50,0,1
265107,-76.9230769230769,4,2,1,25,0,1
265190,-76.9230769230769,4,2,1,50,0,1
266940,-76.9230769230769,4,2,1,25,0,1
267024,-66.6666666666667,4,2,1,50,0,1
267357,-76.9230769230769,4,2,1,50,0,1
269607,-76.9230769230769,4,2,1,25,0,1
269690,-76.9230769230769,4,2,1,50,0,1
270024,-76.9230769230769,4,2,1,40,0,1
270190,-76.9230769230769,4,2,1,30,0,1
270357,-76.9230769230769,4,2,1,20,0,1
270524,-76.9230769230769,4,2,1,50,0,1
271190,-76.9230769230769,4,2,1,30,0,1
271274,-76.9230769230769,4,2,1,35,0,1
271357,-76.9230769230769,4,2,1,40,0,1
271440,-76.9230769230769,4,2,1,45,0,1
271524,-76.9230769230769,4,2,1,50,0,1
271607,-76.9230769230769,4,2,1,55,0,1
271690,-76.9230769230769,4,2,1,60,0,1
271774,-76.9230769230769,4,2,1,65,0,1
271857,-76.9230769230769,4,2,1,70,0,1
271940,-76.9230769230769,4,2,1,75,0,1
272024,-76.9230769230769,4,2,1,80,0,0
272357,-76.9230769230769,4,2,1,40,0,0
272607,-76.9230769230769,4,2,1,60,0,0
272774,-76.9230769230769,4,2,1,30,0,0
272857,-76.9230769230769,4,2,1,40,0,0
274357,-76.9230769230769,4,2,1,60,0,0
274440,-76.9230769230769,4,2,1,65,0,0
274524,-76.9230769230769,4,2,1,70,0,0
274607,-76.9230769230769,4,2,1,75,0,0
274690,-76.9230769230769,4,2,1,80,0,0
275024,-76.9230769230769,4,2,1,40,0,0
275274,-76.9230769230769,4,2,1,60,0,0
275440,-76.9230769230769,4,2,1,30,0,0
275524,-76.9230769230769,4,2,1,40,0,0
277024,-76.9230769230769,4,2,1,60,0,0
277107,-76.9230769230769,4,2,1,65,0,0
277190,-76.9230769230769,4,2,1,70,0,0
277274,-76.9230769230769,4,2,1,75,0,0
277357,-76.9230769230769,4,2,1,80,0,0
277690,-76.9230769230769,4,2,1,40,0,0
277940,-76.9230769230769,4,2,1,60,0,0
278107,-76.9230769230769,4,2,1,30,0,0
278190,-76.9230769230769,4,2,1,40,0,0
279690,-76.9230769230769,4,2,1,60,0,0
279774,-76.9230769230769,4,2,1,65,0,0
279857,-76.9230769230769,4,2,1,70,0,0
279940,-76.9230769230769,4,2,1,75,0,0
280024,-76.9230769230769,4,2,1,80,0,0
280357,-76.9230769230769,4,2,1,40,0,0
280607,-76.9230769230769,4,2,1,60,0,0
280774,-76.9230769230769,4,2,1,30,0,0
280857,-76.9230769230769,4,2,1,40,0,0
282024,-76.9230769230769,4,2,1,30,0,0
282107,-76.9230769230769,4,2,1,35,0,0
282190,-76.9230769230769,4,2,1,40,0,0
282274,-76.9230769230769,4,2,1,45,0,0
282357,-76.9230769230769,4,2,1,50,0,0
282440,-76.9230769230769,4,2,1,55,0,0
282524,-76.9230769230769,4,2,1,60,0,0
282607,-76.9230769230769,4,2,1,65,0,0
282690,-76.9230769230769,4,2,1,70,0,0
282940,-76.9230769230769,4,2,1,35,0,0
283024,-76.9230769230769,4,2,1,50,0,0
284190,-71.4285714285714,4,2,1,55,0,0
284524,-66.6666666666667,4,2,1,60,0,0
284857,-76.9230769230769,4,2,1,50,0,0
285607,-76.9230769230769,4,2,1,25,0,0
285690,-76.9230769230769,4,2,1,50,0,0
288274,-76.9230769230769,4,2,1,25,0,0
288357,-76.9230769230769,4,2,1,50,0,0
289524,-71.4285714285714,4,2,1,55,0,0
289857,-66.6666666666667,4,2,1,60,0,0
290190,-76.9230769230769,4,2,1,50,0,0
290940,-76.9230769230769,4,2,1,25,0,0
291024,-76.9230769230769,4,2,1,50,0,0
293274,-76.9230769230769,4,2,1,5,0,0
293357,-66.6666666666667,4,2,1,70,0,1
293690,-66.6666666666667,4,2,1,75,0,1
294024,-66.6666666666667,4,2,1,80,0,1
294357,-66.6666666666667,4,2,1,85,0,1
294690,-66.6666666666667,4,2,1,70,0,1
295024,-66.6666666666667,4,2,1,75,0,1
295357,-66.6666666666667,4,2,1,80,0,1
295607,-66.6666666666667,4,2,1,40,0,1
295690,-66.6666666666667,4,2,1,85,0,1
296024,-66.6666666666667,4,2,1,70,0,1
296357,-66.6666666666667,4,2,1,75,0,1
296690,-66.6666666666667,4,2,1,80,0,1
297024,-66.6666666666667,4,2,1,85,0,1
297357,-66.6666666666667,4,2,1,70,0,1
297524,-66.6666666666667,4,2,1,80,0,1
297690,-66.6666666666667,4,2,1,90,0,1
298024,-66.6666666666667,4,2,1,90,0,1
298190,-66.6666666666667,4,2,1,70,0,1
298357,-66.6666666666667,4,2,1,50,0,1
298524,-66.6666666666667,4,2,1,30,0,1
298690,-66.6666666666667,4,2,1,70,0,1
299024,-66.6666666666667,4,2,1,75,0,1
299357,-66.6666666666667,4,2,1,80,0,1
299690,-66.6666666666667,4,2,1,85,0,1
300024,-66.6666666666667,4,2,1,70,0,1
300357,-66.6666666666667,4,2,1,80,0,1
300690,-66.6666666666667,4,2,1,90,0,1
300940,-66.6666666666667,4,2,1,45,0,1
301024,-66.6666666666667,4,2,1,100,0,1
301357,-66.6666666666667,4,2,1,70,0,1
301690,-66.6666666666667,4,2,1,80,0,1
302024,-66.6666666666667,4,2,1,90,0,1
302357,-66.6666666666667,4,2,1,100,0,1
302524,-66.6666666666667,4,2,1,100,0,0
302857,-66.6666666666667,4,2,1,40,0,0
302940,-66.6666666666667,4,2,1,50,0,0
303024,-200,4,2,1,60,0,0
303357,-200,4,2,1,55,0,0
303690,-200,4,2,1,50,0,0
304024,-200,4,2,1,45,0,0
304357,-200,4,2,1,40,0,0
304690,-200,4,2,1,35,0,0
305024,-200,4,2,1,30,0,0
305357,-200,4,2,1,25,0,0
305690,-200,4,2,1,20,0,0
306024,-200,4,2,1,15,0,0
306357,-200,4,2,1,10,0,0
306524,-200,4,2,1,5,0,0

[Colours]
Combo1 : 73,66,99
Combo2 : 0,81,210
Combo3 : 253,219,209
Combo4 : 252,109,85

[HitObjects]
55,80,2352,5,0,3:0:0:0:
48,110,2436,1,0,3:0:0:0:
56,139,2519,2,0,P|78:138|101:133,1,40.4999987640381,0|0,3:0|0:0,0:0:0:0:
149,54,2691,6,0,P|206:104|181:177,1,161.999995056153,2|0,0:0|0:0,0:0:0:0:
101,229,3190,1,0,0:0:0:0:
96,134,3357,1,0,0:0:0:0:
275,226,3524,2,0,B|334:242|399:227|399:227,1,121.499996292114,2|0,0:0|0:0,0:0:0:0:
422,220,3857,6,0,B|415:168|415:168|429:114|429:114|421:54,1,161.999995056153,2|0,0:0|0:0,0:0:0:0:
333,106,4357,2,0,L|253:115,1,80.9999975280763
157,24,4690,2,0,L|236:33,1,80.9999975280763
117,231,5024,1,0,0:0:0:0:
75,106,5190,1,0,0:0:0:0:
190,179,5357,6,0,B|225:228|187:302|187:302|166:305|161:284|187:278,1,161.999995056153,2|0,0:0|0:0,0:0:0:0:
329,232,5857,1,0,0:0:0:0:
289,358,6024,1,0,0:0:0:0:
450,246,6190,2,0,L|330:232,1,121.499996292114,2|0,0:0|0:0,0:0:0:0:
322,205,6524,6,0,B|317:156|361:125|361:125|331:98|336:55,1,161.999995056153,2|0,0:0|0:0,0:0:0:0:
183,117,7024,2,0,P|223:109|263:115,1,80.9999975280763
128,26,7357,5,2,0:0:0:0:
225,193,7524,1,0,0:0:0:0:
124,30,7690,1,2,0:0:0:0:
229,197,7857,2,0,L|223:239,1,40.4999987640381,0|0,3:0|3:0,0:0:0:0:
53,282,8024,6,0,B|68:263|99:255|99:255|130:258|154:271|154:271|167:298|198:309,1,161.999995056153,2|0,0:0|0:0,0:0:0:0:
338,225,8524,1,0,0:0:0:0:
300,351,8690,1,0,0:0:0:0:
234,165,8857,2,0,P|193:122|125:119,1,121.499996292114,2|0,0:0|0:0,0:0:0:0:
108,126,9190,6,0,B|149:149|193:126|193:126|225:109|264:122,1,161.999995056153,2|0,0:0|0:0,0:0:0:0:
360,251,9690,1,0,0:0:0:0:
423,186,9857,1,0,0:0:0:0:
339,272,10024,1,0,0:0:0:0:
495,235,10191,1,0,0:0:0:0:
407,101,10358,1,0,0:0:0:0:
448,309,10524,1,0,3:0:0:0:
452,336,10607,1,0,3:0:0:0:
447,363,10690,6,0,B|409:373|409:373|387:352|359:343|328:344|307:353|305:373|329:381|335:362,1,161.999995056153,2|0,0:0|0:0,0:0:0:0:
347,179,11190,1,0,0:0:0:0:
258,313,11357,1,0,0:0:0:0:
102,199,11524,2,0,L|86:73,1,121.499996292114,2|0,0:0|0:0,0:0:0:0:
82,51,11857,6,0,B|56:115|75:172|75:172|102:199,1,161.999995056153,2|0,0:0|0:0,0:0:0:0:
212,40,12357,1,0,0:0:0:0:
211,140,12524,1,0,3:0:0:0:
184,144,12607,1,0,3:0:0:0:
157,139,12690,5,2,0:0:0:0:
299,91,12857,1,0,0:0:0:0:
307,275,13024,2,0,L|266:279,1,40.4999987640381,0|0,1:0|0:0,0:0:0:0:
9,215,13190,1,0,1:0:0:0:
26,237,13274,1,0,1:0:0:0:
43,259,13357,6,0,B|85:287|154:287|192:252,1,148.50000453186,6|0,0:0|0:0,0:0:0:0:
209,237,13690,2,0,B|218:188|218:188|209:139,1,99.0000030212403,0|0,1:0|0:0,0:0:0:0:
52,350,14024,1,2,0:0:0:0:
210,323,14190,2,0,B|254:330|254:330|311:312|311:312|355:321,1,148.50000453186
385,307,14524,6,0,B|415:275|415:230|415:230|419:223|419:223|411:220|411:220|400:193|374:180|374:180|388:206|387:236,1,198.000006042481,2|0,0:0|0:0,0:0:0:0:
270,137,14940,1,0,0:0:0:0:
270,137,15024,2,0,P|274:186|300:228,1,99.0000030212403,0|0,1:0|0:0,0:0:0:0:
394,78,15357,2,0,L|342:71,1,49.5000015106202
258,27,15524,1,0,0:0:0:0:
388,46,15690,1,2,0:0:0:0:
149,137,15857,1,0,3:0:0:0:
153,103,15941,1,0,3:0:0:0:
175,78,16024,6,0,B|204:113|204:181|176:220,1,148.50000453186
160,247,16357,2,0,B|209:234|209:234|261:248,1,99.0000030212403,0|0,3:0|0:0,0:0:0:0:
139,359,16690,1,2,0:0:0:0:
366,318,16857,2,0,B|377:279|361:251|355:246|355:246|361:241|376:216|368:175,1,148.50000453186
352,147,17190,6,0,B|320:99|372:71|372:71|376:59|380:71|380:71|432:99|400:147,1,198.000006042481,2|0,0:0|0:0,0:0:0:0:
264,148,17607,1,0,0:0:0:0:
264,148,17690,2,0,P|259:99|276:52,1,99.0000030212403,0|0,1:0|0:0,0:0:0:0:
308,238,18024,5,2,0:0:0:0:
177,226,18190,1,8,0:3:0:0:
89,174,18357,1,4,0:3:0:0:
47,103,18524,1,8,0:3:0:0:
3,337,18690,6,0,B|47:362|98:362|149:338,1,148.50000453186,2|0,0:0|0:0,0:0:0:0:
175,322,19024,2,0,B|186:273|186:273|175:217,1,99.0000030212403,0|0,1:0|0:0,0:0:0:0:
46,241,19357,1,2,0:0:0:0:
305,299,19524,2,0,B|299:250|299:250|310:200|310:200|304:153,1,148.50000453186
317,121,19857,6,0,B|305:138|279:138|279:138|275:142|275:142|270:138|270:138|247:130|233:121|233:121|195:103|165:119|165:119|186:129|205:121,1,198.000006042481,2|0,0:0|0:0,0:0:0:0:
275,49,20274,1,0,3:0:0:0:
275,28,20357,1,0,1:0:0:0:
357,207,20524,1,0,0:0:0:0:
429,97,20690,2,0,L|434:47,1,49.5000015106202,2|0,0:0|0:0,0:0:0:0:
371,236,20857,1,0,0:0:0:0:
221,119,21024,2,0,P|269:109|317:121,1,99.0000030212403,2|0,0:0|0:0,0:0:0:0:
171,203,21274,1,0,0:0:0:0:
171,203,21357,6,0,P|138:166|124:119,1,99.0000030212403,2|0,0:0|0:0,0:0:0:0:
268,204,21690,1,0,1:0:0:0:
191,346,21857,1,0,0:0:0:0:
353,342,22024,2,0,L|458:354,2,99.0000030212403,2|0|0,0:0|0:0|0:0,0:0:0:0:
178,321,22524,6,0,B|161:303|134:298|134:298|129:294|129:294|124:298|124:298|101:303|83:321|83:321|48:332|9:320|-1:289,1,198.000006042481,6|8,0:0|0:3,0:0:0:0:
131,384,23024,1,4,0:3:0:0:
257,216,23190,2,0,B|270:200|276:185|276:185|283:180|283:180|279:173|279:173|287:129|240:90|240:90|258:118|252:149,1,198.000006042481,6|0,0:0|0:0,0:0:0:0:
125,138,23690,1,0,3:0:0:0:
125,138,23774,2,0,P|149:134|174:138,1,49.5000015106202,0|0,3:0|3:0,3:0:0:0:
321,275,23940,1,0,3:0:0:0:
321,275,24024,6,0,B|389:295|455:275|455:275|465:255|464:231,1,175.499991966248,6|0,0:0|0:0,0:0:0:0:
462,197,24357,1,8,0:0:0:0:
412,360,24524,1,0,0:0:0:0:
243,203,24690,2,0,B|222:175|253:151|253:151|286:175|265:203,1,116.999994644165,2|2,0:0|0:0,0:0:0:0:
147,363,25024,1,8,0:0:0:0:
209,278,25190,6,0,B|252:264|291:286|291:286|323:274,1,116.999994644165,2|0,0:0|0:0,0:0:0:0:
147,363,25524,2,0,B|94:368|94:368|56:354|56:354|23:367,1,125.999996154785,2|8,0:0|0:0,0:0:0:0:
217,270,25857,2,0,B|272:268|272:268|289:256|309:249|309:249|328:254|348:267,1,135.000005149842,0|2,0:0|0:0,0:0:0:0:
259,381,26190,5,2,0:0:0:0:
174,159,26357,1,8,0:0:0:0:
90,262,26524,1,0,0:0:0:0:
20,73,26690,6,0,B|59:66|95:86|95:86|119:94|153:92|161:69|161:48|144:34|131:40,1,175.499991966248,2|0,0:0|0:0,0:0:0:0:
142,40,27024,2,0,B|182:36|182:36|215:49|215:49|257:47,1,116.999994644165,8|0,0:0|0:0,0:0:0:0:
384,189,27357,5,2,0:0:0:0:
248,168,27524,1,2,0:0:0:0:
408,178,27690,1,8,0:0:0:0:
248,202,27857,6,0,B|198:182|160:210|160:210|114:226|79:191|79:191|108:205|138:197,1,233.999989288331,2|2,0:0|0:0,0:0:0:0:
209,276,28357,1,8,0:0:0:0:
80,191,28524,2,0,B|63:247|80:306|80:306,1,116.999994644165,0|2,0:0|0:0,0:0:0:0:
217,268,28857,2,0,B|234:209|217:153,1,116.999994644165,2|8,0:0|0:0,0:0:0:0:
360,121,29190,1,8,0:0:0:0:
360,121,29274,1,8,0:0:0:0:
360,121,29357,6,0,B|349:97|354:63|354:63|335:115|354:178,1,175.499991966248,6|0,0:0|0:0,0:0:0:0:
372,215,29690,1,8,0:0:0:0:
435,85,29857,1,0,0:0:0:0:
239,249,30024,2,0,B|270:269|304:255|304:255|275:256|252:240,1,116.999994644165,2|2,0:0|0:0,0:0:0:0:
107,116,30357,1,8,0:0:0:0:
136,239,30524,6,0,B|143:269|143:269|120:290|109:314|136:334|162:321|159:303,1,116.999994644165,2|0,0:0|0:0,0:0:0:0:
107,116,30857,2,0,B|100:86|100:86|122:71|125:44|125:44|110:22|84:20,1,125.999996154785,2|8,0:0|0:0,0:0:0:0:
128,247,31190,2,0,B|131:277|131:277|105:295|92:318|116:341|143:331|143:313,1,116.999994644165,0|2,0:0|0:0,0:0:0:0:
27,205,31524,5,2,0:0:0:0:
240,293,31690,1,8,0:0:0:0:
222,162,31857,1,0,0:0:0:0:
395,268,32024,6,0,B|456:288|511:264|511:264|532:268|538:296|505:308,1,175.499991966248,2|0,0:0|0:0,0:0:0:0:
512,305,32357,2,0,P|527:249|507:195,1,116.999994644165,8|0,0:0|0:0,0:0:0:0:
326,210,32690,2,0,P|306:268|326:326,2,116.999994644165,2|2|8,0:0|0:0|0:0,0:0:0:0:
426,124,33190,6,0,P|445:69|430:14,1,116.999994644165,2|0,0:0|0:0,0:0:0:0:
326,210,33524,1,2,0:0:0:0:
220,82,33690,1,8,0:0:0:0:
192,307,33857,2,0,B|264:275|277:336|372:309|372:309|366:322|345:331|326:330,1,233.999989288331,2|2,0:0|0:0,0:0:0:0:
326,210,34274,1,2,0:0:0:0:
326,235,34357,1,8,0:0:0:0:
216,114,34524,2,0,L|208:175,1,58.4999973220826,8|8,0:0|0:0,0:0:0:0:
65,307,34690,6,0,B|35:243|65:178|65:178|94:222,1,175.499991966248,6|0,0:0|0:0,0:0:0:0:
112,245,35024,1,8,0:0:0:0:
26,109,35190,1,0,0:0:0:0:
240,181,35357,2,0,B|287:187|317:160|317:160|312:180|297:191,1,116.999994644165,2|2,0:0|0:0,0:0:0:0:
246,30,35690,1,8,0:0:0:0:
137,121,35857,6,0,B|97:138|60:109|60:109|18:108,1,116.999994644165,2|0,0:0|0:0,0:0:0:0:
246,30,36190,2,0,B|285:12|285:12|322:41|322:41|364:42,1,125.999996154785,2|8,0:0|0:0,0:0:0:0:
129,129,36524,2,0,B|114:142|90:152|90:152|66:144|48:127|48:127|4:131,1,135.000005149842,0|2,0:0|0:0,0:0:0:0:
93,59,36857,5,2,0:0:0:0:
198,266,37024,1,8,0:0:0:0:
73,223,37190,1,0,0:0:0:0:
282,109,37357,6,0,B|333:94|368:124|368:124|406:154|455:139,1,175.499991966248,2|0,0:0|0:0,0:0:0:0:
447,141,37690,2,0,B|448:99|448:99|465:67|465:67|464:26,1,116.999994644165,8|0,0:0|0:0,0:0:0:0:
313,199,38024,5,2,0:0:0:0:
413,285,38190,1,2,0:0:0:0:
290,335,38358,1,8,0:0:0:0:
396,257,38524,6,0,B|454:257|509:285|509:285,1,116.999994644165,2|0,0:0|0:0,0:0:0:0:
448,141,38857,1,2,0:0:0:0:
429,367,39024,1,8,0:0:0:0:
273,307,39190,2,0,B|214:306|159:278|159:278,1,116.999994644165,2|0,0:0|0:0,0:0:0:0:
201,115,39524,5,2,0:0:0:0:
97,196,39690,1,8,0:0:0:0:
208,26,39857,1,2,0:0:0:0:
285,214,40024,6,0,B|353:252|414:205|414:205|451:215,1,175.499991966248,6|0,0:0|0:0,0:0:0:0:
488,225,40357,1,8,0:0:0:0:
407,350,40524,1,0,0:0:0:0:
471,128,40690,2,0,B|427:88|427:88|383:128,1,116.999994644165,2|2,0:0|0:0,0:0:0:0:
418,322,41024,1,8,0:0:0:0:
202,241,41190,6,0,B|189:212|212:157|200:123,1,116.999994644165,2|0,0:0|0:0,0:0:0:0:
322,251,41524,2,0,B|335:282|324:310|324:310|311:339|311:339|324:374,1,125.999996154785,2|8,0:0|0:0,0:0:0:0:
210,233,41857,2,0,B|199:198|214:171|214:171|232:141|232:141|223:107,1,125.999996154785,0|2,0:0|0:0,0:0:0:0:
324,221,42190,5,2,0:0:0:0:
47,250,42357,1,8,0:0:0:0:
134,356,42523,1,0,0:0:0:0:
122,159,42690,6,0,B|126:94|67:65|67:65|105:82|124:68,1,175.499991966248,2|0,0:0|0:0,0:0:0:0:
124,69,43024,2,0,P|108:16|61:42,1,116.999994644165,8|0,0:0|0:0,0:0:0:0:
184,205,43357,1,2,0:0:0:0:
26,153,43524,1,2,0:0:0:0:
211,112,43690,1,8,0:0:0:0:
107,265,43857,6,0,B|77:301|79:351|79:351|96:348|108:337,1,116.999994644165,2|0,0:0|0:0,0:0:0:0:
93,168,44190,2,0,B|76:124|32:100|32:100|26:116|30:132,1,116.999994644165,2|12,0:0|0:0,0:0:0:0:
184,205,44524,2,0,B|230:212|272:186|272:186|261:173|245:168,1,116.999994644165,2|2,0:0|0:0,0:0:0:0:
107,265,44857,6,0,P|90:292|82:317,1,58.4999973220826,2|2,0:0|0:0,0:0:0:0:
222,316,45024,1,8,0:0:0:0:
93,168,45190,2,0,P|61:166|35:172,1,58.4999973220826
248,323,45357,6,0,P|321:325|380:312,1,135.000005149842,6|2,0:0|0:0,0:0:0:0:
327,28,45690,5,8,0:0:0:0:
184,205,45857,1,2,0:0:0:0:
443,78,46024,5,8,0:0:0:0:
153,122,46190,1,2,0:0:0:0:
429,204,46357,5,8,0:0:0:0:
191,42,46524,2,0,B|143:37|143:37|103:48|103:48|55:42,1,135.000005149842,2|8,0:0|0:0,0:0:0:0:
134,256,46857,5,2,0:0:0:0:
310,78,47024,2,0,B|358:83|358:83|398:72|398:72|446:78,1,135.000005149842,8|2,0:0|0:0,0:0:0:0:
281,316,47357,5,8,0:0:0:0:
191,42,47524,2,0,P|161:60|142:86,1,67.5000025749208,2|0,0:0|0:0,0:0:0:0:
116,325,47690,5,8,0:0:0:0:
217,122,47857,1,2,0:0:0:0:
290,344,48024,6,0,P|364:346|423:333,1,135.000005149842,12|2,0:0|0:0,0:0:0:0:
269,12,48357,5,8,0:0:0:0:
111,219,48524,1,2,0:0:0:0:
352,107,48690,5,8,0:0:0:0:
0,145,48857,1,2,0:0:0:0:
318,227,49024,1,2,0:0:0:0:
28,14,49190,5,8,0:0:0:0:
28,14,49523,5,2,0:0:0:0:
42,40,49607,1,2,0:0:0:0:
52,71,49690,2,0,B|61:130|28:175|28:175|9:181|-1:161|16:148|39:161,1,157.499995193482,8|0,0:0|0:0,0:0:0:0:
111,219,50190,6,0,L|162:226,1,49.5000015106202,8|0,0:0|0:0,0:0:0:0:
274,50,50357,2,0,L|193:59,1,67.5,2|0,0:0|0:0,0:0:0:0:
183,81,50690,6,0,B|166:96|166:124|166:124|161:128|161:128|166:133|166:133|166:158|184:176|184:176|202:211|181:244|181:244|167:233,1,198.000006042481,6|8,0:0|0:0,0:0:0:0:
242,128,51190,1,0,0:0:0:0:
160,225,51357,1,2,0:0:0:0:
256,339,51524,2,0,L|262:295,1,45,2|8,0:0|0:0,0:0:0:0:
262,295,51857,6,0,B|308:323|355:293|355:293|355:327|389:356|424:342,1,198.000006042481,2|2,0:0|0:0,0:0:0:0:
310,128,52357,2,0,B|293:172|306:225,1,99.0000030212403,8|0,0:0|0:0,0:0:0:0:
416,153,52690,2,0,B|432:108|419:55,1,99.0000030212403,2|0,0:0|0:0,0:0:0:0:
310,229,53024,1,8,0:0:0:0:
310,229,53357,6,0,B|288:215|267:217|267:217|259:215|259:215|254:221|254:221|215:238|164:255|120:213,1,198.000006042481,6|8,0:0|0:0,0:0:0:0:
185,135,53857,1,0,0:0:0:0:
133,330,54024,2,0,L|231:342,1,99.0000030212403,2|2,0:0|0:0,0:0:0:0:
101,195,54357,1,8,0:0:0:0:
13,293,54524,6,0,P|-11:322|26:317,1,99.0000030212403,2|0,0:0|0:0,0:0:0:0:
105,191,54857,2,0,P|131:218|91:210,1,99.0000030212403,2|8,0:0|0:0,0:0:0:0:
28,67,55190,1,0,0:0:0:0:
234,192,55357,2,0,B|186:205|115:192|115:192,1,99.0000030212403,2|2,0:0|0:0,0:0:0:0:
335,78,55690,1,8,0:0:0:0:
335,78,56024,6,0,B|331:120|331:120|326:127|326:127|332:134|332:134|347:180|347:180|332:235|332:235|318:202,1,198.000006042481,6|8,0:0|0:0,0:0:0:0:
415,118,56524,1,0,0:0:0:0:
234,192,56690,2,0,L|247:298,1,99.0000030212403,2|2,0:0|0:0,0:0:0:0:
411,122,57024,1,8,0:0:0:0:
139,141,57190,6,0,B|77:168|74:125|6:146|6:146|-25:142|-24:126|-1:109|13:125,1,198.000006042481,2|2,0:0|0:0,0:0:0:0:
42,245,57690,1,8,0:0:0:0:
101,63,57857,1,0,0:0:0:0:
172,241,58024,2,0,B|124:221|62:241|62:241,1,99.0000030212403,2|0,0:0|0:0,0:0:0:0:
226,113,58357,1,8,0:0:0:0:
226,113,58690,6,0,B|243:126|266:130|266:130|271:135|271:135|276:130|276:130|299:126|319:112,1,99.0000030212403,6|0,0:0|0:0,0:0:0:0:
196,15,59024,1,8,0:0:0:0:
91,94,59190,2,0,L|104:201,1,99.0000030212403,0|2,0:0|0:0,0:0:0:0:
212,258,59524,1,2,0:0:0:0:
11,136,59690,1,8,0:0:0:0:
212,258,59857,6,0,B|257:250|257:250|313:270|313:270|358:263,1,148.50000453186,6|0,0:0|0:0,0:0:0:0:
324,192,60190,1,2,0:0:0:0:
252,329,60357,1,8,0:0:0:0:
284,121,60524,6,0,B|329:113|329:113|385:133|385:133|430:126,1,148.50000453186,6|0,0:0|0:0,0:0:0:0:
395,29,60857,1,2,0:0:0:0:
461,224,61024,2,0,L|455:271,1,45,8|2,0:0|0:0,0:0:0:0:
461,224,61357,6,0,B|447:273|396:280|396:280|393:286|393:286|390:280|390:280|339:273|325:224,1,198.000006042481,6|8,0:0|0:0,0:0:0:0:
394,139,61857,1,0,0:0:0:0:
470,297,62024,1,2,0:0:0:0:
241,244,62190,2,0,P|245:192|275:153,1,99.0000030212403,2|8,0:0|0:0,0:0:0:0:
282,338,62524,6,0,B|244:320|204:338|204:338|169:324|169:324|129:344|89:324,1,198.000006042481,2|2,0:0|0:0,0:0:0:0:
111,155,63024,2,0,L|123:253,1,99.0000030212403,8|0,0:0|0:0,0:0:0:0:
7,193,63357,2,0,L|19:94,1,99.0000030212403,2|0,0:0|0:0,0:0:0:0:
128,258,63690,1,8,0:0:0:0:
128,258,64024,6,0,B|173:274|215:246|215:246|217:238|217:238|223:244|223:244|279:227|278:272|250:285|229:255,1,198.000006042481,6|8,0:0|0:0,0:0:0:0:
321,151,64524,1,0,0:0:0:0:
160,84,64690,2,0,P|154:133|161:181,1,99.0000030212403,2|2,0:0|0:0,0:0:0:0:
325,147,65024,1,8,0:0:0:0:
237,263,65190,6,0,P|213:291|247:267,1,99.0000030212403,2|0,0:0|0:0,0:0:0:0:
329,143,65524,2,0,P|353:171|319:147,1,99.0000030212403,2|8,0:0|0:0,0:0:0:0:
215,41,65857,1,0,0:0:0:0:
110,207,66024,2,0,B|110:203|97:256|110:305,1,99.0000030212403,2|2,0:0|0:0,0:0:0:0:
3,111,66357,1,8,0:0:0:0:
3,111,66690,6,0,B|55:121|55:121|90:112|90:112|99:114|99:114|105:108|105:108|140:98|140:98|193:109,1,198.000006042481,6|8,0:0|0:0,0:0:0:0:
296,277,67190,1,0,0:0:0:0:
208,248,67357,1,2,0:0:0:0:
305,150,67524,2,0,B|318:199|305:249,1,99.0000030212403,2|8,0:0|0:0,0:0:0:0:
124,335,67857,6,0,B|107:313|107:313|89:262|123:220|123:220|112:260|132:287,1,198.000006042481,2|2,0:0|0:0,0:0:0:0:
305,248,68357,2,0,B|256:261|206:248,1,99.0000030212403,8|0,0:0|0:0,0:0:0:0:
290,357,68690,1,2,0:0:0:0:
256,164,68857,1,2,0:0:0:0:
142,359,69024,1,8,0:0:0:0:
142,359,69357,6,0,B|129:344|127:319|127:319|120:313|120:313|127:308|127:308|129:281|143:266,1,99.0000030212403,6|0,0:0|0:0,0:0:0:0:
21,334,69690,1,8,0:0:0:0:
216,229,69857,2,0,P|180:193|133:183,1,99.0000030212403,0|2,0:0|0:0,0:0:0:0:
256,77,70190,1,2,0:0:0:0:
257,308,70357,1,8,0:0:0:0:
162,103,70524,6,0,B|117:95|117:95|61:115|61:115|16:108,1,148.50000453186,6|0,0:0|0:0,0:0:0:0:
9,11,70857,1,2,0:0:0:0:
124,212,71024,1,8,0:0:0:0:
350,103,71190,6,0,B|395:95|395:95|451:115|451:115|496:108,1,148.50000453186,6|0,0:0|0:0,0:0:0:0:
503,11,71523,1,2,0:0:0:0:
388,212,71690,1,8,0:0:0:0:
256,12,71857,1,8,0:3:0:0:
124,212,72024,6,0,B|165:228|165:228|169:233|169:233|175:229|175:229|242:223,1,125.999996154785,6|0,0:0|0:0,0:0:0:0:
367,191,72524,1,0,0:0:0:0:
254,79,72690,2,0,P|210:95|183:133,1,94.499997116089,2|0,0:0|0:0,0:0:0:0:
180,155,73024,2,0,L|171:220,1,62.9999980773926,8|2,0:3|0:0,0:0:0:0:
407,298,73357,6,0,P|404:230|349:183,1,125.999996154785,2|0,0:0|0:0,0:0:0:0:
330,349,73857,1,0,0:0:0:0:
260,282,74024,5,2,0:0:0:0:
339,378,74190,1,2,0:0:0:0:
285,191,74357,2,0,B|263:184|263:184|213:189,1,62.9999980773926,8|2,0:0|0:0,0:0:0:0:
146,251,74690,6,0,P|123:194|140:133,1,125.999996154785,6|0,0:0|0:0,0:0:0:0:
234,47,75190,1,0,0:0:0:0:
374,180,75357,2,0,B|343:197|343:197|273:189,1,94.499997116089,2|0,0:0|0:0,0:0:0:0:
271,207,75690,2,0,B|206:198,1,62.9999980773926,2|2,0:0|0:0,0:0:0:0:
327,121,76024,5,2,0:0:0:0:
424,243,76190,1,0,0:0:0:0:
402,85,76357,2,0,B|340:92,1,62.9999980773926,2|2,0:0|0:0,0:0:0:0:
314,288,76690,5,2,0:0:0:0:
416,216,76857,1,2,0:0:0:0:
306,261,77024,1,2,0:0:0:0:
401,333,77190,1,2,0:0:0:0:
340,186,77357,6,0,B|309:179|309:179|213:193,1,125.999996154785,6|0,0:0|0:0,0:0:0:0:
100,145,77857,1,0,0:0:0:0:
6,278,78024,2,0,P|47:297|98:295,1,94.499997116089,2|0,0:0|0:0,0:0:0:0:
116,289,78357,2,0,B|108:214,1,62.9999980773926,2|2,0:0|0:0,0:0:0:0:
210,338,78690,5,2,0:0:0:0:
268,227,78857,2,0,B|291:204|291:204|316:235,1,62.9999980773926
194,365,79190,1,0,0:0:0:0:
190,361,79357,5,2,0:0:0:0:
109,226,79524,1,0,0:0:0:0:
269,321,79690,2,0,P|237:337|193:333,1,62.9999980773926,8|2,0:0|0:0,0:0:0:0:
330,209,80024,6,0,B|361:184|405:194|405:194|427:192|425:166|407:160,1,125.999996154785,6|0,0:0|0:0,0:0:0:0:
382,280,80524,1,0,0:0:0:0:
497,152,80690,2,0,P|478:107|440:78,1,94.499997116089,2|0,0:0|0:0,0:0:0:0:
422,75,81024,2,0,L|355:83,1,62.9999980773926,8|2,0:0|0:0,0:0:0:0:
382,280,81357,5,2,0:0:0:0:
410,161,81523,1,2,0:0:0:0:
262,282,81690,2,0,B|200:289,1,62.9999980773926,8|2,0:0|0:0,0:0:0:0:
223,198,82024,5,2,0:0:0:0:
294,347,82190,1,2,0:0:0:0:
306,124,82357,1,8,0:0:0:0:
314,132,82690,6,0,B|321:103|321:103|314:79|314:79|310:75|310:75|311:69|311:69|305:46|305:46|312:11,1,125.999996154785,6|0,0:0|0:0,0:0:0:0:
400,43,83190,1,2,0:0:0:0:
336,203,83357,2,0,B|304:207|304:207|277:196|277:196|244:198,1,94.499997116089,2|0,0:0|0:0,0:0:0:0:
226,210,83690,2,0,B|151:202,1,62.9999980773926,2|2,0:0|0:0,0:0:0:0:
60,76,84024,6,0,P|114:69|176:128,1,125.999996154785,2|0,0:0|0:0,0:0:0:0:
158,297,84524,1,0,0:0:0:0:
169,110,84690,5,2,0:0:0:0:
243,198,84857,1,2,0:0:0:0:
151,87,85024,2,0,B|89:94,1,62.9999980773926,8|2,0:0|0:0,0:0:0:0:
228,29,85357,6,0,B|275:13|275:13|371:42,1,125.999996154785,6|0,0:0|0:0,0:0:0:0:
364,229,85857,1,0,0:0:0:0:
402,140,86024,2,0,B|363:128|363:128|286:151,1,94.499997116089,2|0,0:0|0:0,0:0:0:0:
298,160,86357,2,0,P|266:161|238:148,1,62.9999980773926,2|2,0:0|0:0,0:0:0:0:
175,71,86690,5,2,0:0:0:0:
256,250,86856,1,2,0:0:0:0:
125,217,87024,2,0,P|118:186|118:155,1,62.9999980773926,8|2,0:0|0:0,0:0:0:0:
264,242,87357,5,2,2:0:0:0:
143,354,87523,1,2,2:0:0:0:
238,148,87690,2,0,L|307:139,1,67.5,8|0,0:0|0:0,0:0:0:0:
118,155,88024,6,0,B|106:187|118:216|118:216|127:239|118:272,1,116.999994644165,14|0,0:0|0:0,0:0:0:0:
216,126,88357,2,0,B|228:94|216:65|216:65|207:42|216:9,1,116.999994644165,8|0,0:0|0:0,0:0:0:0:
110,163,88690,2,0,B|101:196|117:223|117:223|129:245|124:279,1,116.999994644165,2|2,0:0|0:0,0:0:0:0:
216,126,89024,1,8,0:0:0:0:
412,193,89190,6,0,B|367:172|324:196|324:196|318:201|318:201|311:197|311:197|258:167|243:220|188:196,1,233.999989288331,6|0,0:0|0:0,0:0:0:0:
367,372,89690,2,0,B|393:316|368:247|368:247,1,116.999994644165,8|0,0:0|0:0,0:0:0:0:
189,196,90024,2,0,B|162:251|188:321|188:321,1,116.999994644165,2|2,0:0|0:0,0:0:0:0:
301,144,90357,1,8,0:0:0:0:
164,48,90524,1,0,0:0:0:0:
305,148,90690,5,6,0:0:0:0:
189,196,90857,1,0,0:0:0:0:
351,38,91024,1,8,0:0:0:0:
438,246,91190,2,0,B|384:220|384:220|268:234|268:234|209:206,1,233.999989288331,2|2,0:0|0:0,0:0:0:0:
305,148,91690,1,8,0:0:0:0:
224,328,91857,6,0,B|197:334|197:334|160:318|160:318|129:328|129:328|150:335,1,116.999994644165,6|0,0:0|0:0,0:0:0:0:
305,148,92190,2,0,B|331:141|331:141|368:157|368:157|399:147|399:147|378:140,1,116.999994644165,2|8,0:0|0:0,0:0:0:0:
216,320,92524,2,0,B|189:323|189:323|154:302|154:302|122:308|122:308|142:318,1,116.999994644165,2|8,0:0|0:0,0:0:0:0:
322,220,92857,1,2,0:0:0:0:
205,249,93024,1,8,0:0:0:0:
197,241,93357,6,0,B|184:222|181:201|181:201|178:196|178:196|181:190|181:190|184:169|198:148|198:148|212:108|196:82|192:68|192:68|197:99|185:119,1,233.999989288331,8|8,0:0|0:0,0:0:0:0:
275,328,93857,1,2,0:0:0:0:
353,166,94024,2,0,B|377:224|318:255|318:255|311:262|311:262|304:255|304:255|246:224|270:166,1,233.999989288331,8|8,0:0|0:0,0:0:0:0:
438,165,94524,2,0,P|443:194|440:224,1,58.4999973220826,2|2,0:0|0:0,0:0:0:0:
315,71,94690,5,8,0:0:0:0:
498,7,94857,1,2,0:0:0:0:
122,108,95024,5,8,0:0:0:0:
305,44,95191,1,2,0:0:0:0:
112,180,95357,6,0,B|78:174|61:149|61:149|36:174|36:216|36:216|30:220|30:220|36:224|36:224|36:266|59:304,1,233.999989288331,8|8,0:0|0:0,0:0:0:0:
261,282,95857,1,2,0:0:0:0:
261,282,95940,1,2,0:0:0:0:
261,282,96024,6,0,P|203:288|146:275,1,116.999994644165,12|2,0:0|0:0,0:0:0:0:
361,83,96357,5,12,0:0:0:0:
439,332,96524,1,2,0:0:0:0:
340,62,96690,5,12,0:0:0:0:
232,363,96857,1,2,0:0:0:0:
211,91,97024,1,2,0:0:0:0:
55,361,97190,5,8,0:0:0:0:
55,361,97524,5,2,0:0:0:0:
184,299,97690,2,0,B|226:286|277:298,1,94.499997116089,2|0,0:0|0:0,0:0:0:0:
367,350,98024,6,0,P|376:330|381:305,1,40.4999987640381,8|0,0:0|0:0,0:0:0:0:
355,218,98191,1,2,0:0:0:0:
340,188,98274,1,2,0:0:0:0:
325,158,98357,6,0,B|303:110|330:63|330:63|344:84|337:110,1,148.50000453186,8|0,0:0|0:0,0:0:0:0:
212,204,98690,6,0,B|195:221|167:224|167:224|162:229|162:229|156:224|156:224|131:221|113:204|113:204|73:193|49:205,1,175.499991966248,6|0,0:0|0:0,0:0:0:0:
52,203,99024,2,0,B|33:147|33:147|55:94,1,116.999994644165,8|0,0:0|0:0,0:0:0:0:
79,301,99357,1,2,0:0:0:0:
328,218,99524,2,0,L|205:203,1,116.999994644165,2|8,0:0|0:0,0:0:0:0:
71,309,99857,1,2,0:0:0:0:
172,127,100024,5,0,0:0:0:0:
297,314,100190,2,0,L|419:299,1,116.999994644165,2|8,0:0|0:0,0:0:0:0:
150,145,100524,2,0,P|125:197|141:252,1,116.999994644165,0|2,0:0|0:0,0:0:0:0:
204,326,100857,1,2,0:0:0:0:
241,109,101024,2,0,P|208:61|152:47,1,116.999994644165,8|0,0:0|0:0,0:0:0:0:
150,145,101357,6,0,B|169:154|194:156|194:156|198:160|198:160|203:156|203:156|237:154|262:136|262:136|279:130|296:136|290:158|270:158,1,175.499991966248,2|0,0:0|0:0,0:0:0:0:
271,158,101690,2,0,B|330:176|388:158|388:158,1,116.999994644165,8|0,0:0|0:0,0:0:0:0:
343,69,102024,5,2,0:0:0:0:
394,166,102190,1,2,0:0:0:0:
452,14,102357,1,8,0:0:0:0:
487,310,102524,6,0,B|436:277|385:306|385:306|368:289|368:289|321:321|270:291,1,233.999989288331,2|2,0:0|0:0,0:0:0:0:
303,105,103024,2,0,L|318:222,1,116.999994644165,8|0,0:0|0:0,0:0:0:0:
404,85,103357,5,2,0:0:0:0:
216,120,103524,1,2,0:0:0:0:
421,62,103690,1,8,0:0:0:0:
271,292,103857,1,0,0:0:0:0:
62,191,104024,6,0,B|34:176|26:137|26:137|20:133|20:133|25:127|25:127|23:89|44:68|44:68|65:68|76:88,1,175.499991966248,2|0,0:0|0:0,0:0:0:0:
70,79,104357,2,0,P|75:118|41:78,1,135.000005149842,12|0,0:0|0:0,0:0:0:0:
315,152,104690,5,2,0:0:0:0:
314,20,104857,1,2,0:0:0:0:
183,153,105023,1,8,0:0:0:0:
182,21,105190,1,2,0:0:0:0:
315,152,105357,6,0,B|358:165|401:152|401:152|370:138,1,116.999994644165,0|2,0:0|0:0,0:0:0:0:
182,21,105690,2,0,B|139:8|96:21|96:21|127:35,1,116.999994644165,8|0,0:0|0:0,0:0:0:0:
323,160,106024,2,0,B|367:167|408:149|408:149|375:139,1,116.999994644165,2|2,0:0|0:0,0:0:0:0:
175,161,106357,1,8,0:0:0:0:
322,12,106524,1,0,0:0:0:0:
95,160,106690,6,0,B|94:224|159:243|159:243|153:271|153:271|179:316|163:346|136:337|130:315,1,233.999989288331,2|8,0:0|0:0,0:0:0:0:
175,161,107190,1,0,0:0:0:0:
348,278,107357,2,0,L|231:263,1,116.999994644165,2|2,0:0|0:0,0:0:0:0:
415,121,107690,1,8,0:0:0:0:
304,384,107857,1,6,0:0:0:0:
304,384,108190,5,2,0:0:0:0:
96,231,108357,1,8,0:0:0:0:
115,362,108524,1,2,0:0:0:0:
183,178,108690,6,0,B|185:145|185:145|167:95|128:70|128:70|145:89|148:113,1,175.499991966248,2|0,0:0|0:0,0:0:0:0:
58,131,109024,6,0,B|157:104|153:187|247:145|258:135,1,202.500007724762,8|0,0:0|0:0,0:0:0:0:
386,107,109357,6,0,B|373:153|373:153|379:193|379:193|384:195|384:195|380:198|380:198|383:238|383:238|372:281,1,175.499991966248,6|0,0:0|0:0,0:0:0:0:
373,273,109690,2,0,B|318:253|257:273|257:273,1,116.999994644165,8|0,0:0|0:0,0:0:0:0:
251,16,110024,1,2,0:0:0:0:
86,159,110190,2,0,B|71:281,1,116.999994644165,2|8,0:0|0:0,0:0:0:0:
259,24,110524,1,2,0:0:0:0:
82,41,110690,5,0,0:0:0:0:
191,205,110857,2,0,B|176:88,1,116.999994644165,2|8,0:0|0:0,0:0:0:0:
356,278,111190,2,0,P|413:265|447:218,1,116.999994644165,0|2,0:0|0:0,0:0:0:0:
430,58,111524,1,2,0:0:0:0:
273,228,111690,2,0,P|255:283|279:336,1,116.999994644165,8|0,0:0|0:0,0:0:0:0:
356,278,112024,6,0,B|364:214|364:214|369:211|369:211|365:206|365:206|371:148|371:148|343:156|318:147,1,175.499991966248,2|0,0:0|0:0,0:0:0:0:
331,151,112357,2,0,P|320:119|360:153,1,116.999994644165,8|0,0:0|0:0,0:0:0:0:
253,251,112690,5,2,0:0:0:0:
383,119,112857,1,2,0:0:0:0:
342,377,113024,1,8,0:0:0:0:
190,165,113190,6,0,B|115:137|115:191|41:160|41:160|23:157|23:157|54:144|84:155,1,233.999989288331,2|2,0:0|0:0,0:0:0:0:
148,353,113690,2,0,B|160:295|160:295|150:239,1,116.999994644165,8|0,0:0|0:0,0:0:0:0:
9,331,114024,5,2,0:0:0:0:
296,266,114190,1,2,0:0:0:0:
68,223,114357,1,8,0:0:0:0:
333,342,114524,1,0,0:0:0:0:
232,135,114690,6,0,B|219:110|236:81|236:81|232:75|232:75|240:74|240:74|253:51|288:54|288:54|302:80|270:86|266:67,1,175.499991966248,2|0,0:0|0:0,0:0:0:0:
266,69,115024,2,0,B|216:61|216:61|185:38|185:38|134:32,1,135.000005149842,12|0,0:0|0:0,0:0:0:0:
52,322,115357,5,2,0:0:0:0:
12,160,115524,1,2,0:0:0:0:
206,284,115690,1,8,0:0:0:0:
169,125,115857,1,2,0:0:0:0:
52,322,116024,6,0,B|32:348|32:348|3:359|3:359|26:345|39:316|39:316,1,116.999994644165,0|2,0:0|0:0,0:0:0:0:
177,117,116357,2,0,B|196:90|196:90|225:79|225:79|202:93|189:122|189:122,1,116.999994644165,8|0,0:0|0:0,0:0:0:0:
44,330,116690,2,0,B|21:354|21:354|-10:361|-10:361|15:350|31:322|31:322,1,116.999994644165,2|2,0:0|0:0,0:0:0:0:
214,292,117024,1,8,0:0:0:0:
4,152,117190,1,0,0:0:0:0:
285,159,117357,6,0,B|276:190|285:220|285:220|328:263|310:328,1,175.499991966248,2|0,0:0|0:0,0:0:0:0:
214,292,117690,1,8,0:0:0:0:
399,246,117857,1,0,0:0:0:0:
140,203,118024,2,0,L|20:217,2,116.999994644165,2|2|8,0:0|0:0|0:0,0:0:0:0:
275,45,118524,6,0,B|282:96|282:96|286:102|286:102|281:108|281:108|258:152|258:152|279:212|279:212|274:183|284:159,1,233.999989288331,6|2,0:0|0:0,0:0:0:0:
180,86,119024,1,8,0:0:0:0:
280,332,119190,2,0,B|335:348|374:307|374:307|384:305|384:305|382:293|382:293|408:243|371:193,1,233.999989288331,6|2,0:0|0:0,0:0:0:0:
173,200,119690,5,8,0:0:0:0:
150,233,119774,1,8,0:0:0:0:
142,272,119857,1,8,0:0:0:0:
145,312,119941,1,8,0:0:0:0:
163,347,120024,6,0,B|118:365|63:365|24:339|24:339|19:320|26:303,1,175.499991966248,6|0,0:0|0:0,0:0:0:0:
39,272,120357,1,8,0:0:0:0:
192,366,120524,1,0,0:0:0:0:
123,146,120690,2,0,B|113:115|113:115|136:78|136:78|127:102|132:122,1,116.999994644165,2|2,0:0|0:0,0:0:0:0:
244,251,121024,1,8,0:0:0:0:
329,107,121190,6,0,B|297:99|273:115|273:115|249:99|217:107,1,116.999994644165,2|0,0:0|0:0,0:0:0:0:
244,251,121524,2,0,B|272:261|272:261|301:251|301:251|334:262|363:252,1,125.999996154785,2|8,0:0|0:0,0:0:0:0:
321,99,121857,2,0,B|291:83|291:83|259:91|259:91|225:73|225:73|193:80,1,135.000005149842,0|2,0:0|0:0,0:0:0:0:
115,262,122190,5,2,0:0:0:0:
85,151,122357,1,8,0:0:0:0:
145,373,122524,1,0,0:0:0:0:
413,249,122690,6,0,B|364:236|364:236|319:251|319:251|278:240|242:249,1,175.499991966248,2|0,0:0|0:0,0:0:0:0:
243,250,123024,2,0,B|229:193|229:193|243:134,1,116.999994644165,8|0,0:0|0:0,0:0:0:0:
425,47,123357,5,2,0:0:0:0:
401,177,123524,1,2,0:0:0:0:
414,17,123690,1,8,0:0:0:0:
435,178,123857,6,0,B|455:214|435:259|435:259|413:303|435:341|435:341|425:309|443:272,1,233.999989288331,2|2,0:0|0:0,0:0:0:0:
328,360,124357,1,8,0:0:0:0:
241,217,124524,2,0,B|297:199|360:218|360:218,1,116.999994644165,0|2,0:0|0:0,0:0:0:0:
258,305,124857,2,0,B|261:304|198:323|142:305,1,116.999994644165,2|8,0:0|0:0,0:0:0:0:
85,131,125191,1,8,0:0:0:0:
85,131,125273,1,8,0:0:0:0:
85,131,125357,6,0,B|138:115|201:131|201:131|218:106|250:98,1,175.499991966248,6|0,0:0|0:0,0:0:0:0:
288,98,125690,1,8,0:0:0:0:
85,131,125857,1,0,0:0:0:0:
269,262,126024,2,0,B|313:222|313:222|273:179,1,116.999994644165,2|2,0:0|0:0,0:0:0:0:
177,358,126357,1,8,0:0:0:0:
269,262,126524,6,0,B|305:245|351:264|351:264|376:259|358:230,1,116.999994644165,2|0,0:0|0:0,0:0:0:0:
177,358,126857,2,0,B|141:375|141:375|94:355|94:355|68:368|94:383,1,125.999996154785,2|8,0:0|0:0,0:0:0:0:
277,254,127190,2,0,B|314:241|359:266|359:266|384:265|369:233,1,116.999994644165,0|2,0:0|0:0,0:0:0:0:
254,95,127524,5,2,0:0:0:0:
277,254,127690,1,8,0:0:0:0:
341,37,127857,1,0,0:0:0:0:
130,120,128024,6,0,B|121:175|121:175|134:238|134:238|127:302,1,175.499991966248,2|0,0:0|0:0,0:0:0:0:
128,293,128357,2,0,B|186:307|186:307|245:279,1,116.999994644165,8|0,0:0|0:0,0:0:0:0:
32,248,128690,2,0,P|22:305|44:358,2,116.999994644165,2|2|8,0:0|0:0|0:0,0:0:0:0:
237,282,129190,6,0,B|186:307|186:307|128:293,1,116.999994644165,2|0,0:0|0:0,0:0:0:0:
314,153,129524,1,2,0:0:0:0:
364,312,129690,1,8,0:0:0:0:
208,140,129857,2,0,B|181:105|181:105|172:32|237:8|237:8|212:39|216:71,1,233.999989288331,2|2,0:0|0:0,0:0:0:0:
336,66,130274,1,2,0:0:0:0:
296,66,130357,1,8,0:0:0:0:
454,11,130524,2,0,L|446:70,1,58.4999973220826,8|8,0:0|0:0,0:0:0:0:
362,282,130690,6,0,B|364:251|350:230|350:230|339:177|383:141|428:154,1,175.499991966248,6|0,0:0|0:0,0:0:0:0:
455,164,131024,1,8,0:0:0:0:
341,309,131190,1,0,0:0:0:0:
169,153,131357,2,0,B|126:141|88:153|88:153|104:142|114:129,1,116.999994644165,2|2,0:0|0:0,0:0:0:0:
128,261,131690,1,8,0:0:0:0:
251,175,131857,6,0,B|258:146|246:115|246:115|235:88|248:60,1,116.999994644165,2|0,0:0|0:0,0:0:0:0:
128,261,132190,2,0,B|121:290|121:290|133:321|133:321|142:351|131:386,1,125.999996154785,2|8,0:0|0:0,0:0:0:0:
259,167,132524,2,0,B|266:136|266:136|247:106|247:106|243:70|243:70|255:37,1,135.000005149842,0|2,0:0|0:0,0:0:0:0:
384,214,132857,5,2,0:0:0:0:
403,83,133024,1,8,0:0:0:0:
365,340,133190,1,0,0:0:0:0:
192,274,133357,6,0,B|134:264|134:264|87:289|57:287|46:264|59:236|86:252,1,175.499991966248,2|0,0:0|0:0,0:0:0:0:
80,249,133690,2,0,B|84:293|84:293|74:322|74:322|77:367,1,116.999994644165,8|0,0:0|0:0,0:0:0:0:
13,148,134024,5,2,0:0:0:0:
126,81,134190,1,2,0:0:0:0:
8,21,134357,1,8,0:0:0:0:
144,108,134524,6,0,B|200:128|261:108|261:108,1,116.999994644165,2|0,0:0|0:0,0:0:0:0:
202,30,134857,1,2,0:0:0:0:
254,250,135024,1,8,0:0:0:0:
436,179,135190,2,0,B|380:159|319:179|319:179,1,116.999994644165,2|0,0:0|0:0,0:0:0:0:
130,232,135524,5,2,0:0:0:0:
202,129,135690,1,8,0:0:0:0:
2,269,135857,1,2,0:0:0:0:
179,322,136024,6,0,B|240:338|240:338|257:355|257:355|279:348|279:348|341:365,1,175.499991966248,6|0,0:0|0:0,0:0:0:0:
380,375,136357,1,8,0:0:0:0:
179,322,136524,1,0,0:0:0:0:
373,197,136690,2,0,B|395:216|389:252|389:252|361:275|330:267,1,116.999994644165,2|2,0:0|0:0,0:0:0:0:
275,117,137024,1,8,0:0:0:0:
179,210,137190,6,0,B|162:249|185:283|185:283|191:308|175:326,1,116.999994644165,2|0,0:0|0:0,0:0:0:0:
275,117,137524,2,0,B|286:82|270:55|270:55|243:45|246:18|269:12|282:33,1,125.999996154785,2|8,0:0|0:0,0:0:0:0:
171,218,137857,2,0,B|164:254|183:278|183:278|211:285|211:312|189:321|174:302,1,125.999996154785,0|2,0:0|0:0,0:0:0:0:
338,201,138190,5,2,0:0:0:0:
171,218,138357,1,8,0:0:0:0:
376,110,138524,1,0,0:0:0:0:
151,121,138690,6,0,B|80:121|44:72|44:72|55:100|46:125,1,175.499991966248,2|0,0:0|0:0,0:0:0:0:
46,123,139024,2,0,P|-4:120|50:88,1,116.999994644165,8|0,0:0|0:0,0:0:0:0:
112,248,139357,1,2,0:0:0:0:
178,26,139524,1,2,0:0:0:0:
231,184,139690,1,8,0:0:0:0:
326,84,139857,6,0,B|351:52|408:45|408:45|395:67,1,116.999994644165,2|0,0:0|0:0,0:0:0:0:
216,213,140190,1,2,0:0:0:0:
81,185,140357,2,0,B|40:179|6:133|6:133|31:133,1,116.999994644165,12|0,0:0|0:0,0:0:0:0:
307,254,140690,6,0,L|394:243,2,77.9999964294435,0|0|0,3:0|3:0|3:0,3:0:0:0:
196,333,141024,2,0,L|108:322,2,77.9999964294435,2|0|0,3:2|3:0|3:0,3:0:0:0:
295,355,141357,6,0,B|330:331|333:285|333:285|312:244|270:237,1,161.999995056153,2|0,0:0|0:0,0:0:0:0:
269,241,141857,1,0,0:0:0:0:
406,105,142024,1,2,0:0:0:0:
276,122,142190,1,0,0:0:0:0:
276,122,142524,6,0,B|216:129|216:129|172:134|148:109|148:109|164:104|179:110,1,161.999995056153,2|0,0:0|0:0,0:0:0:0:
75,149,143024,2,0,B|58:109|75:65|75:65,1,80.9999975280763
143,228,143357,2,0,B|160:268|143:312|143:312,1,80.9999975280763,2|0,0:0|0:0,0:0:0:0:
22,269,143690,1,0,0:0:0:0:
22,269,144024,6,0,B|41:256|73:255|73:255|104:274|137:283|176:262,1,161.999995056153,2|0,0:0|0:0,0:0:0:0:
276,197,144524,1,0,0:0:0:0:
388,266,144690,2,0,L|378:345,1,80.9999975280763,2|0,0:0|0:0,0:0:0:0:
286,166,145024,1,0,0:0:0:0:
383,120,145190,6,0,P|411:110|377:112,1,80.9999975280763,0|2,0:0|0:0,0:0:0:0:
473,157,145524,2,0,P|487:119|483:78,1,80.9999975280763
388,266,145857,1,0,0:0:0:0:
256,167,146024,2,0,B|261:168|217:158|176:168,1,80.9999975280763,2|0,0:0|0:0,0:0:0:0:
380,61,146357,1,0,0:0:0:0:
380,61,146690,6,0,B|371:100|371:100|390:149|390:149|394:173|379:187|379:187|362:176|372:161,1,161.999995056153,2|0,0:0|0:0,0:0:0:0:
470,83,147190,1,0,0:0:0:0:
322,242,147357,1,2,0:0:0:0:
449,218,147524,2,0,P|399:260|346:254,1,121.499996292114
322,242,147857,6,0,B|285:230|252:242|252:242|238:231|238:231|201:246|166:231,1,161.999995056153,2|0,0:0|0:0,0:0:0:0:
201,142,148357,1,0,0:0:0:0:
286,320,148524,1,0,0:0:0:0:
309,129,148690,2,0,L|224:139,1,80.9999975280763,2|0,0:0|0:0,0:0:0:0:
354,24,149024,1,0,0:0:0:0:
354,24,149357,6,0,B|395:37|409:79,1,80.9999975280763,2|0,2:0|0:0,0:0:0:0:
419,182,149690,1,0,0:0:0:0:
233,148,149857,2,0,B|265:119|309:128,1,80.9999975280763,0|2,2:0|0:0,0:0:0:0:
297,327,150190,1,0,0:0:0:0:
334,234,150357,1,0,0:0:0:0:
199,321,150524,6,0,B|159:325|159:325|121:309|121:309|78:312,1,121.499996292114,6|0,0:0|0:0,0:0:0:0:
172,244,150857,1,2,0:0:0:0:
13,361,151024,1,8,0:0:0:0:
264,174,151190,6,0,B|224:178|224:178|186:162|186:162|143:165,1,121.499996292114,6|0,0:0|0:0,0:0:0:0:
118,168,151524,2,0,B|114:148|118:124|118:124,1,40.4999987640381,2|2,0:0|0:0,0:0:0:0:
172,244,151690,1,8,0:0:0:0:
385,95,151857,1,8,0:0:0:0:
385,95,151940,1,8,0:0:0:0:
385,95,152024,6,0,B|405:113|408:138|408:138|414:145|414:145|408:150|408:150|405:176|388:196|388:196|368:220|386:252|386:252|397:243|398:223,1,198.000006042481,6|8,0:0|0:0,0:0:0:0:
294,146,152524,1,0,0:0:0:0:
488,170,152690,1,2,0:0:0:0:
406,381,152857,2,0,L|401:336,1,45,2|8,0:0|0:0,0:0:0:0:
401,336,153190,6,0,B|351:316|304:336|304:336|275:349|246:336|246:336|268:340|287:332,1,198.000006042481,2|2,0:0|0:0,0:0:0:0:
247,160,153690,2,0,L|260:259,1,99.0000030212403,8|0,0:0|0:0,0:0:0:0:
138,196,154024,2,0,L|150:97,1,99.0000030212403,2|0,0:0|0:0,0:0:0:0:
263,262,154357,1,8,0:0:0:0:
263,262,154690,6,0,B|299:277|341:258|341:258|342:247|342:247|353:253|353:253|408:231|422:279|380:291|364:261,1,198.000006042481,6|8,0:0|0:0,0:0:0:0:
296,168,155190,1,0,0:0:0:0:
481,216,155357,2,0,B|497:265|480:316|480:316,1,99.0000030212403,2|2,0:0|0:0,0:0:0:0:
316,145,155690,1,8,0:0:0:0:
172,320,155857,6,0,P|170:361|201:333,1,99.0000030212403,2|0,0:0|0:0,0:0:0:0:
96,269,156190,2,0,P|72:311|72:364,1,99.0000030212403,2|8,0:0|0:0,0:0:0:0:
252,282,156524,1,0,0:0:0:0:
145,162,156690,2,0,B|148:162|96:153|46:162,1,99.0000030212403,2|2,0:0|0:0,0:0:0:0:
330,327,157024,1,8,0:0:0:0:
330,327,157357,6,0,B|338:284|338:284|329:260|329:260|323:258|323:258|324:250|324:250|317:227|317:227|325:186|325:186|323:214|335:235,1,198.000006042481,6|8,0:0|0:0,0:0:0:0:
417,193,157857,1,0,0:0:0:0:
313,354,158024,1,2,0:0:0:0:
280,132,158190,1,2,0:0:0:0:
288,124,158357,1,8,0:0:0:0:
100,179,158524,6,0,B|87:226|87:226|100:280|100:280|66:317|81:367,1,198.000006042481,2|2,0:0|0:0,0:0:0:0:
260,228,159024,2,0,B|212:218|212:218|162:227,1,99.0000030212403,8|0,0:0|0:0,0:0:0:0:
162,339,159357,2,0,B|210:349|210:349|259:339,1,99.0000030212403,2|2,0:0|0:0,0:0:0:0:
373,185,159690,1,8,0:0:0:0:
373,185,160024,6,0,B|353:190|337:207|337:207|329:208|329:208|331:216|331:216|324:241|331:263,1,99.0000030212403,6|0,0:0|0:0,0:0:0:0:
333,29,160357,1,8,0:0:0:0:
453,178,160524,2,0,P|434:133|393:107,1,99.0000030212403,0|2,0:0|0:0,0:0:0:0:
181,201,160857,1,2,0:0:0:0:
406,255,161024,1,8,0:0:0:0:
167,120,161190,6,0,B|118:115|118:115|70:133|70:133|0:128,1,148.50000453186,6|0,0:0|0:0,0:0:0:0:
55,35,161524,1,2,0:0:0:0:
163,227,161690,1,8,0:0:0:0:
345,120,161857,6,0,B|394:115|394:115|442:133|442:133|512:128,1,148.50000453186,6|0,0:0|0:0,0:0:0:0:
457,35,162191,1,2,0:0:0:0:
349,227,162357,1,8,0:0:0:0:
256,21,162524,1,0,0:0:0:0:
141,180,162690,6,0,B|129:217|129:217|124:221|124:221|128:227|128:227|135:302,1,125.999996154785,6|0,0:0|0:0,2:0:0:0:
203,373,163190,1,2,0:0:0:0:
307,288,163357,2,0,B|260:277|260:277|215:289,1,94.499997116089,2|0,0:0|0:0,0:0:0:0:
197,300,163690,2,0,B|164:304|133:300|133:300,1,62.9999980773926,8|0,0:0|0:0,0:0:0:0:
384,232,164024,6,0,B|377:281|391:331|391:331|398:316|397:301,1,125.999996154785,2|0,0:0|0:0,0:0:0:0:
449,189,164524,1,0,0:0:0:0:
358,248,164690,5,2,0:0:0:0:
476,298,164857,1,2,0:0:0:0:
352,105,165024,2,0,B|342:125|342:125|345:179,1,62.9999980773926,8|2,0:0|0:0,0:0:0:0:
409,55,165357,6,0,B|377:34|377:34|332:28|291:50,1,125.999996154785,6|0,0:0|0:0,0:0:0:0:
186,121,165857,1,0,0:0:0:0:
265,299,166024,2,0,P|283:253|270:201,1,94.499997116089,2|0,0:0|0:0,0:0:0:0:
259,195,166357,2,0,B|197:201,1,62.9999980773926,2|2,0:0|0:0,0:0:0:0:
74,309,166690,5,2,0:0:0:0:
15,196,166856,1,0,0:0:0:0:
71,342,167023,2,0,B|133:335,1,62.9999980773926,2|2,0:0|0:0,0:0:0:0:
265,299,167357,5,2,0:0:0:0:
169,219,167524,1,2,0:0:0:0:
362,351,167690,1,2,0:0:0:0:
266,271,167857,1,2,0:0:0:0:
414,131,168024,6,0,B|431:161|431:161|424:257,1,125.999996154785,6|0,0:0|0:0,0:0:0:0:
330,341,168524,1,2,0:0:0:0:
236,183,168690,2,0,P|280:170|334:178,1,94.499997116089,2|0,0:0|0:0,0:0:0:0:
348,183,169023,2,0,B|342:245,1,62.9999980773926,2|2,0:0|0:0,0:0:0:0:
241,369,169357,6,0,B|235:307,1,62.9999980773926,2|0,0:0|0:0,0:0:0:0:
343,246,169690,1,0,0:0:0:0:
236,183,169857,1,0,0:0:0:0:
232,187,170024,5,2,0:0:0:0:
241,369,170190,1,0,0:0:0:0:
343,246,170357,2,0,P|312:245|282:254,1,62.9999980773926,8|2,0:0|0:0,0:0:0:0:
210,375,170690,6,0,B|172:380|172:380|124:369|124:369|83:374,1,125.999996154785,6|0,0:0|0:0,0:0:0:0:
1,274,171190,1,0,0:0:0:0:
178,194,171357,2,0,P|193:239|187:286,1,94.499997116089,2|0,0:0|0:0,0:0:0:0:
179,305,171690,2,0,B|241:299,1,62.9999980773926,8|2,0:0|0:0,0:0:0:0:
399,205,172024,5,2,0:0:0:0:
400,364,172190,1,2,0:0:0:0:
416,180,172357,2,0,B|407:104,1,62.9999980773926,8|2,0:0|0:0,0:0:0:0:
327,243,172690,5,2,0:0:0:0:
484,277,172857,1,2,0:0:0:0:
292,158,173024,1,8,0:0:0:0:
284,166,173357,6,0,B|277:137|277:137|284:113|284:113|288:109|288:109|287:103|287:103|293:80|293:80|286:45,1,125.999996154785,6|0,0:0|0:0,0:0:0:0:
181,124,173857,1,0,0:0:0:0:
361,198,174024,2,0,B|363:229|363:229|351:259|351:259|354:290,1,94.499997116089,2|0,0:0|0:0,0:0:0:0:
357,312,174357,2,0,B|418:304,1,62.9999980773926,2|2,0:0|0:0,0:0:0:0:
290,216,174690,6,0,B|268:208|246:217|246:217|208:242|168:223,1,125.999996154785,2|0,0:0|0:0,0:0:0:0:
271,285,175190,1,0,0:0:0:0:
81,168,175357,5,2,0:0:0:0:
77,271,175524,1,0,0:0:0:0:
201,157,175690,2,0,P|207:127|201:94,1,62.9999980773926,8|2,0:0|0:0,0:0:0:0:
271,285,176024,6,0,B|310:300|351:278|351:278|394:287,1,125.999996154785,6|0,0:0|0:0,0:0:0:0:
306,187,176524,1,0,0:0:0:0:
399,360,176690,2,0,P|448:341|472:307,1,94.499997116089,2|0,0:0|0:0,0:0:0:0:
477,287,177024,2,0,B|471:225,1,62.9999980773926,8|2,0:0|0:0,0:0:0:0:
424,140,177357,5,2,0:0:0:0:
279,197,177523,1,2,0:0:0:0:
418,112,177690,2,0,P|451:112|494:121,1,62.9999980773926,8|2,0:0|0:0,0:0:0:0:
267,227,178024,5,2,0:0:0:0:
351,17,178191,1,2,0:0:0:0:
212,109,178357,2,0,L|203:177,1,67.5,8|0,0:0|0:0,0:0:0:0:
122,36,178690,6,0,B|84:26|47:45|47:45|0:26,1,116.999994644165,14|0,0:0|0:0,0:0:0:0:
212,109,179024,2,0,B|250:119|287:100|287:100|334:119,1,116.999994644165,8|0,0:0|0:0,0:0:0:0:
114,28,179357,2,0,B|77:28|77:28|40:46|40:46|-8:32,1,116.999994644165,2|2,0:0|0:0,0:0:0:0:
174,192,179690,1,8,0:0:0:0:
95,326,179857,6,0,B|76:284|96:239|96:239|101:233|101:233|97:226|97:226|73:172|115:154|96:101,1,233.999989288331,6|2,0:0|0:0,0:0:0:0:
289,191,180357,2,0,B|232:208|172:191|172:191,1,116.999994644165,8|0,0:0|0:0,0:0:0:0:
353,54,180690,6,0,L|360:112,1,58.4999973220826,2|2,0:0|0:0,0:0:0:0:
445,163,180857,1,2,0:0:0:0:
438,216,180940,1,2,0:0:0:0:
431,271,181024,1,8,0:0:0:0:
209,333,181190,6,0,B|229:324|241:307|241:307|258:295|286:293|286:293|296:289|296:289|303:296|303:296|327:305|351:330|351:330|323:313|288:316,1,233.999989288331,6|2,0:0|0:0,0:0:0:0:
168,246,181690,2,0,P|164:188|188:133,1,116.999994644165,8|0,0:0|0:0,0:0:0:0:
382,169,182024,1,2,0:0:0:0:
255,204,182190,1,2,0:0:0:0:
411,161,182357,1,8,0:0:0:0:
242,69,182524,6,0,B|200:48|200:48|137:58|137:58|130:66|130:66|124:58|124:58|72:28|20:55,1,233.999989288331,2|2,0:0|0:0,0:0:0:0:
53,253,183024,2,0,L|67:136,1,116.999994644165,8|2,0:0|0:0,0:0:0:0:
49,286,183357,2,0,L|-8:278,1,58.4999973220826,2|0,0:0|0:0,0:0:0:0:
72,103,183524,2,0,L|14:95,1,58.4999973220826,2|0,0:0|0:0,0:0:0:0:
218,214,183690,1,8,0:0:0:0:
218,214,184024,6,0,B|234:273|186:310|186:310|186:319|186:319|179:314|179:314|123:337|79:294,1,233.999989288331,2|8,0:0|0:0,0:0:0:0:
305,161,184524,1,0,0:0:0:0:
218,214,184690,1,2,0:0:0:0:
276,63,184857,2,0,L|333:55,1,58.4999973220826,2|0,0:0|0:0,0:0:0:0:
210,222,185024,2,0,L|152:214,1,58.4999973220826,10|0,0:0|0:0,0:0:0:0:
462,259,185190,6,0,B|472:175|472:175|455:145|455:145|479:120|479:120|489:36,1,233.999989288331,2|2,0:0|0:0,0:0:0:0:
380,269,185607,1,0,0:0:0:0:
380,269,185690,2,0,P|404:321|464:341,1,116.999994644165,8|0,0:0|0:0,0:0:0:0:
462,259,186024,1,2,0:0:0:0:
285,346,186191,1,2,0:0:0:0:
493,245,186357,1,8,0:0:0:0:
240,208,186524,6,0,B|196:204|168:177|168:177|163:177|163:177|163:172|163:172|146:145|152:102|152:102|158:146|195:160,1,233.999989288331,6|0,0:0|0:0,0:0:0:0:
322,36,187024,2,0,P|265:49|226:98,1,116.999994644165,8|0,0:0|0:0,0:0:0:0:
249,288,187274,1,2,0:0:0:0:
249,288,187357,1,2,0:0:0:0:
322,143,187524,1,2,0:0:0:0:
411,278,187690,1,8,0:0:0:0:
38,292,187857,6,0,B|69:275|69:275|130:303|130:303|135:309|135:309|139:303|139:303|175:286|175:286|215:306|251:286,1,233.999989288331,2|2,0:0|0:0,0:0:0:0:
149,104,188357,2,0,L|134:225,1,116.999994644165,8|0,0:0|0:0,0:0:0:0:
153,71,188690,2,0,L|93:63,1,58.4999973220826,2|0,0:0|0:0,0:0:0:0:
130,253,188857,2,0,L|70:245,1,58.4999973220826,2|0,0:0|0:0,0:0:0:0:
300,182,189024,1,8,0:0:0:0:
300,182,189357,6,0,B|330:129|293:80|293:80|296:72|296:72|288:75|288:75|240:38|186:68,1,233.999989288331,2|8,0:0|0:0,0:0:0:0:
276,276,189857,1,2,0:0:0:0:
327,279,189940,1,2,0:0:0:0:
369,249,190024,1,2,2:0:0:0:
206,208,190190,2,0,L|191:329,1,116.999994644165,2|8,0:0|0:0,0:0:0:0:
145,30,190524,6,0,B|135:114|135:114|152:144|152:144|128:169|128:169|117:253,1,233.999989288331,2|2,0:0|0:0,0:0:0:0:
56,132,191024,1,8,0:0:0:0:
322,207,191190,2,0,B|257:229|201:206|201:206,1,116.999994644165,2|0,0:0|0:0,0:0:0:0:
314,63,191524,1,8,0:0:0:0:
358,51,191607,1,8,0:0:0:0:
403,55,191690,1,8,0:0:0:0:
446,72,191774,1,8,0:0:0:0:
482,100,191857,6,0,B|517:144|490:199|490:199|482:199|482:199|486:208|486:208|464:253|486:272|486:272|506:253|486:208,1,233.999989288331,6|2,0:0|0:0,0:0:0:0:
404,244,192357,2,0,P|418:300|461:340,1,116.999994644165,8|0,0:0|0:0,0:0:0:0:
425,153,192690,2,0,L|363:145,1,58.4999973220826,2|0,0:0|0:0,0:0:0:0:
312,294,192857,2,0,L|250:301,1,58.4999973220826,2|0,0:0|0:0,0:0:0:0:
264,106,193024,1,8,0:0:0:0:
82,192,193190,6,0,B|124:169|176:198|176:198|182:204|182:204|187:198|187:198|224:182|224:182|263:195|263:195|302:184,1,233.999989288331,2|2,0:0|0:0,0:0:0:0:
198,2,193690,2,0,L|183:120,1,116.999994644165,8|0,0:0|0:0,0:0:0:0:
91,48,194024,1,2,0:0:0:0:
284,84,194190,2,0,L|346:76,1,58.4999973220826,2|0,0:0|0:0,0:0:0:0:
128,262,194357,1,8,0:0:0:0:
128,262,194690,6,0,B|74:290|27:252|27:252|19:255|19:255|22:247|22:247|-14:197|17:145,1,233.999989288331,2|8,0:0|0:0,0:0:0:0:
223,239,195190,1,0,0:0:0:0:
155,168,195357,1,2,0:0:0:0:
196,333,195524,2,0,L|312:319,1,116.999994644165,2|8,0:0|0:0,0:0:0:0:
459,145,195857,6,0,B|469:229|469:229|452:259|452:259|476:284|476:284|486:368,1,233.999989288331,2|2,0:0|0:0,0:0:0:0:
373,161,196357,2,0,P|380:99|429:63,1,116.999994644165,8|0,0:0|0:0,0:0:0:0:
462,148,196607,1,2,0:0:0:0:
462,148,196690,1,2,0:0:0:0:
288,59,196857,1,2,0:0:0:0:
490,161,197024,1,8,0:0:0:0:
281,258,197190,6,0,B|246:282|197:286|197:286|192:293|192:293|187:286|187:286|145:286|112:269|112:269|140:275|169:266,1,233.999989288331,6|2,0:0|0:0,0:0:0:0:
42,311,197690,2,0,P|32:254|64:202,1,116.999994644165,8|0,0:0|0:0,0:0:0:0:
117,357,197940,1,2,0:0:0:0:
117,357,198024,1,2,0:0:0:0:
216,155,198190,1,2,0:0:0:0:
324,327,198357,1,8,0:0:0:0:
333,89,198524,6,0,B|304:80|304:80|269:87|269:87|266:91|266:91|261:87|261:87|210:58|165:91,1,175.499991966248,2|2,0:0|0:0,0:0:0:0:
202,271,198857,2,0,L|215:154,1,116.999994644165,2|8,0:0|0:0,0:0:0:0:
210,279,199107,2,0,L|223:162,1,116.999994644165,2|0,0:0|0:0,0:0:0:0:
376,242,199357,2,0,L|316:234,1,58.4999973220826,2|0,0:0|0:0,0:0:0:0:
205,312,199524,2,0,L|145:304,1,58.4999973220826,2|0,0:0|0:0,0:0:0:0:
229,129,199690,1,8,0:0:0:0:
229,129,200024,6,0,B|273:88|328:113|328:113|335:107|335:107|334:116|334:116|382:155|365:213,1,233.999989288331,2|8,0:0|0:0,0:0:0:0:
377,36,200524,1,2,0:0:0:0:
289,185,200690,5,0,3:0:0:0:
289,208,200774,1,0,3:0:0:0:
289,230,200857,1,0,3:0:0:0:
289,252,200940,5,0,3:0:0:0:
331,287,201024,1,0,3:0:0:0:
385,292,201107,1,0,3:0:0:0:
437,276,201190,2,0,L|444:214,1,58.4999973220826
429,362,201357,6,0,B|358:397|320:328|234:367|234:367|272:354|304:370,1,270,2|0,0:0|0:0,0:0:0:0:
204,378,202690,6,0,B|192:341|192:341|187:337|187:337|191:331|191:331|198:256,1,125.999996154785,6|0,0:0|0:0,2:0:0:0:
265,327,203190,1,0,0:0:0:0:
113,269,203357,2,0,B|108:216|153:185,1,94.499997116089,2|0,0:0|0:0,0:0:0:0:
169,177,203690,2,0,B|107:171,1,62.9999980773926,2|2,0:0|0:0,0:0:0:0:
267,65,204024,6,0,B|274:94|274:94|257:152|257:152|264:188,1,125.999996154785,2|0,0:0|0:0,0:0:0:0:
352,156,204524,1,2,0:0:0:0:
312,280,204690,5,2,0:0:0:0:
361,128,204857,1,2,0:0:0:0:
444,304,205024,2,0,L|436:370,1,62.9999980773926,8|2,0:0|0:0,0:0:0:0:
385,249,205357,6,0,P|437:223|508:256,1,125.999996154785,6|0,0:0|0:0,0:0:0:0:
437,366,205857,1,0,0:0:0:0:
250,326,206024,2,0,B|233:295|233:295|241:225,1,94.499997116089,2|0,0:0|0:0,0:0:0:0:
255,221,206357,2,0,L|249:159,1,62.9999980773926,2|2,0:0|0:0,0:0:0:0:
313,280,206690,5,2,0:0:0:0:
176,200,206856,1,2,0:0:0:0:
323,252,207023,2,0,P|354:253|387:248,1,62.9999980773926,8|2,0:0|0:0,0:0:0:0:
351,158,207357,5,2,0:0:0:0:
412,316,207524,1,2,0:0:0:0:
327,178,207690,1,10,0:0:0:0:
313,280,207857,1,2,0:0:0:0:
176,200,208024,6,0,B|75:194|75:194|95:211,1,125.999996154785,6|0,0:0|0:0,0:0:0:0:
184,119,208524,1,0,0:0:0:0:
15,231,208690,2,0,P|8:175|38:128,1,94.499997116089,2|0,0:0|0:0,0:0:0:0:
37,125,209024,2,0,B|113:116,1,62.9999980773926,2|2,0:0|0:0,0:0:0:0:
255,234,209357,5,2,0:0:0:0:
99,271,209524,2,0,B|90:241|90:241|95:207,1,62.9999980773926
284,237,209857,1,0,0:0:0:0:
280,241,210024,5,2,0:0:0:0:
153,347,210190,1,2,0:0:0:0:
201,159,210357,2,0,P|232:155|269:159,1,62.9999980773926,8|2,0:0|0:0,0:0:0:0:
382,218,210690,6,0,P|402:160|376:99,1,125.999996154785,6|0,0:0|0:0,0:0:0:0:
471,192,211190,1,0,0:0:0:0:
310,162,211357,2,0,B|280:158|280:158|246:167|246:167|214:162,1,94.499997116089,2|0,0:0|0:0,0:0:0:0:
196,159,211690,2,0,P|191:192|196:222,1,62.9999980773926,8|2,0:0|0:0,0:0:0:0:
300,243,212024,5,2,0:0:0:0:
242,92,212190,1,2,0:0:0:0:
130,255,212357,2,0,B|121:331,1,62.9999980773926,8|2,0:0|0:0,0:0:0:0:
270,256,212690,5,2,0:0:0:0:
109,234,212857,1,2,0:0:0:0:
334,192,213024,1,8,0:0:0:0:
342,200,213357,6,0,B|349:229|349:229|342:253|342:253|338:257|338:257|339:263|339:263|333:286|333:286|340:321,1,125.999996154785,6|0,0:0|0:0,0:0:0:0:
431,288,213857,1,2,0:0:0:0:
251,352,214024,2,0,B|216:359|216:359|159:345,1,94.499997116089,2|0,0:0|0:0,0:0:0:0:
138,340,214357,2,0,P|104:338|67:344,1,62.9999980773926,2|2,0:0|0:0,0:0:0:0:
199,196,214690,6,0,B|209:188|216:176|216:176|233:219|219:278,1,125.999996154785,2|0,0:0|0:0,0:0:0:0:
151,144,215190,1,2,0:0:0:0:
310,180,215357,5,2,0:0:0:0:
199,295,215524,1,2,0:0:0:0:
287,162,215691,2,0,L|364:152,1,62.9999980773926,8|2,0:0|0:0,0:0:0:0:
465,269,216024,6,0,B|400:291|400:246|337:269,1,125.999996154785,6|0,0:0|0:0,0:0:0:0:
432,191,216524,1,0,0:0:0:0:
369,340,216690,2,0,P|326:343|280:314,1,94.499997116089,2|0,0:0|0:0,0:0:0:0:
272,299,217024,2,0,L|210:306,1,62.9999980773926,8|2,0:0|0:0,0:0:0:0:
91,363,217357,5,2,0:0:0:0:
147,181,217523,1,2,0:0:0:0:
210,306,217690,2,0,B|219:382,1,62.9999980773926,8|0,0:0|0:0,0:0:0:0:
267,247,218024,5,2,2:0:0:0:
99,355,218190,1,2,2:0:0:0:
231,171,218357,2,0,P|264:164|299:168,1,67.5,8|0,0:0|0:0,0:0:0:0:
142,197,218690,6,0,B|126:153|162:130|144:77,1,116.999994644165,14|0,0:0|0:0,0:0:0:0:
267,247,219024,2,0,B|283:291|247:314|265:367,1,116.999994644165,8|0,0:0|0:0,0:0:0:0:
134,189,219357,2,0,B|123:143|162:124|150:70,1,116.999994644165,2|2,0:0|0:0,0:0:0:0:
267,247,219690,1,8,0:0:0:0:
456,174,219857,6,0,B|410:190|410:190|363:174|363:174|358:168|358:168|353:174|353:174|297:195|288:155|235:177,1,233.999989288331,6|2,0:0|0:0,0:0:0:0:
509,119,220357,2,0,B|553:182|509:229|509:229,1,116.999994644165,8|0,0:0|0:0,0:0:0:0:
320,108,220690,2,0,B|276:45|320:-2|320:-2,1,116.999994644165,2|2,0:0|0:0,0:0:0:0:
456,174,221024,1,8,0:0:0:0:
338,325,221190,1,0,0:0:0:0:
460,170,221357,5,6,0:0:0:0:
300,193,221524,1,0,0:0:0:0:
477,331,221690,1,8,0:0:0:0:
512,108,221857,2,0,B|463:93|463:93|344:120|344:120|285:104,1,233.999989288331,2|2,0:0|0:0,0:0:0:0:
327,21,222357,1,8,0:0:0:0:
297,216,222524,6,0,B|252:220|252:220|220:205|220:205|243:210|266:204,1,116.999994644165,6|0,0:0|0:0,0:0:0:0:
327,21,222857,2,0,B|372:17|372:17|404:32|404:32|381:27|358:33,1,116.999994644165,2|8,0:0|0:0,0:0:0:0:
289,208,223190,2,0,B|243:206|243:206|213:187|213:187|236:195|259:192,1,116.999994644165,2|8,0:0|0:0,0:0:0:0:
383,104,223524,1,2,0:0:0:0:
243,118,223690,1,2,0:0:0:0:
235,126,224024,6,0,B|222:144|219:165|219:165|216:170|216:170|219:176|219:176|222:197|236:218|236:218|250:258|234:284|230:298|230:298|235:267|225:246,1,233.999989288331,8|8,0:0|0:0,0:0:0:0:
319,170,224524,1,2,0:0:0:0:
70,251,224691,2,0,B|45:309|104:340|104:340|111:347|111:347|118:340|118:340|176:309|152:251,1,233.999989288331,8|8,0:0|0:0,0:0:0:0:
59,119,225191,2,0,P|59:89|69:61,1,58.4999973220826,2|2,0:0|0:0,0:0:0:0:
319,170,225357,5,8,0:0:0:0:
136,106,225524,1,2,0:0:0:0:
490,80,225691,5,8,0:0:0:0:
307,144,225858,1,2,0:0:0:0:
396,319,226024,6,0,B|417:280|417:239|417:239|423:234|423:234|417:229|417:229|415:190|394:163|394:163|395:200|374:223,1,233.999989288331,8|8,0:0|0:0,0:0:0:0:
179,180,226524,1,2,0:0:0:0:
179,180,226607,1,2,0:0:0:0:
179,180,226690,6,0,P|244:165|311:172,1,116.999994644165,12|2,0:0|0:0,0:0:0:0:
80,368,227024,5,12,0:0:0:0:
0,118,227191,1,2,0:0:0:0:
108,353,227357,5,12,0:0:0:0:
238,37,227524,1,2,0:0:0:0:
223,298,227691,1,2,0:0:0:0:
453,86,227857,5,8,0:0:0:0:
453,86,228190,5,2,0:0:0:0:
340,153,228357,2,0,B|327:198|339:249|339:249,1,94.499997116089,8|0,0:0|0:0,0:0:0:0:
405,324,228690,6,0,P|385:337|368:343,1,40.4999987640381,2|0,0:0|0:0,0:0:0:0:
275,313,228857,1,2,0:0:0:0:
247,298,228940,1,2,0:0:0:0:
219,283,229024,6,0,B|171:261|124:288|124:288|152:284|173:292,1,148.50000453186,8|0,0:0|0:0,0:0:0:0:
103,366,229357,6,0,B|60:355|43:314|43:314|38:311|38:311|41:305|41:305|35:262|66:231,1,175.499991966248,6|0,0:0|0:0,0:0:0:0:
65,231,229690,2,0,B|89:177|89:177|65:115,1,116.999994644165,8|0,0:0|0:0,0:0:0:0:
249,204,230024,1,2,0:0:0:0:
449,116,230190,2,0,L|463:-6,1,116.999994644165,2|8,0:0|0:0,0:0:0:0:
371,215,230524,1,2,0:0:0:0:
457,108,230690,5,0,0:0:0:0:
363,223,230857,2,0,L|377:345,1,116.999994644165,2|8,0:0|0:0,0:0:0:0:
201,208,231190,2,0,P|213:152|256:114,1,116.999994644165,0|2,0:0|0:0,0:0:0:0:
254,292,231524,1,2,0:0:0:0:
310,44,231690,2,0,P|256:25|202:45,1,116.999994644165,8|0,0:0|0:0,0:0:0:0:
257,114,232024,6,0,B|239:124|207:126|207:126|203:129|203:129|198:126|198:126|167:125|143:108|143:108|126:97|111:105|117:127|137:127,1,175.499991966248,2|0,0:0|0:0,0:0:0:0:
137,127,232357,2,0,B|80:151|24:123,1,116.999994644165,8|0,0:0|0:0,0:0:0:0:
202,45,232690,5,2,0:0:0:0:
258,197,232857,1,2,0:0:0:0:
320,16,233024,1,8,0:0:0:0:
391,276,233190,6,0,B|340:298|294:267|294:267|265:284|265:284|217:256|172:286,1,233.999989288331,2|2,0:0|0:0,0:0:0:0:
426,350,233690,2,0,P|466:308|468:249,1,116.999994644165,8|0,0:0|0:0,0:0:0:0:
363,128,234024,5,2,0:0:0:0:
294,267,234190,1,2,0:0:0:0:
376,101,234357,1,8,0:0:0:0:
172,285,234524,1,0,0:0:0:0:
69,58,234690,6,0,B|104:48|123:22|123:22|127:16|127:16|133:21|133:21|171:19|192:39|192:39|192:60|172:72,1,175.499991966248,2|0,0:0|0:0,0:0:0:0:
180,66,235023,2,0,P|146:69|186:42,1,116.999994644165,12|0,0:0|0:0,0:0:0:0:
177,321,235357,5,2,0:0:0:0:
304,285,235524,1,2,0:0:0:0:
141,193,235690,1,8,0:0:0:0:
269,158,235857,1,2,0:0:0:0:
177,321,236024,6,0,B|154:359|108:365|108:365|128:341,1,116.999994644165,0|2,0:0|0:0,0:0:0:0:
269,158,236357,2,0,B|292:120|338:114|338:114|318:138,1,116.999994644165,8|0,0:0|0:0,0:0:0:0:
169,329,236690,2,0,B|141:363|95:364|95:364|117:342,1,116.999994644165,2|2,0:0|0:0,0:0:0:0:
312,293,237024,1,8,0:0:0:0:
133,185,237190,1,0,0:0:0:0:
363,353,237357,6,0,B|406:307|376:249|376:249|400:228|400:228|370:222|347:187|421:165|414:227,1,233.999989288331,2|8,0:0|0:0,0:0:0:0:
250,346,237857,1,0,0:0:0:0:
454,139,238024,2,0,P|397:117|340:132,1,116.999994644165,2|2,0:0|0:0,0:0:0:0:
475,277,238357,1,8,0:0:0:0:
437,24,238524,1,6,0:0:0:0:
437,24,238857,5,2,0:0:0:0:
239,147,239024,1,8,0:0:0:0:
391,289,239190,1,2,0:0:0:0:
182,295,239357,6,0,P|244:246|320:305,1,175.499991966248,2|0,0:0|0:0,0:0:0:0:
133,364,239690,6,0,B|109:328|109:328|93:270|123:222|123:222|103:237|75:238,1,202.500007724762,8|0,0:0|0:0,0:0:0:0:
0,128,240024,6,0,B|47:134|47:134|86:122|86:122|87:117|87:117|90:121|90:121|130:112|130:112|174:117,1,175.499991966248,6|0,0:0|0:0,0:0:0:0:
166,116,240357,2,0,B|188:59|166:-1|166:-1,1,116.999994644165,8|0,0:0|0:0,0:0:0:0:
77,237,240690,1,2,0:0:0:0:
356,168,240857,2,0,L|370:51,1,116.999994644165,2|8,0:0|0:0,0:0:0:0:
269,268,241190,1,2,0:0:0:0:
437,204,241357,5,0,0:0:0:0:
251,122,241524,2,0,L|265:238,1,116.999994644165,2|8,0:0|0:0,0:0:0:0:
37,139,241857,2,0,P|40:82|85:47,1,116.999994644165,0|2,0:0|0:0,0:0:0:0:
99,296,242190,1,2,0:0:0:0:
141,134,242357,2,0,P|131:75|53:51,1,116.999994644165,8|0,0:0|0:0,0:0:0:0:
91,288,242690,6,0,B|138:282|138:282|147:289|147:289|154:280|154:280|202:274|202:274|224:290|259:290,1,175.499991966248,2|0,0:0|0:0,0:0:0:0:
256,290,243024,2,0,P|256:240|239:277,1,116.999994644165,8|0,0:0|0:0,0:0:0:0:
122,366,243357,5,2,0:0:0:0:
247,246,243524,1,2,0:0:0:0:
2,314,243690,1,8,0:0:0:0:
211,54,243857,6,0,B|286:27|285:81|360:51|360:51|378:48|378:48|347:35|317:45,1,233.999989288331,2|2,0:0|0:0,0:0:0:0:
248,122,244357,2,0,B|236:177|236:177|248:238,1,116.999994644165,8|0,0:0|0:0,0:0:0:0:
379,132,244690,5,2,0:0:0:0:
104,243,244857,1,2,0:0:0:0:
365,230,245024,1,8,0:0:0:0:
73,89,245190,1,0,0:0:0:0:
123,346,245357,6,0,B|159:345|184:366|184:366|189:372|189:372|194:366|194:366|244:382|267:371|259:331|236:333|228:356,1,175.499991966248,2|0,0:0|0:0,0:0:0:0:
235,345,245690,2,0,B|231:294|231:294|245:257|245:257|241:202,1,135.000005149842,12|0,0:0|0:0,0:0:0:0:
203,13,246024,5,2,0:0:0:0:
329,118,246191,1,2,0:0:0:0:
100,131,246357,1,8,0:0:0:0:
222,238,246524,1,2,0:0:0:0:
100,131,246690,6,0,B|61:117|61:117|17:131|17:131|53:131,1,116.999994644165,0|2,0:0|0:0,0:0:0:0:
329,118,247024,2,0,B|367:131|367:131|411:117|411:117|375:117,1,116.999994644165,8|0,0:0|0:0,0:0:0:0:
89,137,247357,2,0,B|49:127|49:127|6:146|6:146|42:142,1,116.999994644165,2|2,0:0|0:0,0:0:0:0:
196,3,247690,1,8,0:0:0:0:
230,249,247857,1,0,0:0:0:0:
384,45,248024,5,2,0:0:0:0:
212,270,248190,2,0,B|167:274|167:274|140:264|140:264|89:268,1,116.999994644165,2|8,0:0|0:0,0:0:0:0:
241,150,248524,2,0,P|295:166|324:216,1,116.999994644165,2|0,0:0|0:0,0:0:0:0:
277,333,248857,5,2,0:0:0:0:
382,74,249024,1,10,0:0:0:0:
464,351,249190,1,6,0:0:0:0:
464,351,249524,5,2,0:0:0:0:
205,215,249690,6,0,B|165:200|125:218|125:218|146:214|166:220,1,121.499996292114,12|0,0:0|0:0,0:0:0:0:
143,349,250024,6,0,B|136:323|143:291|143:291,1,58.4999973220826,8|8,0:0|0:0,0:0:0:0:
301,272,250190,1,2,0:0:0:0:
310,311,250274,1,2,0:0:0:0:
298,355,250357,6,0,B|266:345|238:319|238:319,1,67.5000025749208,8|8,0:0|0:0,0:0:0:0:
415,177,250524,1,2,0:0:0:0:
444,213,250608,1,2,0:0:0:0:
453,258,250691,6,0,B|419:281|378:266|378:266|371:272|371:272|363:266|363:266|345:246|305:241|301:274,1,175.499991966248,6|0,0:0|0:0,0:0:0:0:
301,272,251024,2,0,B|297:229|297:229|306:198|306:198|303:153,1,116.999994644165,8|0,0:0|0:0,0:0:0:0:
284,2,251357,1,2,0:0:0:0:
220,186,251524,2,0,L|103:171,1,116.999994644165,2|8,0:0|0:0,0:0:0:0:
333,267,251857,1,2,0:0:0:0:
212,178,252024,5,0,0:0:0:0:
341,275,252190,2,0,L|457:260,1,116.999994644165,2|8,0:0|0:0,0:0:0:0:
247,253,252524,2,0,P|252:311|289:356,1,116.999994644165,0|2,0:0|0:0,0:0:0:0:
303,156,252857,1,2,0:0:0:0:
176,378,253024,2,0,P|119:387|67:362,1,116.999994644165,8|0,0:0|0:0,0:0:0:0:
128,294,253357,6,0,B|137:275|139:250|139:250|145:244|145:244|139:238|139:238|137:207|119:182|119:182|111:163|119:148|141:154|141:174,1,175.499991966248,2|0,0:0|0:0,0:0:0:0:
141,170,253690,2,0,B|157:112|157:112|141:53,1,116.999994644165,8|0,0:0|0:0,0:0:0:0:
55,113,254024,5,2,0:0:0:0:
247,81,254190,1,2,0:0:0:0:
50,9,254357,1,8,0:0:0:0:
315,31,254524,6,0,B|343:77|320:121|320:121|328:147|328:147|289:198|328:263,1,233.999989288331,2|2,0:0|0:0,0:0:0:0:
512,107,255024,2,0,L|394:121,1,116.999994644165,8|0,0:0|0:0,0:0:0:0:
476,262,255357,5,2,0:0:0:0:
445,38,255524,1,2,0:0:0:0:
481,295,255690,1,8,0:0:0:0:
396,121,255857,1,0,0:0:0:0:
286,330,256024,6,0,B|273:345|249:351|249:351|245:355|245:355|239:351|239:351|216:346|200:333|200:333|160:353|121:331,1,175.499991966248,2|0,0:0|0:0,0:0:0:0:
127,334,256357,2,0,P|120:310|182:327,1,116.999994644165,12|0,0:0|0:0,0:0:0:0:
219,83,256690,5,2,0:0:0:0:
87,216,256857,1,2,0:0:0:0:
86,83,257023,1,8,0:0:0:0:
219,214,257190,1,2,0:0:0:0:
86,83,257357,6,0,B|63:62|8:63|8:63|21:74|39:77,1,116.999994644165,0|2,0:0|0:0,0:0:0:0:
219,214,257690,2,0,B|243:234|298:233|298:233|285:222|267:219,1,116.999994644165,8|0,0:0|0:0,0:0:0:0:
78,75,258024,2,0,B|52:57|-2:64|-2:64|13:74|31:75,1,116.999994644165,2|2,0:0|0:0,0:0:0:0:
227,75,258357,1,8,0:0:0:0:
79,224,258523,1,0,0:0:0:0:
203,0,258690,6,0,B|264:-17|299:41|299:41|325:28|325:28|358:49|377:24|377:24|358:1|334:20,1,233.999989288331,2|8,0:0|0:0,0:0:0:0:
227,75,259190,1,0,0:0:0:0:
325,246,259357,2,0,B|345:189|325:125|325:125,1,116.999994644165,2|2,0:0|0:0,0:0:0:0:
173,245,259690,1,8,0:0:0:0:
435,51,259857,1,6,0:0:0:0:
435,51,260190,5,2,0:0:0:0:
480,305,260357,1,8,0:0:0:0:
338,153,260523,1,2,0:0:0:0:
356,349,260690,6,0,B|316:356|283:335|283:335|241:330|219:358|219:358|235:364|252:360,1,175.499991966248,2|0,0:0|0:0,0:0:0:0:
339,253,261024,6,0,B|350:209|321:172|321:172|308:133|337:104|337:104|325:127|330:149,1,202.500007724762,8|0,0:0|0:0,0:0:0:0:
246,233,261357,6,0,B|202:235|202:235|198:242|198:242|193:235|193:235|151:236|122:211|122:211|140:217|160:214,1,175.499991966248,6|0,0:0|0:0,0:0:0:0:
159,214,261690,2,0,B|102:236|43:214|43:214,1,116.999994644165,8|0,0:0|0:0,0:0:0:0:
246,361,262024,1,2,0:0:0:0:
350,112,262190,2,0,L|231:97,1,116.999994644165,2|8,0:0|0:0,0:0:0:0:
371,209,262524,1,2,0:0:0:0:
329,15,262690,5,0,0:0:0:0:
363,217,262857,2,0,L|479:202,1,116.999994644165,2|8,0:0|0:0,0:0:0:0:
278,176,263190,2,0,P|269:235|295:284,1,116.999994644165,0|2,0:0|0:0,0:0:0:0:
350,112,263524,1,2,0:0:0:0:
303,292,263690,1,8,0:0:0:0:
150,127,263856,1,2,0:0:0:0:
311,299,264024,6,0,B|358:295|358:295|366:302|366:302|374:294|374:294|422:290|422:290|448:302|479:302,1,175.499991966248,2|0,0:0|0:0,0:0:0:0:
479,302,264357,2,0,P|489:250|458:271,1,116.999994644165,8|0,0:0|0:0,0:0:0:0:
311,384,264690,5,2,0:0:0:0:
468,256,264857,1,2,0:0:0:0:
148,344,265024,2,0,L|140:285,1,58.4999973220826,8|0,0:0|0:0,0:0:0:0:
256,39,265190,6,0,B|280:114|226:112|253:188|253:188|256:206|256:206|270:175|261:145,1,233.999989288331,6|2,0:0|0:0,0:0:0:0:
149,74,265690,2,0,L|89:81,2,58.4999973220826,8|0|0,0:0|0:0|0:0,0:0:0:0:
362,208,266024,5,2,0:0:0:0:
130,166,266190,1,2,0:0:0:0:
417,115,266357,1,8,0:0:0:0:
116,304,266524,1,0,0:0:0:0:
451,333,266690,6,0,B|472:306|464:269|464:269|469:261|469:261|461:258|461:258|427:226|443:188|483:193|478:231,1,175.499991966248,2|0,0:0|0:0,0:0:0:0:
476,214,267024,2,0,B|427:216|427:216|391:203|391:203|337:207,1,135.000005149842,12|0,0:0|0:0,0:0:0:0:
140,290,267357,5,2,0:0:0:0:
301,126,267524,1,2,0:0:0:0:
143,129,267690,1,8,0:0:0:0:
307,290,267857,1,2,0:0:0:0:
143,129,268024,6,0,B|112:117|112:117|62:135|62:135|84:131|106:135,1,116.999994644165,0|2,0:0|0:0,0:0:0:0:
307,290,268357,2,0,B|338:302|338:302|388:284|388:284|366:288|344:284,1,116.999994644165,8|0,0:0|0:0,0:0:0:0:
135,121,268690,2,0,B|102:112|102:112|55:136|55:136|76:130|99:131,1,116.999994644165,2|2,0:0|0:0,0:0:0:0:
309,118,269024,1,8,0:0:0:0:
139,301,269191,1,0,0:0:0:0:
380,251,269357,6,0,B|371:220|380:190|380:190|423:147|405:82,1,175.499991966248,2|0,0:0|0:0,0:0:0:0:
309,118,269690,1,2,0:0:0:0:
307,321,269857,1,2,0:0:0:0:
222,168,270024,5,8,0:0:0:0:
221,269,270190,1,2,0:0:0:0:
308,219,270358,1,2,0:0:0:0:
220,370,270524,6,0,B|169:363|169:363|163:359|163:359|157:364|157:364|113:387|113:387|53:366|53:366|82:371|106:361,1,233.999989288331,6|2,0:0|0:0,0:0:0:0:
136,116,271024,1,2,0:0:0:0:
221,269,271190,1,2,0:0:0:0:
223,249,271274,1,2,0:0:0:0:
225,229,271357,5,2,0:0:0:0:
192,194,271440,1,2,0:0:0:0:
142,181,271524,1,2,0:0:0:0:
91,200,271607,1,2,0:0:0:0:
58,250,271690,5,8,0:0:0:0:
113,217,271774,1,8,0:0:0:0:
134,155,271857,1,8,0:0:0:0:
109,91,271940,1,8,0:0:0:0:
44,59,272024,5,6,0:0:0:0:
58,250,272357,5,8,0:0:0:0:
0,158,272607,5,2,0:0:0:0:
8,150,272690,2,0,L|65:157,1,58.4999973220826,2|0,0:0|0:0,0:0:0:0:
163,263,272857,1,2,0:0:0:0:
283,165,273023,1,8,0:0:0:0:
297,347,273190,6,0,P|240:361|183:353,1,116.999994644165,6|0,0:0|0:0,0:0:0:0:
169,170,273524,2,0,P|226:156|284:165,1,116.999994644165,2|8,0:0|0:0,0:0:0:0:
362,5,273857,6,0,B|367:42|367:42|373:49|373:49|367:55|367:55|341:114|341:114|362:139|360:175|360:175|373:149|367:123,1,233.999989288331,6|0,0:0|0:0,0:0:0:0:
271,38,274357,2,0,L|206:46,1,58.4999973220826,8|8,0:0|0:0,0:0:0:0:
444,167,274524,2,0,L|510:158,1,58.4999973220826,8|8,0:0|0:0,0:0:0:0:
307,350,274690,5,2,0:0:0:0:
185,156,275024,5,8,0:0:0:0:
246,253,275274,5,2,0:0:0:0:
254,261,275357,2,0,P|282:263|312:253,1,58.4999973220826,2|0,0:0|0:0,0:0:0:0:
160,137,275524,1,2,0:0:0:0:
329,151,275690,1,8,0:0:0:0:
378,331,275857,6,0,B|420:290|411:232|411:232|415:225|415:225|408:220|408:220|386:167|330:152,1,233.999989288331,6|2,0:0|0:0,0:0:0:0:
311,253,276357,1,8,0:0:0:0:
447,30,276524,2,0,B|426:58|426:58|422:85|428:107|428:107|426:115|426:115|432:120|432:120|455:160|495:169|495:169|493:140|473:123,1,233.999989288331,6|2,0:0|0:0,0:0:0:0:
328,53,277024,6,0,P|297:50|265:56,1,58.4999973220826,8|8,0:0|0:0,0:0:0:0:
156,128,277190,1,8,0:0:0:0:
102,133,277273,1,8,0:0:0:0:
49,123,277356,5,2,0:0:0:0:
19,328,277690,5,8,0:0:0:0:
0,221,277940,5,2,0:0:0:0:
8,213,278024,2,0,L|69:221,1,58.4999973220826,2|0,0:0|0:0,0:0:0:0:
137,315,278190,1,2,0:0:0:0:
227,173,278357,1,8,0:0:0:0:
358,336,278524,6,0,B|312:360|312:360|306:365|306:365|299:362|299:362|240:359|240:359,1,116.999994644165,6|0,0:0|0:0,0:0:0:0:
392,228,278857,2,0,B|443:255|470:318|470:318,1,116.999994644165,2|8,0:0|0:0,0:0:0:0:
153,211,279190,6,0,B|129:155|165:119|165:119|181:111|181:111|165:103|165:103|129:67|153:11,1,233.999989288331,6|2,0:0|0:0,0:0:0:0:
409,63,279690,2,0,L|401:121,1,58.4999973220826,8|8,0:0|0:0,0:0:0:0:
235,231,279857,2,0,L|227:172,1,58.4999973220826,8|8,0:0|0:0,0:0:0:0:
505,8,280024,5,2,0:0:0:0:
313,8,280357,5,8,0:0:0:0:
409,63,280607,5,2,0:0:0:0:
417,71,280690,2,0,L|409:129,1,58.4999973220826,2|0,0:0|0:0,0:0:0:0:
172,81,280857,1,8,0:0:0:0:
296,34,281024,1,2,0:0:0:0:
112,28,281190,6,0,B|93:49|91:80|91:80|86:84|86:84|91:88|91:88|94:113|112:135|112:135|123:171|114:212|85:237,1,233.999989288331,6|2,0:0|0:0,0:0:0:0:
20,164,281690,1,8,0:0:0:0:
198,283,281857,2,0,P|214:256|224:225,1,58.4999973220826,2|2,0:0|0:0,0:0:0:0:
203,62,282024,5,8,0:0:0:0:
207,81,282107,1,8,0:0:0:0:
214,99,282190,2,0,P|229:126|251:150,1,58.4999973220826,2|2,0:0|0:0,0:0:0:0:
345,247,282357,5,8,0:0:0:0:
394,220,282440,1,8,0:0:0:0:
384,167,282523,1,8,0:0:0:0:
330,159,282607,1,8,0:0:0:0:
307,209,282690,6,0,B|275:285|307:354|307:354|334:346,1,175.499991966248,6|0,0:0|0:0,0:0:0:0:
371,335,283024,1,8,0:0:0:0:
176,170,283191,1,0,0:0:0:0:
29,248,283357,2,0,B|17:271|17:271|25:313|25:313|22:284|36:264,1,116.999994644165,2|2,0:0|0:0,0:0:0:0:
247,122,283691,1,8,0:0:0:0:
214,303,283857,6,0,B|187:311|159:300|159:300|125:313|90:296,1,116.999994644165,2|0,0:0|0:0,0:0:0:0:
4,178,284190,2,0,B|30:169|30:169|58:180|58:180|92:167|127:184,1,125.999996154785,2|8,0:0|0:0,0:0:0:0:
222,311,284524,2,0,B|193:323|193:323|161:314|161:314|126:334|126:334|85:319,1,135.000005149842,0|2,0:0|0:0,0:0:0:0:
305,156,284857,5,2,0:0:0:0:
381,299,285024,1,8,0:0:0:0:
315,48,285190,1,0,0:0:0:0:
458,165,285357,6,0,B|468:211|468:211|455:252|455:252|480:291|460:338,1,175.499991966248,2|0,0:0|0:0,0:0:0:0:
461,333,285690,2,0,P|403:344|381:298,1,116.999994644165,8|0,0:0|0:0,0:0:0:0:
497,97,286024,5,2,0:0:0:0:
331,71,286191,1,2,0:0:0:0:
497,65,286357,1,8,0:0:0:0:
296,181,286524,6,0,B|260:201|215:181|215:181|171:159|133:181|133:181|165:171|202:189,1,233.999989288331,2|2,0:0|0:0,0:0:0:0:
256,103,287024,1,8,0:0:0:0:
67,238,287191,2,0,B|28:178|68:119|68:119,1,116.999994644165,2|0,0:0|0:0,0:0:0:0:
159,264,287524,2,0,B|198:324|158:383|158:383,1,116.999994644165,2|8,0:0|0:0,0:0:0:0:
37,314,287774,1,8,0:0:0:0:
37,314,287857,2,0,L|96:322,1,58.4999973220826,2|2,0:0|0:0,0:0:0:0:
242,186,288024,6,0,B|298:185|298:185|362:209|362:209|418:209,1,175.499991966248,6|0,0:0|0:0,0:0:0:0:
378,122,288357,1,8,0:0:0:0:
277,273,288524,1,0,0:0:0:0:
194,64,288690,2,0,B|174:37|202:11|202:11|238:23|232:58,1,116.999994644165,2|2,0:0|0:0,0:0:0:0:
128,193,289024,1,8,0:0:0:0:
292,135,289191,6,0,B|331:127|366:148|366:148|387:146|389:125|374:119,1,116.999994644165,2|0,0:0|0:0,0:0:0:0:
128,193,289524,2,0,B|84:200|84:200|45:177|45:177|22:179|20:202|36:209,1,125.999996154785,2|8,0:0|0:0,0:0:0:0:
300,127,289857,2,0,B|344:124|344:124|360:144|380:152|380:152|403:152|408:130|392:121,1,135.000005149842,0|2,0:0|0:0,0:0:0:0:
258,274,290190,5,2,0:0:0:0:
329,22,290357,1,8,0:0:0:0:
420,156,290524,1,0,0:0:0:0:
165,108,290690,6,0,B|100:104|71:163|71:163|88:125|70:96,1,175.499991966248,2|0,0:0|0:0,0:0:0:0:
75,105,291024,2,0,P|27:109|62:163,1,116.999994644165,8|0,0:0|0:0,0:0:0:0:
178,5,291357,1,2,0:0:0:0:
154,200,291524,1,2,0:0:0:0:
235,63,291690,1,8,0:0:0:0:
326,232,291857,6,0,B|345:252|345:252|363:281|354:318|354:318|338:301,1,116.999994644165,2|0,0:0|0:0,0:0:0:0:
340,135,292190,2,0,B|348:108|348:108|364:78|401:67|401:67|394:89,1,116.999994644165,2|12,0:0|0:0,0:0:0:0:
249,172,292524,2,0,B|221:178|221:178|187:179|159:153|159:153|182:148,1,116.999994644165,2|2,0:0|0:0,0:0:0:0:
326,232,292857,6,0,B|344:257|344:257|351:284,1,58.4999973220826,2|2,0:0|0:0,0:0:0:0:
211,283,293024,1,8,0:0:0:0:
340,135,293190,2,0,B|370:131|370:131|397:139,1,58.4999973220826,2|2,0:0|0:0,0:0:0:0:
185,290,293357,6,0,B|117:297|117:297|52:282,1,135.000005149842,12|2,0:0|0:0,0:0:0:0:
151,47,293690,5,8,0:0:0:0:
326,232,293857,1,2,0:0:0:0:
71,97,294024,5,8,0:0:0:0:
363,121,294190,1,2,0:0:0:0:
84,192,294357,5,8,0:0:0:0:
324,9,294524,2,0,B|372:4|372:4|412:15|412:15|460:9,1,135.000005149842,2|8,0:0|0:0,0:0:0:0:
334,224,294857,5,2,0:0:0:0:
165,25,295024,2,0,B|117:30|117:30|77:19|77:19|29:25,1,135.000005149842,8|2,0:0|0:0,0:0:0:0:
236,283,295357,5,8,0:0:0:0:
324,9,295524,2,0,P|354:24|378:48,1,67.5000025749208,2|0,0:0|0:0,0:0:0:0:
387,329,295690,5,8,0:0:0:0:
285,126,295857,1,2,0:0:0:0:
214,356,296024,6,0,B|146:363|146:363|81:348,1,135.000005149842,12|2,0:0|0:0,0:0:0:0:
234,31,296357,5,8,0:0:0:0:
357,261,296524,1,2,0:0:0:0:
123,95,296690,5,8,0:0:0:0:
474,154,296857,1,2,0:0:0:0:
199,241,297024,5,8,0:0:0:0:
457,0,297190,1,2,0:0:0:0:
366,237,297357,5,8,0:0:0:0:
379,71,297524,1,2,0:0:0:0:
458,346,297690,1,8,0:0:0:0:
458,346,298024,5,8,0:0:0:0:
199,241,298190,1,2,0:0:0:0:
399,236,298357,1,8,0:0:0:0:
246,107,298524,1,2,0:0:0:0:
326,354,298690,6,0,B|394:361|394:361|459:346,1,135.000005149842,12|2,0:0|0:0,0:0:0:0:
355,75,299024,5,8,0:0:0:0:
199,241,299191,1,2,0:0:0:0:
456,115,299358,5,8,0:0:0:0:
163,132,299524,1,2,0:0:0:0:
424,219,299691,5,8,0:0:0:0:
210,26,299858,2,0,B|162:21|162:21|122:32|122:32|74:26,1,135.000005149842,2|8,0:0|0:0,0:0:0:0:
182,264,300191,5,2,0:0:0:0:
362,30,300358,2,0,B|410:35|410:35|450:24|450:24|498:30,1,135.000005149842,8|2,0:0|0:0,0:0:0:0:
304,298,300691,5,8,0:0:0:0:
210,26,300858,2,0,P|180:40|158:65,1,67.5000025749208,2|0,0:0|0:0,0:0:0:0:
135,319,301024,5,8,0:0:0:0:
236,116,301191,1,2,0:0:0:0:
329,367,301357,6,0,B|397:374|397:374|462:359,1,135.000005149842,12|2,0:0|0:0,0:0:0:0:
321,29,301691,5,8,0:0:0:0:
139,217,301858,1,2,0:0:0:0:
413,113,302024,5,8,0:0:0:0:
57,120,302191,1,2,0:0:0:0:
361,226,302358,1,2,0:0:0:0:
117,9,302524,5,8,0:0:0:0:
368,233,302857,5,2,0:0:0:0:
368,233,302940,1,2,0:0:0:0:
368,233,303024,2,0,B|323:210|299:255|331:288|372:266|372:266|391:194|389:95|359:21|359:21|353:27|278:88|171:63|160:56|160:56|193:118|198:208|173:290|173:290|132:311|108:284|115:235|168:252,1,945,2|0,0:0|0:0,0:0:0:0:
