osu file format v14

[General]
AudioFilename: audio.mp3
AudioLeadIn: 0
PreviewTime: 63550
Countdown: 0
SampleSet: Normal
StackLeniency: 0.7
Mode: 1
LetterboxInBreaks: 0
WidescreenStoryboard: 1

[Editor]
Bookmarks: 64971
DistanceSpacing: 0.6
BeatDivisor: 4
GridSize: 16
TimelineZoom: 2.6

[Metadata]
Title:Sunglow
TitleUnicode:Sunglow
Artist:Yamajet feat. Hiura Masako
ArtistUnicode:Yamajet feat. ひうらまさこ
Creator:Nao Tomori
Version:Muzukashii
Source:crossbeats REV. SUNRISE
Tags:しあわせハイカロリー cross×beats capcom vulkin japanese video rhythm game
BeatmapID:2323490
BeatmapSetID:1112076

[Difficulty]
HPDrainRate:6
CircleSize:5
OverallDifficulty:4.5
ApproachRate:5
SliderMultiplier:1.4
SliderTickRate:1

[Events]
//Background and Video events
0,0,"72300506_p0.jpg",0,10
//Break Periods
//Storyboard Layer 0 (Background)
//Storyboard Layer 1 (Fail)
//Storyboard Layer 2 (Pass)
//Storyboard Layer 3 (Foreground)
//Storyboard Layer 4 (Overlay)
//Storyboard Sound Samples

[TimingPoints]
-709,333.333333333333,4,1,0,60,1,0
124,-117.647058823529,4,1,0,60,0,0
9789,-107.52688172043,4,1,0,70,0,0
10789,-106.382978723404,4,1,0,70,0,0
10873,-105.263157894737,4,1,0,70,0,0
10956,-104.166666666667,4,1,0,70,0,0
11039,-103.092783505155,4,1,0,70,0,0
11123,-102.040816326531,4,1,0,70,0,0
11206,-101.010101010101,4,1,0,70,0,0
11289,-100,4,1,0,75,0,0
16124,-105.263157894737,4,1,0,75,0,0
16623,-111.111111111111,4,1,0,60,0,0
37456,-114.285714285714,4,1,0,60,0,0
37623,-117.647058823529,4,1,0,60,0,0
37789,-121.212121212121,4,1,0,60,0,0
37956,-125,4,1,0,60,0,0
53289,-121.212121212121,4,1,0,60,0,0
53456,-121.212121212121,4,1,0,60,0,0
53539,-119.402985074627,4,1,0,60,0,0
53623,-117.647058823529,4,1,0,60,0,0
53706,-115.942028985507,4,1,0,60,0,0
53789,-114.285714285714,4,1,0,60,0,0
53956,-111.111111111111,4,1,0,70,0,0
59289,-100,4,1,0,75,0,0
64624,-100,4,1,0,80,0,1
85957,-100,4,1,0,80,0,0
96624,-100,4,1,0,80,0,1
106789,-100,4,1,0,80,0,1
107290,-100,4,1,0,75,0,0
111789,-100,4,1,0,15,0,0

[HitObjects]
162,208,290,5,8,0:0:0:0:
162,208,457,1,0,0:0:0:0:
162,208,624,1,4,0:0:0:0:
162,208,957,1,8,0:0:0:0:
162,208,1290,1,0,0:0:0:0:
162,208,1457,1,0,0:0:0:0:
162,208,1790,1,8,0:0:0:0:
162,208,2290,1,8,0:0:0:0:
162,208,2624,1,0,0:0:0:0:
162,208,2957,1,0,0:0:0:0:
162,208,3290,1,8,0:0:0:0:
162,208,3624,1,8,0:0:0:0:
162,208,3957,1,0,0:0:0:0:
162,208,4124,1,0,0:0:0:0:
162,208,4457,1,8,0:0:0:0:
162,208,4957,1,8,0:0:0:0:
162,208,5290,1,0,0:0:0:0:
162,208,5457,1,0,0:0:0:0:
162,208,5624,1,0,0:0:0:0:
162,208,5790,1,0,0:0:0:0:
162,208,5957,1,8,0:0:0:0:
162,208,6290,1,8,0:0:0:0:
162,208,6624,1,0,0:0:0:0:
162,208,6790,1,0,0:0:0:0:
162,208,7124,1,8,0:0:0:0:
162,208,7624,1,8,0:0:0:0:
162,208,7957,1,0,0:0:0:0:
162,208,8290,1,8,0:0:0:0:
162,208,8624,1,8,0:0:0:0:
162,208,8790,1,0,0:0:0:0:
162,208,8957,1,0,0:0:0:0:
162,208,9124,1,8,0:0:0:0:
162,208,9457,1,0,0:0:0:0:
162,208,9624,1,0,0:0:0:0:
162,208,9790,1,12,0:0:0:0:
162,208,10124,1,0,0:0:0:0:
162,208,10457,1,4,0:0:0:0:
162,208,10957,1,8,0:0:0:0:
162,208,11040,1,8,0:0:0:0:
162,208,11124,1,8,0:0:0:0:
162,208,11290,1,4,0:0:0:0:
162,208,11624,1,8,0:0:0:0:
162,208,11957,1,0,0:0:0:0:
162,208,12124,1,0,0:0:0:0:
162,208,12290,1,8,0:0:0:0:
162,208,12624,1,0,0:0:0:0:
162,208,12957,1,8,0:0:0:0:
162,208,13290,1,0,0:0:0:0:
162,208,13457,1,0,0:0:0:0:
162,208,13624,1,8,0:0:0:0:
162,208,13957,1,4,0:0:0:0:
162,208,14290,1,8,0:0:0:0:
162,208,14624,1,0,0:0:0:0:
162,208,14790,1,0,0:0:0:0:
162,208,14957,1,8,0:0:0:0:
162,208,15124,1,0,0:0:0:0:
162,208,15624,1,12,0:0:0:0:
162,208,16124,1,8,0:0:0:0:
162,208,16290,1,0,0:0:0:0:
162,208,16624,1,0,0:0:0:0:
162,208,17124,1,0,0:0:0:0:
162,208,17290,1,0,0:0:0:0:
162,208,17457,1,8,0:0:0:0:
162,208,17790,1,8,0:0:0:0:
162,208,18290,1,8,0:0:0:0:
162,208,18624,1,0,0:0:0:0:
162,208,18957,1,0,0:0:0:0:
162,208,19290,1,8,0:0:0:0:
162,208,19790,1,0,0:0:0:0:
162,208,19957,1,0,0:0:0:0:
162,208,20290,1,8,0:0:0:0:
162,208,20457,1,0,0:0:0:0:
162,208,20790,1,0,0:0:0:0:
162,208,20957,1,8,0:0:0:0:
162,208,21290,1,0,0:0:0:0:
162,208,21624,1,0,0:0:0:0:
162,208,21957,1,8,0:0:0:0:
162,208,22457,1,0,0:0:0:0:
162,208,22624,1,0,0:0:0:0:
162,208,22790,1,8,0:0:0:0:
162,208,23124,1,8,0:0:0:0:
162,208,23624,1,0,0:0:0:0:
162,208,23957,1,0,0:0:0:0:
162,208,24290,1,8,0:0:0:0:
162,208,24624,1,8,0:0:0:0:
162,208,24957,1,0,0:0:0:0:
162,208,25124,1,0,0:0:0:0:
162,208,25624,1,8,0:0:0:0:
162,208,25790,1,4,0:0:0:0:
162,208,26124,1,0,0:0:0:0:
162,208,26290,1,8,0:0:0:0:
162,208,26457,1,12,0:0:0:0:
162,208,26790,1,0,0:0:0:0:
162,208,26957,1,0,0:0:0:0:
162,208,27290,1,12,0:0:0:0:
162,208,27790,1,0,0:0:0:0:
162,208,27957,1,0,0:0:0:0:
162,208,28124,1,8,0:0:0:0:
162,208,28457,1,8,0:0:0:0:
162,208,28957,1,0,0:0:0:0:
162,208,29290,1,0,0:0:0:0:
162,208,29624,1,8,0:0:0:0:
162,208,29957,1,8,0:0:0:0:
162,208,30457,1,0,0:0:0:0:
162,208,30624,1,0,0:0:0:0:
162,208,30957,1,8,0:0:0:0:
162,208,31124,1,0,0:0:0:0:
162,208,31457,1,0,0:0:0:0:
162,208,31624,1,8,0:0:0:0:
221,114,31790,1,8,0:0:0:0:
162,208,31957,1,0,0:0:0:0:
162,208,32290,1,0,0:0:0:0:
162,208,32624,1,8,0:0:0:0:
162,208,33124,1,0,0:0:0:0:
162,208,33290,1,0,0:0:0:0:
162,208,33457,1,8,0:0:0:0:
162,208,33790,1,8,0:0:0:0:
162,208,34290,1,0,0:0:0:0:
162,208,34624,1,0,0:0:0:0:
162,208,34957,1,8,0:0:0:0:
162,208,35290,1,0,0:0:0:0:
162,208,35624,1,8,0:0:0:0:
162,208,35790,1,8,0:0:0:0:
162,208,36290,1,8,0:0:0:0:
162,208,36457,1,4,0:0:0:0:
162,208,36790,1,0,0:0:0:0:
162,208,36957,1,8,0:0:0:0:
162,208,37124,1,12,0:0:0:0:
162,208,37457,1,0,0:0:0:0:
162,208,37624,1,8,0:0:0:0:
162,208,37957,1,4,0:0:0:0:
162,208,38457,1,0,0:0:0:0:
162,208,38624,1,8,0:0:0:0:
162,208,38957,1,8,0:0:0:0:
162,208,39290,1,0,0:0:0:0:
162,208,39790,1,0,0:0:0:0:
162,208,39957,1,8,0:0:0:0:
162,208,40290,1,8,0:0:0:0:
162,208,40624,1,0,0:0:0:0:
162,208,41124,1,0,0:0:0:0:
162,208,41290,1,0,0:0:0:0:
162,208,41624,1,8,0:0:0:0:
162,208,41790,1,0,0:0:0:0:
162,208,41957,1,0,0:0:0:0:
162,208,42290,1,8,0:0:0:0:
162,208,42624,1,0,0:0:0:0:
162,208,42790,1,8,0:0:0:0:
162,208,42957,1,0,0:0:0:0:
162,208,43124,1,0,0:0:0:0:
162,208,43290,1,8,0:0:0:0:
162,208,43790,1,0,0:0:0:0:
162,208,43957,1,0,0:0:0:0:
162,208,44290,1,8,0:0:0:0:
162,208,44624,1,8,0:0:0:0:
162,208,44790,1,0,0:0:0:0:
162,208,44957,1,0,0:0:0:0:
162,208,45124,1,8,0:0:0:0:
162,208,45457,1,0,0:0:0:0:
162,208,45624,1,8,0:0:0:0:
162,208,45957,1,0,0:0:0:0:
162,208,46457,1,0,0:0:0:0:
162,208,46624,1,8,0:0:0:0:
162,208,46957,1,0,0:0:0:0:
162,208,47124,1,8,0:0:0:0:
162,208,47290,1,0,0:0:0:0:
162,208,47624,1,8,0:0:0:0:
162,208,47957,1,0,0:0:0:0:
162,208,48290,1,0,0:0:0:0:
162,208,48624,1,12,0:0:0:0:
162,208,49124,1,0,0:0:0:0:
162,208,49290,1,8,0:0:0:0:
162,208,49624,1,8,0:0:0:0:
162,208,49957,1,0,0:0:0:0:
162,208,50457,1,0,0:0:0:0:
162,208,50624,1,0,0:0:0:0:
162,208,50957,1,8,0:0:0:0:
162,208,51124,1,0,0:0:0:0:
162,208,51290,1,8,0:0:0:0:
162,208,51624,1,0,0:0:0:0:
162,208,51790,1,0,0:0:0:0:
162,208,52124,1,8,0:0:0:0:
162,208,52290,1,0,0:0:0:0:
162,208,52457,1,0,0:0:0:0:
162,208,52624,1,8,0:0:0:0:
162,208,52957,1,8,0:0:0:0:
162,208,53290,1,0,0:0:0:0:
162,208,53457,1,8,0:0:0:0:
162,208,53624,1,8,0:0:0:0:
162,208,53790,1,8,0:0:0:0:
162,208,53957,1,4,0:0:0:0:
100,212,54624,1,0,0:0:0:0:
100,212,54790,1,0,0:0:0:0:
100,212,54957,1,8,0:0:0:0:
100,212,55124,1,4,0:0:0:0:
100,212,55457,1,0,0:0:0:0:
100,212,55624,1,8,0:0:0:0:
100,212,55957,1,0,0:0:0:0:
100,212,56124,1,0,0:0:0:0:
100,212,56290,1,8,0:0:0:0:
100,212,56457,1,0,0:0:0:0:
100,212,56624,1,8,0:0:0:0:
100,212,56790,1,8,0:0:0:0:
100,212,56957,1,0,0:0:0:0:
100,212,57124,1,8,0:0:0:0:
100,212,57624,1,8,0:0:0:0:
100,212,57790,1,4,0:0:0:0:
100,212,58124,1,0,0:0:0:0:
100,212,58290,1,8,0:0:0:0:
100,212,58457,1,0,0:0:0:0:
100,212,58624,1,8,0:0:0:0:
100,212,58790,1,8,0:0:0:0:
100,212,58957,1,0,0:0:0:0:
100,212,59290,1,8,0:0:0:0:
100,212,59790,1,0,0:0:0:0:
100,212,59957,1,8,0:0:0:0:
100,212,60457,1,8,0:0:0:0:
100,212,60624,1,0,0:0:0:0:
100,212,60790,1,8,0:0:0:0:
100,212,60957,1,0,0:0:0:0:
100,212,61124,1,8,0:0:0:0:
100,212,61207,1,8,0:0:0:0:
100,212,61290,1,8,0:0:0:0:
100,212,61624,1,8,0:0:0:0:
100,212,61957,1,12,0:0:0:0:
100,212,62457,1,8,0:0:0:0:
100,212,62624,1,0,0:0:0:0:
100,212,62790,1,0,0:0:0:0:
100,212,62957,1,0,0:0:0:0:
100,212,63124,1,12,0:0:0:0:
100,212,63457,1,0,0:0:0:0:
100,212,63624,1,8,0:0:0:0:
100,212,63957,1,8,0:0:0:0:
100,212,64124,1,0,0:0:0:0:
100,212,64207,1,0,0:0:0:0:
100,212,64290,1,0,0:0:0:0:
100,212,64624,1,12,0:0:0:0:
100,212,65124,1,0,0:0:0:0:
100,212,65207,1,0,0:0:0:0:
100,212,65290,1,0,0:0:0:0:
100,212,65457,1,0,0:0:0:0:
100,212,65624,1,8,0:0:0:0:
100,212,65790,1,0,0:0:0:0:
100,212,65957,1,8,0:0:0:0:
100,212,66124,1,0,0:0:0:0:
100,212,66457,1,0,0:0:0:0:
100,212,66790,1,8,0:0:0:0:
100,212,66957,1,8,0:0:0:0:
100,212,67124,1,0,0:0:0:0:
100,212,67207,1,0,0:0:0:0:
100,212,67290,1,0,0:0:0:0:
100,212,67624,1,8,0:0:0:0:
100,212,67957,1,0,0:0:0:0:
100,212,68124,1,8,0:0:0:0:
100,212,68290,1,8,0:0:0:0:
100,212,68457,1,0,0:0:0:0:
100,212,68790,1,0,0:0:0:0:
100,212,68957,1,8,0:0:0:0:
100,212,69290,1,0,0:0:0:0:
100,212,69457,1,8,0:0:0:0:
100,212,69624,1,0,0:0:0:0:
100,212,69790,1,0,0:0:0:0:
100,212,69957,1,8,0:0:0:0:
100,212,70290,1,8,0:0:0:0:
100,212,70624,1,0,0:0:0:0:
100,212,70790,1,8,0:0:0:0:
100,212,70957,1,0,0:0:0:0:
100,212,71124,1,0,0:0:0:0:
100,212,71290,1,8,0:0:0:0:
100,212,71624,1,0,0:0:0:0:
100,212,71957,1,0,0:0:0:0:
100,212,72124,1,8,0:0:0:0:
100,212,72207,1,8,0:0:0:0:
100,212,72290,1,8,0:0:0:0:
100,212,72624,1,8,0:0:0:0:
100,212,73124,1,0,0:0:0:0:
100,212,73290,1,0,0:0:0:0:
100,212,73624,1,8,0:0:0:0:
100,212,73790,1,4,0:0:0:0:
100,212,74290,1,8,0:0:0:0:
100,212,74457,1,0,0:0:0:0:
100,212,74624,1,8,0:0:0:0:
100,212,74957,1,8,0:0:0:0:
100,212,75290,1,4,0:0:0:0:
100,212,75790,1,0,0:0:0:0:
100,212,75874,1,0,0:0:0:0:
100,212,75957,1,0,0:0:0:0:
100,212,76124,1,0,0:0:0:0:
100,212,76290,1,8,0:0:0:0:
100,212,76457,1,0,0:0:0:0:
100,212,76624,1,8,0:0:0:0:
100,212,76790,1,8,0:0:0:0:
100,212,77124,1,0,0:0:0:0:
100,212,77457,1,8,0:0:0:0:
100,212,77624,1,8,0:0:0:0:
100,212,77790,1,0,0:0:0:0:
100,212,77874,1,0,0:0:0:0:
100,212,77957,1,0,0:0:0:0:
100,212,78290,1,8,0:0:0:0:
100,212,78624,1,8,0:0:0:0:
100,212,78790,1,0,0:0:0:0:
100,212,78957,1,0,0:0:0:0:
100,212,79124,1,8,0:0:0:0:
100,212,79624,1,8,0:0:0:0:
100,212,79957,1,0,0:0:0:0:
100,212,80124,1,0,0:0:0:0:
100,212,80290,1,8,0:0:0:0:
100,212,80457,1,8,0:0:0:0:
100,212,80624,1,0,0:0:0:0:
100,212,80957,1,8,0:0:0:0:
100,212,81290,1,0,0:0:0:0:
100,212,81457,1,0,0:0:0:0:
100,212,81624,1,8,0:0:0:0:
100,212,81790,1,8,0:0:0:0:
100,212,81957,1,0,0:0:0:0:
100,212,82290,1,8,0:0:0:0:
100,212,82624,1,8,0:0:0:0:
100,212,82790,1,0,0:0:0:0:
100,212,82874,1,0,0:0:0:0:
100,212,82957,1,0,0:0:0:0:
100,212,83290,1,12,0:0:0:0:
100,212,83457,1,0,0:0:0:0:
100,212,83790,1,0,0:0:0:0:
100,212,83957,1,12,0:0:0:0:
100,212,84124,1,0,0:0:0:0:
100,212,84290,1,0,0:0:0:0:
100,212,84457,1,12,0:0:0:0:
100,212,84790,1,0,0:0:0:0:
100,212,84957,1,0,0:0:0:0:
100,212,85124,1,8,0:0:0:0:
100,212,85207,1,8,0:0:0:0:
100,212,85290,1,8,0:0:0:0:
100,212,85457,1,0,0:0:0:0:
100,212,85540,1,0,0:0:0:0:
100,212,85624,1,0,0:0:0:0:
100,212,85790,1,8,0:0:0:0:
100,212,85957,1,4,0:0:0:0:
100,212,86624,1,8,0:0:0:0:
100,212,86790,1,0,0:0:0:0:
100,212,86957,1,0,0:0:0:0:
100,212,87124,1,12,0:0:0:0:
100,212,87457,1,0,0:0:0:0:
100,212,87624,1,8,0:0:0:0:
100,212,87790,1,12,0:0:0:0:
100,212,88124,1,0,0:0:0:0:
100,212,88290,1,8,0:0:0:0:
100,212,88457,1,0,0:0:0:0:
100,212,88540,1,0,0:0:0:0:
100,212,88624,1,0,0:0:0:0:
100,212,88957,1,8,0:0:0:0:
100,212,89290,1,8,0:0:0:0:
100,212,89457,1,8,0:0:0:0:
100,212,89624,1,0,0:0:0:0:
100,212,89790,1,4,0:0:0:0:
100,212,90124,1,0,0:0:0:0:
100,212,90290,1,8,0:0:0:0:
100,212,90457,1,4,0:0:0:0:
100,212,90790,1,8,0:0:0:0:
100,212,90957,1,0,0:0:0:0:
100,212,91124,1,8,0:0:0:0:
100,212,91207,1,8,0:0:0:0:
100,212,91290,1,8,0:0:0:0:
100,212,91624,1,8,0:0:0:0:
100,212,91957,1,0,0:0:0:0:
100,212,92124,1,0,0:0:0:0:
100,212,92290,1,0,0:0:0:0:
100,212,92457,1,12,0:0:0:0:
100,212,92957,1,8,0:0:0:0:
100,212,93124,1,4,0:0:0:0:
100,212,93457,1,0,0:0:0:0:
100,212,93624,1,8,0:0:0:0:
100,212,93790,1,8,0:0:0:0:
100,212,93874,1,8,0:0:0:0:
100,212,93957,1,8,0:0:0:0:
100,212,94290,1,0,0:0:0:0:
100,212,94624,1,0,0:0:0:0:
100,212,94790,1,0,0:0:0:0:
100,212,94957,1,0,0:0:0:0:
100,212,95124,1,12,0:0:0:0:
100,212,95457,1,0,0:0:0:0:
100,212,95624,1,0,0:0:0:0:
100,212,95790,1,12,0:0:0:0:
100,212,96124,1,12,0:0:0:0:
100,212,96457,1,0,0:0:0:0:
100,212,96540,1,0,0:0:0:0:
100,212,96624,1,0,0:0:0:0:
100,212,96790,1,0,0:0:0:0:
100,212,96957,1,8,0:0:0:0:
100,212,97290,1,0,0:0:0:0:
100,212,97457,1,0,0:0:0:0:
100,212,97624,1,8,0:0:0:0:
100,212,97790,1,0,0:0:0:0:
100,212,98124,1,0,0:0:0:0:
100,212,98290,1,8,0:0:0:0:
100,212,98457,1,8,0:0:0:0:
100,212,98624,1,0,0:0:0:0:
100,212,98790,1,0,0:0:0:0:
100,212,98957,1,8,0:0:0:0:
100,212,99290,1,0,0:0:0:0:
100,212,99624,1,8,0:0:0:0:
100,212,99790,1,0,0:0:0:0:
100,212,99874,1,0,0:0:0:0:
100,212,99957,1,0,0:0:0:0:
100,212,100124,1,0,0:0:0:0:
100,212,100290,1,8,0:0:0:0:
100,212,100457,1,8,0:0:0:0:
100,212,100790,1,0,0:0:0:0:
100,212,100957,1,0,0:0:0:0:
100,212,101124,1,0,0:0:0:0:
100,212,101457,1,8,0:0:0:0:
100,212,101624,1,0,0:0:0:0:
100,212,101790,1,0,0:0:0:0:
100,212,101957,1,12,0:0:0:0:
100,212,102624,1,8,0:0:0:0:
100,212,102790,1,0,0:0:0:0:
100,212,102957,1,0,0:0:0:0:
100,212,103124,1,8,0:0:0:0:
100,212,103457,1,0,0:0:0:0:
100,212,103624,1,8,0:0:0:0:
100,212,103790,1,0,0:0:0:0:
100,212,103874,1,0,0:0:0:0:
100,212,103957,1,0,0:0:0:0:
100,212,104124,1,8,0:0:0:0:
100,212,104290,1,8,0:0:0:0:
100,212,104457,1,0,0:0:0:0:
100,212,104624,1,0,0:0:0:0:
100,212,104957,1,8,0:0:0:0:
100,212,105290,1,0,0:0:0:0:
100,212,105457,1,0,0:0:0:0:
100,212,105624,1,8,0:0:0:0:
100,212,105790,1,4,0:0:0:0:
100,212,106124,1,0,0:0:0:0:
100,212,106290,1,12,0:0:0:0:
100,212,106790,1,0,0:0:0:0:
100,212,106874,1,0,0:0:0:0:
100,212,106957,1,0,0:0:0:0:
100,212,107124,1,0,0:0:0:0:
100,212,107290,1,12,0:0:0:0:
100,212,107624,1,8,0:0:0:0:
100,212,107790,1,0,0:0:0:0:
100,212,107957,1,8,0:0:0:0:
100,212,108290,1,8,0:0:0:0:
100,212,108457,1,0,0:0:0:0:
100,212,108624,1,8,0:0:0:0:
100,212,108790,1,0,0:0:0:0:
100,212,108957,1,8,0:0:0:0:
100,212,109290,1,0,0:0:0:0:
100,212,109457,1,8,0:0:0:0:
100,212,109624,1,8,0:0:0:0:
100,212,109790,1,8,0:0:0:0:
100,212,109957,1,4,0:0:0:0:
100,212,110290,1,8,0:0:0:0:
100,212,110624,1,8,0:0:0:0:
100,212,110790,1,0,0:0:0:0:
100,212,110957,1,8,0:0:0:0:
100,212,111124,1,0,0:0:0:0:
100,212,111457,1,0,0:0:0:0:
100,212,111540,1,0,0:0:0:0:
100,212,111624,1,0,0:0:0:0:
256,192,111790,12,0,115290,0:0:0:0:
