osu file format v14

[General]
AudioFilename: audio.mp3
AudioLeadIn: 0
PreviewTime: 63550
Countdown: 0
SampleSet: Normal
StackLeniency: 0.7
Mode: 1
LetterboxInBreaks: 0
WidescreenStoryboard: 1

[Editor]
Bookmarks: 64971
DistanceSpacing: 0.6
BeatDivisor: 4
GridSize: 16
TimelineZoom: 2.6

[Metadata]
Title:Sunglow
TitleUnicode:Sunglow
Artist:Yamajet feat. Hiura Masako
ArtistUnicode:Yamajet feat. ひうらまさこ
Creator:Nao Tomori
Version:Futsuu
Source:crossbeats REV. SUNRISE
Tags:しあわせハイカロリー cross×beats capcom vulkin japanese video rhythm game
BeatmapID:2323507
BeatmapSetID:1112076

[Difficulty]
HPDrainRate:6.5
CircleSize:5
OverallDifficulty:4
ApproachRate:5
SliderMultiplier:1.4
SliderTickRate:1

[Events]
//Background and Video events
0,0,"72300506_p0.jpg",0,10
//Break Periods
//Storyboard Layer 0 (Background)
//Storyboard Layer 1 (Fail)
//Storyboard Layer 2 (Pass)
//Storyboard Layer 3 (Foreground)
//Storyboard Layer 4 (Overlay)
//Storyboard Sound Samples

[TimingPoints]
-709,333.333333333333,4,1,0,60,1,0
124,-117.647058823529,4,1,0,60,0,0
9789,-107.52688172043,4,1,0,70,0,0
10789,-106.382978723404,4,1,0,70,0,0
10873,-105.263157894737,4,1,0,70,0,0
10956,-104.166666666667,4,1,0,70,0,0
11039,-103.092783505155,4,1,0,70,0,0
11123,-102.040816326531,4,1,0,70,0,0
11206,-101.010101010101,4,1,0,70,0,0
11289,-100,4,1,0,75,0,0
16124,-105.263157894737,4,1,0,75,0,0
16623,-111.111111111111,4,1,0,60,0,0
37456,-114.285714285714,4,1,0,60,0,0
37623,-117.647058823529,4,1,0,60,0,0
37789,-121.212121212121,4,1,0,60,0,0
37956,-125,4,1,0,60,0,0
53289,-121.212121212121,4,1,0,60,0,0
53456,-121.212121212121,4,1,0,60,0,0
53539,-119.402985074627,4,1,0,60,0,0
53623,-117.647058823529,4,1,0,60,0,0
53706,-115.942028985507,4,1,0,60,0,0
53789,-114.285714285714,4,1,0,60,0,0
53956,-111.111111111111,4,1,0,70,0,0
59289,-100,4,1,0,75,0,0
64624,-100,4,1,0,80,0,1
85957,-100,4,1,0,80,0,0
96624,-100,4,1,0,80,0,1
106789,-100,4,1,0,80,0,1
107290,-100,4,1,0,75,0,0
111789,-100,4,1,0,15,0,0

[HitObjects]
238,175,624,5,4,0:0:0:0:
279,187,957,1,8,0:0:0:0:
279,187,1290,1,0,0:0:0:0:
279,187,1624,1,8,0:0:0:0:
279,187,1790,1,0,0:0:0:0:
279,187,2290,1,8,0:0:0:0:
279,187,2624,1,0,0:0:0:0:
279,187,2957,1,0,0:0:0:0:
279,187,3290,1,8,0:0:0:0:
279,187,3624,1,8,0:0:0:0:
279,187,3957,1,0,0:0:0:0:
279,187,4290,1,8,0:0:0:0:
279,187,4457,1,0,0:0:0:0:
279,187,4957,1,8,0:0:0:0:
279,187,5290,1,0,0:0:0:0:
279,187,5457,1,0,0:0:0:0:
279,187,5624,1,0,0:0:0:0:
279,187,5957,1,8,0:0:0:0:
279,187,6624,1,8,0:0:0:0:
279,187,6957,1,0,0:0:0:0:
279,187,7124,1,0,0:0:0:0:
279,187,7624,1,8,0:0:0:0:
279,187,7957,1,0,0:0:0:0:
279,187,8290,1,0,0:0:0:0:
279,187,8624,1,8,0:0:0:0:
279,187,8957,1,8,0:0:0:0:
279,187,9290,1,0,0:0:0:0:
279,187,9457,1,8,0:0:0:0:
279,187,9624,1,8,0:0:0:0:
279,187,9790,1,4,0:0:0:0:
279,187,10457,1,12,0:0:0:0:
279,187,11290,1,4,0:0:0:0:
279,187,11624,1,8,0:0:0:0:
279,187,11957,1,0,0:0:0:0:
279,187,12124,1,0,0:0:0:0:
279,187,12290,1,8,0:0:0:0:
279,187,12624,1,0,0:0:0:0:
279,187,12957,1,8,0:0:0:0:
279,187,13290,1,0,0:0:0:0:
279,187,13457,1,0,0:0:0:0:
279,187,13624,1,8,0:0:0:0:
279,187,13790,1,8,0:0:0:0:
279,187,13957,1,4,0:0:0:0:
279,187,14290,1,8,0:0:0:0:
279,187,14624,1,8,0:0:0:0:
279,187,14790,1,0,0:0:0:0:
279,187,15124,1,4,0:0:0:0:
279,187,15624,1,12,0:0:0:0:
279,187,16624,1,4,0:0:0:0:
279,187,17124,1,0,0:0:0:0:
279,187,17290,1,8,0:0:0:0:
279,187,17457,1,0,0:0:0:0:
279,187,17790,1,8,0:0:0:0:
279,187,18290,1,0,0:0:0:0:
279,187,18624,1,0,0:0:0:0:
279,187,18957,1,8,0:0:0:0:
279,187,19290,1,8,0:0:0:0:
279,187,19790,1,0,0:0:0:0:
279,187,19957,1,0,0:0:0:0:
279,187,21290,1,0,0:0:0:0:
279,187,21624,1,0,0:0:0:0:
279,187,21957,1,8,0:0:0:0:
279,187,22457,1,0,0:0:0:0:
279,187,22624,1,8,0:0:0:0:
279,187,22790,1,8,0:0:0:0:
279,187,23124,1,0,0:0:0:0:
279,187,23624,1,8,0:0:0:0:
279,187,23957,1,0,0:0:0:0:
279,187,24290,1,8,0:0:0:0:
279,187,24624,1,0,0:0:0:0:
279,187,24957,1,0,0:0:0:0:
279,187,25124,1,0,0:0:0:0:
279,187,25790,1,12,0:0:0:0:
279,187,26457,1,12,0:0:0:0:
279,187,27290,1,4,0:0:0:0:
279,187,27790,1,0,0:0:0:0:
279,187,27957,1,0,0:0:0:0:
279,187,28124,1,8,0:0:0:0:
279,187,28457,1,8,0:0:0:0:
279,187,28957,1,0,0:0:0:0:
279,187,29290,1,0,0:0:0:0:
279,187,29624,1,8,0:0:0:0:
279,187,29957,1,8,0:0:0:0:
279,187,30457,1,0,0:0:0:0:
279,187,30624,1,0,0:0:0:0:
279,187,31957,1,0,0:0:0:0:
279,187,32290,1,8,0:0:0:0:
279,187,32624,1,8,0:0:0:0:
279,187,33124,1,0,0:0:0:0:
279,187,33290,1,0,0:0:0:0:
279,187,33457,1,8,0:0:0:0:
279,187,33790,1,8,0:0:0:0:
279,187,34290,1,0,0:0:0:0:
279,187,34624,1,0,0:0:0:0:
279,187,34957,1,8,0:0:0:0:
279,187,35290,1,8,0:0:0:0:
279,187,35624,1,8,0:0:0:0:
279,187,35790,1,0,0:0:0:0:
279,187,36457,1,12,0:0:0:0:
279,187,37290,1,0,0:0:0:0:
279,187,37624,1,0,0:0:0:0:
279,187,37957,1,8,0:0:0:0:
279,187,38624,1,0,0:0:0:0:
279,187,38957,1,0,0:0:0:0:
279,187,39290,1,8,0:0:0:0:
279,187,39957,1,0,0:0:0:0:
279,187,40290,1,0,0:0:0:0:
279,187,40624,1,8,0:0:0:0:
279,187,40957,1,8,0:0:0:0:
279,187,41290,1,0,0:0:0:0:
279,187,41624,1,0,0:0:0:0:
279,187,41957,1,8,0:0:0:0:
279,187,42624,1,0,0:0:0:0:
279,187,42790,1,8,0:0:0:0:
279,187,42957,1,8,0:0:0:0:
279,187,43124,1,8,0:0:0:0:
279,187,43290,1,0,0:0:0:0:
279,187,44290,1,0,0:0:0:0:
279,187,44624,1,8,0:0:0:0:
279,187,44957,1,0,0:0:0:0:
279,187,45290,1,0,0:0:0:0:
279,187,45624,1,8,0:0:0:0:
279,187,45957,1,0,0:0:0:0:
279,187,46624,1,0,0:0:0:0:
279,187,46957,1,8,0:0:0:0:
279,187,47290,1,0,0:0:0:0:
279,187,47624,1,8,0:0:0:0:
279,187,47957,1,0,0:0:0:0:
279,187,48290,1,0,0:0:0:0:
279,187,48624,1,12,0:0:0:0:
279,187,49290,1,0,0:0:0:0:
279,187,49624,1,0,0:0:0:0:
279,187,49957,1,8,0:0:0:0:
279,187,50624,1,0,0:0:0:0:
279,187,50957,1,0,0:0:0:0:
279,187,51290,1,8,0:0:0:0:
279,187,51624,1,0,0:0:0:0:
279,187,51957,1,8,0:0:0:0:
279,187,52290,1,8,0:0:0:0:
279,187,52624,1,0,0:0:0:0:
279,187,53290,1,8,0:0:0:0:
279,187,53624,1,8,0:0:0:0:
279,187,53957,1,4,0:0:0:0:
279,187,54957,1,8,0:0:0:0:
279,187,55124,1,4,0:0:0:0:
279,187,55624,1,0,0:0:0:0:
279,187,55957,1,8,0:0:0:0:
279,187,56290,1,8,0:0:0:0:
279,187,56624,1,0,0:0:0:0:
279,187,56790,1,0,0:0:0:0:
279,187,56957,1,8,0:0:0:0:
279,187,57290,1,0,0:0:0:0:
279,187,57624,1,8,0:0:0:0:
279,187,57957,1,0,0:0:0:0:
279,187,58624,1,8,0:0:0:0:
279,187,58957,1,8,0:0:0:0:
279,187,59290,1,4,0:0:0:0:
279,187,59957,1,4,0:0:0:0:
279,187,60624,1,12,0:0:0:0:
279,187,60957,1,12,0:0:0:0:
279,187,61290,1,12,0:0:0:0:
279,187,61957,1,4,0:0:0:0:
279,187,62624,1,4,0:0:0:0:
279,187,63124,1,12,0:0:0:0:
279,187,63624,1,0,0:0:0:0:
279,187,63957,1,8,0:0:0:0:
279,187,64290,1,8,0:0:0:0:
279,187,64624,1,4,0:0:0:0:
279,187,65124,1,8,0:0:0:0:
279,187,65290,1,0,0:0:0:0:
279,187,65790,1,0,0:0:0:0:
279,187,65957,1,8,0:0:0:0:
279,187,66124,1,8,0:0:0:0:
279,187,66457,1,0,0:0:0:0:
279,187,66790,1,8,0:0:0:0:
279,187,67124,1,0,0:0:0:0:
279,187,67624,1,8,0:0:0:0:
279,187,67957,1,8,0:0:0:0:
279,187,68124,1,0,0:0:0:0:
279,187,68457,1,8,0:0:0:0:
279,187,69290,1,8,0:0:0:0:
279,187,69457,1,8,0:0:0:0:
279,187,69624,1,0,0:0:0:0:
279,187,69790,1,0,0:0:0:0:
279,187,69957,1,8,0:0:0:0:
279,187,70624,1,8,0:0:0:0:
279,187,70790,1,8,0:0:0:0:
279,187,70957,1,0,0:0:0:0:
279,187,71124,1,8,0:0:0:0:
279,187,71290,1,0,0:0:0:0:
279,187,71624,1,0,0:0:0:0:
279,187,71957,1,0,0:0:0:0:
279,187,72290,1,0,0:0:0:0:
279,187,72624,1,8,0:0:0:0:
279,187,73124,1,0,0:0:0:0:
279,187,73290,1,0,0:0:0:0:
279,187,73624,1,8,0:0:0:0:
279,187,73790,1,4,0:0:0:0:
279,187,74290,1,0,0:0:0:0:
279,187,74624,1,8,0:0:0:0:
279,187,74957,1,8,0:0:0:0:
279,187,75290,1,4,0:0:0:0:
279,187,75790,1,8,0:0:0:0:
279,187,75957,1,0,0:0:0:0:
279,187,76457,1,0,0:0:0:0:
279,187,76624,1,8,0:0:0:0:
279,187,76790,1,8,0:0:0:0:
279,187,77124,1,0,0:0:0:0:
279,187,77457,1,8,0:0:0:0:
279,187,77790,1,0,0:0:0:0:
279,187,78290,1,8,0:0:0:0:
279,187,78624,1,8,0:0:0:0:
279,187,78790,1,0,0:0:0:0:
279,187,79124,1,8,0:0:0:0:
279,187,79957,1,0,0:0:0:0:
279,187,80124,1,8,0:0:0:0:
279,187,80290,1,8,0:0:0:0:
279,187,80457,1,8,0:0:0:0:
279,187,80624,1,0,0:0:0:0:
279,187,81290,1,0,0:0:0:0:
279,187,81457,1,8,0:0:0:0:
279,187,81624,1,8,0:0:0:0:
279,187,81790,1,8,0:0:0:0:
279,187,81957,1,0,0:0:0:0:
279,187,82290,1,0,0:0:0:0:
279,187,82624,1,8,0:0:0:0:
279,187,82957,1,8,0:0:0:0:
279,187,83290,1,4,0:0:0:0:
279,187,83957,1,12,0:0:0:0:
279,187,84457,1,4,0:0:0:0:
279,187,85124,1,0,0:0:0:0:
279,187,85457,1,8,0:0:0:0:
279,187,85790,1,8,0:0:0:0:
279,187,85957,1,0,0:0:0:0:
279,187,86290,1,8,0:0:0:0:
279,187,86624,1,8,0:0:0:0:
279,187,86790,1,0,0:0:0:0:
279,187,87124,1,12,0:0:0:0:
279,187,87790,1,12,0:0:0:0:
279,187,88290,1,8,0:0:0:0:
279,187,88457,1,0,0:0:0:0:
279,187,88624,1,0,0:0:0:0:
279,187,88957,1,8,0:0:0:0:
279,187,89290,1,0,0:0:0:0:
279,187,89457,1,0,0:0:0:0:
279,187,89624,1,8,0:0:0:0:
279,187,89790,1,4,0:0:0:0:
279,187,90290,1,8,0:0:0:0:
279,187,90457,1,4,0:0:0:0:
279,187,90790,1,8,0:0:0:0:
279,187,91124,1,8,0:0:0:0:
279,187,91290,1,0,0:0:0:0:
279,187,91624,1,8,0:0:0:0:
279,187,91957,1,8,0:0:0:0:
279,187,92124,1,0,0:0:0:0:
279,187,92457,1,12,0:0:0:0:
279,187,93124,1,12,0:0:0:0:
279,187,93624,1,0,0:0:0:0:
279,187,93790,1,0,0:0:0:0:
279,187,93957,1,8,0:0:0:0:
279,187,94290,1,8,0:0:0:0:
279,187,94624,1,0,0:0:0:0:
279,187,94790,1,0,0:0:0:0:
279,187,95124,1,12,0:0:0:0:
279,187,95790,1,4,0:0:0:0:
254,160,96124,1,8,0:0:0:0:
138,89,96457,1,8,0:0:0:0:
279,187,96624,1,4,0:0:0:0:
279,187,96957,1,8,0:0:0:0:
279,187,97290,1,0,0:0:0:0:
279,187,97457,1,0,0:0:0:0:
279,187,97624,1,8,0:0:0:0:
279,187,97790,1,0,0:0:0:0:
279,187,98290,1,8,0:0:0:0:
279,187,98624,1,8,0:0:0:0:
279,187,98790,1,8,0:0:0:0:
279,187,98957,1,0,0:0:0:0:
279,187,99290,1,0,0:0:0:0:
279,187,99957,1,0,0:0:0:0:
279,187,100124,1,0,0:0:0:0:
279,187,100290,1,8,0:0:0:0:
279,187,100457,1,8,0:0:0:0:
279,187,100790,1,8,0:0:0:0:
279,187,100957,1,8,0:0:0:0:
279,187,101124,1,0,0:0:0:0:
279,187,101457,1,8,0:0:0:0:
317,199,101957,1,4,0:0:0:0:
279,187,102790,1,0,0:0:0:0:
279,187,102957,1,0,0:0:0:0:
279,187,103124,1,8,0:0:0:0:
231,145,103624,1,8,0:0:0:0:
279,187,104124,1,0,0:0:0:0:
279,187,104290,1,8,0:0:0:0:
279,187,104457,1,0,0:0:0:0:
279,187,104957,1,8,0:0:0:0:
279,187,105290,1,0,0:0:0:0:
279,187,105624,1,0,0:0:0:0:
279,187,105790,1,8,0:0:0:0:
279,187,106290,1,12,0:0:0:0:
279,187,106957,1,0,0:0:0:0:
279,187,107124,1,0,0:0:0:0:
279,187,107290,1,12,0:0:0:0:
279,187,107957,1,8,0:0:0:0:
279,187,108124,1,8,0:0:0:0:
279,187,108290,1,0,0:0:0:0:
279,187,108457,1,8,0:0:0:0:
279,187,108957,1,8,0:0:0:0:
279,187,109290,1,0,0:0:0:0:
279,187,109457,1,0,0:0:0:0:
279,187,109624,1,8,0:0:0:0:
137,150,109790,1,8,0:0:0:0:
279,187,109957,1,4,0:0:0:0:
279,187,110290,1,8,0:0:0:0:
279,187,110624,1,0,0:0:0:0:
279,187,110790,1,0,0:0:0:0:
279,187,111124,1,8,0:0:0:0:
279,187,111624,1,4,0:0:0:0:
256,192,111790,12,0,115290,0:0:0:0:
