osu file format v14

[General]
AudioFilename: audio.mp3
AudioLeadIn: 0
PreviewTime: 86916
Countdown: 0
SampleSet: Soft
StackLeniency: 0.7
Mode: 3
LetterboxInBreaks: 0
SpecialStyle: 0
WidescreenStoryboard: 0

[Editor]
Bookmarks: 13083,24073,74083
DistanceSpacing: 0.83
BeatDivisor: 4
GridSize: 16
TimelineZoom: 1.7

[Metadata]
Title:Sunglow (Cut Ver.)
TitleUnicode:Sunglow (Cut Ver.)
Artist:Yamajet feat. Hiura Masako
ArtistUnicode:Yamajet feat. ひうらまさこ
Creator:secXcscX
Version:Shine
Source:crossbeats REV. SUNRISE
Tags:GROOVE COASTER 3 LINK FEVER Happy High Carolie しあわせハイカロリー capcom video game japanese female vocals jpop j-pop j pop short version
BeatmapID:3085487
BeatmapSetID:1506341

[Difficulty]
HPDrainRate:8.5
CircleSize:4
OverallDifficulty:8.2
ApproachRate:5
SliderMultiplier:1.4
SliderTickRate:1

[Events]
//Background and Video events
0,0,"BG.jpg",0,0
//Break Periods
//Storyboard Layer 0 (Background)
//Storyboard Layer 1 (Fail)
//Storyboard Layer 2 (Pass)
//Storyboard Layer 3 (Foreground)
//Storyboard Layer 4 (Overlay)
//Storyboard Sound Samples

[TimingPoints]
2740,333.333333333333,4,2,1,60,1,0
88073,-100,4,2,1,60,0,1
109406,-100,4,2,1,60,0,0

[HitObjects]
320,192,2406,5,2,0:0:0:0:
448,192,2406,1,0,0:0:0:0:
64,192,2489,1,0,0:0:0:70:LR_Tom Hit 3.wav
192,192,2489,1,0,0:0:0:0:
320,192,2573,1,0,0:0:0:70:LR_Tom Hit 3.wav
448,192,2573,1,0,0:0:0:0:
64,192,2739,128,8,3073:0:0:0:0:
448,192,2739,128,0,2906:0:0:0:0:
192,192,2906,1,0,0:0:0:0:
320,192,3073,1,8,0:0:0:0:
448,192,3073,1,0,0:0:0:0:
192,192,3239,1,0,0:0:0:0:
64,192,3406,1,8,0:0:0:0:
448,192,3406,1,0,0:0:0:0:
320,192,3573,128,0,3739:0:0:0:0:
64,192,3739,1,8,0:0:0:0:
192,192,3739,1,0,0:0:0:0:
320,192,3906,128,0,4239:0:0:0:0:
64,192,4073,1,8,0:0:0:0:
448,192,4073,1,0,0:0:0:0:
192,192,4239,1,0,0:0:0:0:
64,192,4406,1,8,0:0:0:0:
448,192,4406,1,0,0:0:0:0:
192,192,4573,1,0,0:0:0:0:
320,192,4739,1,8,0:0:0:0:
448,192,4739,1,0,0:0:0:0:
64,192,4906,1,0,0:0:0:0:
192,192,5073,1,8,0:0:0:0:
320,192,5073,1,0,0:0:0:0:
448,192,5239,1,0,0:0:0:0:
64,192,5406,128,8,5573:0:0:0:0:
320,192,5406,128,0,5739:0:0:0:0:
192,192,5573,1,0,0:0:0:0:
64,192,5739,1,8,0:0:0:0:
448,192,5739,1,0,0:0:0:0:
192,192,5906,1,0,0:0:0:0:
320,192,6073,1,8,0:0:0:0:
448,192,6073,1,0,0:0:0:0:
192,192,6239,128,0,6406:0:0:0:0:
64,192,6406,1,8,0:0:0:0:
320,192,6406,1,0,0:0:0:0:
192,192,6573,128,0,6906:0:0:0:0:
64,192,6739,1,8,0:0:0:0:
448,192,6739,1,0,0:0:0:0:
320,192,6906,1,0,0:0:0:0:
192,192,7073,1,8,0:0:0:0:
448,192,7073,1,0,0:0:0:0:
320,192,7239,1,0,0:0:0:0:
64,192,7406,1,8,0:0:0:0:
448,192,7406,128,0,7489:0:0:0:0:
320,192,7573,128,0,7656:0:0:0:0:
64,192,7739,1,8,0:0:0:0:
192,192,7739,128,0,7823:0:0:0:0:
320,192,7906,128,0,7989:0:0:0:0:
192,192,7989,1,0,0:0:0:0:
64,192,8073,128,8,8406:0:0:0:0:
448,192,8073,128,0,8239:0:0:0:0:
320,192,8239,1,0,0:0:0:0:
192,192,8406,1,8,0:0:0:0:
448,192,8406,1,0,0:0:0:0:
320,192,8573,1,0,0:0:0:0:
64,192,8739,1,8,0:0:0:0:
192,192,8739,1,0,0:0:0:0:
320,192,8906,128,0,9073:0:0:0:0:
192,192,9073,1,8,0:0:0:0:
448,192,9073,1,0,0:0:0:0:
320,192,9239,128,0,9573:0:0:0:0:
64,192,9406,1,8,0:0:0:0:
448,192,9406,1,0,0:0:0:0:
192,192,9573,1,0,0:0:0:0:
320,192,9739,1,8,0:0:0:0:
448,192,9739,1,0,0:0:0:0:
64,192,9906,1,0,0:0:0:0:
192,192,10073,1,8,0:0:0:0:
320,192,10073,1,0,0:0:0:0:
448,192,10239,1,0,0:0:0:0:
64,192,10406,1,8,0:0:0:0:
320,192,10406,1,0,0:0:0:0:
192,192,10573,1,0,0:0:0:0:
320,192,10656,1,0,0:0:0:0:
64,192,10739,128,8,10906:0:0:0:0:
448,192,10739,128,0,11073:0:0:0:0:
192,192,10906,1,0,0:0:0:0:
64,192,11073,1,8,0:0:0:0:
320,192,11073,1,0,0:0:0:0:
192,192,11239,1,0,0:0:0:0:
320,192,11406,1,8,0:0:0:0:
448,192,11406,1,0,0:0:0:0:
192,192,11573,128,0,11739:0:0:0:0:
64,192,11739,1,8,0:0:0:0:
448,192,11739,1,0,0:0:0:0:
192,192,11906,128,0,12239:0:0:0:0:
64,192,12073,1,8,0:0:0:0:
320,192,12073,1,0,0:0:0:0:
448,192,12239,1,0,0:0:0:0:
64,192,12406,1,8,0:0:0:0:
192,192,12406,1,0,0:0:0:0:
320,192,12573,1,0,0:0:0:0:
192,192,12656,1,0,0:0:0:0:
64,192,12739,1,8,0:0:0:0:
448,192,12739,1,0,0:0:0:0:
320,192,12823,1,0,0:0:0:0:
192,192,12906,1,0,0:0:0:0:
320,192,12989,1,0,0:0:0:0:
64,192,13073,1,2,0:0:0:0:
448,192,13073,1,0,0:0:0:0:
192,192,13156,1,8,0:0:0:0:
320,192,13239,1,2,0:0:0:0:
448,192,13239,1,0,0:0:0:0:
64,192,13323,1,2,0:0:0:0:
192,192,13323,1,0,0:0:0:0:
64,192,13406,128,8,13739:0:0:0:0:
320,192,13406,1,0,0:0:0:50:LR_CymbalQST.wav
448,192,13406,128,0,13573:0:0:0:0:
192,192,13573,1,0,0:0:0:0:
320,192,13739,1,8,0:0:0:0:
448,192,13739,1,2,0:0:0:0:
192,192,13906,1,0,0:0:0:0:
64,192,14073,1,8,0:0:0:0:
448,192,14073,1,0,0:0:0:0:
192,192,14156,1,0,0:0:0:0:
320,192,14239,128,0,14406:0:0:0:0:
64,192,14406,1,8,0:0:0:0:
192,192,14406,1,0,0:0:0:0:
320,192,14573,128,0,14906:0:0:0:0:
64,192,14739,1,8,0:0:0:0:
448,192,14739,1,0,0:0:0:0:
192,192,14906,1,0,0:0:0:0:
192,192,14989,1,0,0:0:0:0:
64,192,15073,1,8,0:0:0:0:
320,192,15073,1,2,0:0:0:0:
448,192,15073,1,0,0:0:0:0:
192,192,15239,1,0,0:0:0:0:
320,192,15406,1,8,0:0:0:0:
448,192,15406,1,0,0:0:0:0:
192,192,15489,1,0,0:0:0:0:
64,192,15573,1,0,0:0:0:0:
320,192,15739,1,8,0:0:0:0:
448,192,15739,1,0,0:0:0:0:
64,192,15906,1,0,0:0:0:0:
64,192,15989,1,0,0:0:0:0:
320,192,16073,128,8,16239:0:0:0:0:
448,192,16073,128,0,16406:0:0:0:0:
192,192,16239,1,0,0:0:0:0:
64,192,16406,1,8,0:0:0:0:
320,192,16406,1,2,0:0:0:0:
192,192,16573,1,0,0:0:0:0:
192,192,16656,1,0,0:0:0:0:
64,192,16739,1,8,0:0:0:0:
448,192,16739,1,0,0:0:0:0:
320,192,16823,1,0,0:0:0:0:
192,192,16906,128,0,17073:0:0:0:0:
320,192,17073,1,8,0:0:0:0:
448,192,17073,1,0,0:0:0:0:
192,192,17239,128,0,17573:0:0:0:0:
64,192,17406,1,8,0:0:0:0:
448,192,17406,1,0,0:0:0:0:
320,192,17573,1,0,0:0:0:0:
320,192,17656,1,0,0:0:0:0:
64,192,17739,1,8,0:0:0:0:
192,192,17739,1,2,0:0:0:0:
448,192,17739,1,0,0:0:0:0:
320,192,17906,1,0,0:0:0:0:
64,192,18073,128,0,18156:0:0:0:70:LR_Tom Hit 3.wav
192,192,18073,128,0,18156:0:0:0:0:
192,192,18239,128,0,18323:0:0:0:70:LR_Tom Hit 3.wav
320,192,18239,128,0,18323:0:0:0:0:
320,192,18406,128,0,18489:0:0:0:70:LR_Tom Hit 2.wav
448,192,18406,128,0,18489:0:0:0:0:
64,192,18573,128,0,18656:0:0:0:70:LR_Tom Hit 2.wav
448,192,18573,128,0,18656:0:0:0:0:
192,192,18739,128,0,18906:0:0:0:70:LR_Tom Hit 3.wav
320,192,18739,128,0,19073:0:0:0:0:
64,192,18906,1,0,0:0:0:0:
192,192,19073,1,8,0:0:0:0:
448,192,19073,128,2,19239:0:0:0:0:
64,192,19239,1,0,0:0:0:0:
64,192,19323,1,0,0:0:0:0:
320,192,19406,1,8,0:0:0:0:
448,192,19406,1,0,0:0:0:0:
192,192,19489,1,0,0:0:0:0:
448,192,19573,128,0,19739:0:0:0:0:
64,192,19739,128,8,19906:0:0:0:0:
192,192,19739,1,0,0:0:0:0:
320,192,19906,128,0,20239:0:0:0:0:
448,192,19906,128,0,20239:0:0:0:0:
64,192,20073,1,8,0:0:0:0:
192,192,20073,1,0,0:0:0:0:
192,192,20239,1,0,0:0:0:0:
192,192,20323,1,0,0:0:0:0:
64,192,20406,128,8,20573:0:0:0:0:
320,192,20406,1,2,0:0:0:0:
448,192,20406,1,0,0:0:0:0:
320,192,20573,1,0,0:0:0:0:
64,192,20739,1,8,0:0:0:0:
448,192,20739,1,0,0:0:0:0:
320,192,20823,1,0,0:0:0:0:
192,192,20906,1,0,0:0:0:0:
64,192,21073,1,8,0:0:0:0:
448,192,21073,128,0,21239:0:0:0:0:
320,192,21239,1,0,0:0:0:0:
320,192,21323,1,0,0:0:0:0:
64,192,21406,128,8,21739:0:0:0:0:
192,192,21406,128,0,21489:0:0:0:0:
192,192,21573,128,0,21739:0:0:0:0:
320,192,21739,128,8,21823:0:0:0:0:
448,192,21739,128,2,21823:0:0:0:0:
320,192,21906,128,0,22073:0:0:0:0:
448,192,21906,128,0,22073:0:0:0:0:
64,192,22073,1,8,0:0:0:0:
192,192,22239,1,0,0:0:0:0:
320,192,22406,1,8,0:0:0:0:
448,192,22406,1,0,0:0:0:0:
64,192,22573,128,2,23156:0:0:0:0:
192,192,22573,1,8,0:0:0:0:
448,192,22573,1,0,0:0:0:50:LR_CymbalQST.wav
320,192,22906,128,0,22989:0:0:0:70:LR_Tom Drop.wav
448,192,22906,128,0,22989:0:0:0:0:
192,192,23073,128,0,23156:0:0:0:70:LR_Tom Hit 3.wav
320,192,23073,128,0,23156:0:0:0:0:
64,192,23239,128,0,23406:0:0:0:70:LR_Tom Hit 2.wav
192,192,23239,128,0,23406:0:0:0:50:LR_CymbalQST.wav
448,192,23239,128,0,23573:0:0:0:0:
320,192,23573,1,0,0:0:0:0:
64,192,23739,1,2,0:0:0:0:
192,192,23739,1,0,0:0:0:0:
320,192,23823,1,2,0:0:0:0:
448,192,23823,1,0,0:0:0:0:
64,192,23906,1,2,0:0:0:0:
192,192,23906,1,0,0:0:0:0:
320,192,23989,1,2,0:0:0:0:
448,192,23989,1,0,0:0:0:0:
64,192,24073,128,8,24239:0:0:0:0:
192,192,24073,1,0,0:0:0:50:LR_CymbalQST.wav
448,192,24073,1,0,0:0:0:0:
64,192,24406,128,2,24739:0:0:0:0:
192,192,24406,1,0,0:0:0:0:
448,192,24406,1,0,0:0:0:0:
448,192,24573,1,8,0:0:0:0:
192,192,24739,1,8,0:0:0:0:
320,192,24739,1,0,0:0:0:0:
320,192,24906,1,0,0:0:0:0:
64,192,25073,1,2,0:0:0:0:
192,192,25073,1,0,0:0:0:0:
448,192,25073,1,0,0:0:0:0:
64,192,25239,128,8,25406:0:0:0:0:
448,192,25239,1,0,0:0:0:0:
320,192,25573,128,8,25739:0:0:0:0:
448,192,25573,128,0,25739:0:0:0:0:
64,192,25739,1,2,0:0:0:0:
192,192,25739,1,0,0:0:0:0:
192,192,25906,128,0,26073:0:0:0:0:
320,192,25906,128,0,26073:0:0:0:0:
64,192,26073,1,8,0:0:0:0:
448,192,26073,1,0,0:0:0:0:
192,192,26239,128,0,26406:0:0:0:0:
64,192,26406,1,2,0:0:0:0:
320,192,26406,1,0,0:0:0:0:
448,192,26406,1,0,0:0:0:0:
448,192,26573,128,0,26739:0:0:0:0:
64,192,26739,128,8,26906:0:0:0:0:
320,192,26739,1,0,0:0:0:0:
64,192,27073,128,2,27406:0:0:0:0:
320,192,27073,1,0,0:0:0:0:
448,192,27073,1,0,0:0:0:0:
320,192,27239,1,8,0:0:0:0:
192,192,27406,1,8,0:0:0:0:
448,192,27406,1,0,0:0:0:0:
192,192,27573,1,0,0:0:0:0:
64,192,27739,1,2,0:0:0:0:
320,192,27739,1,0,0:0:0:0:
448,192,27739,1,0,0:0:0:0:
64,192,27906,1,8,0:0:0:0:
448,192,27906,128,0,28239:0:0:0:0:
320,192,28239,1,8,0:0:0:0:
64,192,28406,1,2,0:0:0:0:
192,192,28406,1,0,0:0:0:0:
448,192,28406,1,0,0:0:0:0:
192,192,28573,128,0,28906:0:0:0:0:
320,192,28739,1,0,0:0:0:70:LR_Tom Drop.wav
448,192,28739,1,0,0:0:0:0:
320,192,28906,1,0,0:0:0:70:LR_Tom Hit 2.wav
448,192,28906,1,0,0:0:0:0:
64,192,29073,1,2,0:0:0:0:
192,192,29073,1,0,0:0:0:70:LR_Tom Hit 2.wav
448,192,29073,1,0,0:0:0:0:
192,192,29239,1,0,0:0:0:70:LR_Tom Hit 3.wav
320,192,29239,1,0,0:0:0:0:
64,192,29406,128,8,29573:0:0:0:0:
320,192,29406,1,0,0:0:0:50:LR_CymbalQST.wav
448,192,29406,1,0,0:0:0:0:
64,192,29739,128,2,30073:0:0:0:0:
192,192,29739,1,0,0:0:0:0:
448,192,29739,1,0,0:0:0:0:
192,192,29906,128,8,30073:0:0:0:0:
320,192,30073,1,8,0:0:0:0:
448,192,30073,1,0,0:0:0:0:
320,192,30239,1,0,0:0:0:0:
64,192,30406,1,2,0:0:0:0:
192,192,30406,1,0,0:0:0:0:
448,192,30406,1,0,0:0:0:0:
192,192,30573,128,8,30739:0:0:0:0:
320,192,30573,1,0,0:0:0:0:
320,192,30906,128,8,31073:0:0:0:0:
448,192,30906,128,0,31073:0:0:0:0:
64,192,31073,1,2,0:0:0:0:
192,192,31073,1,0,0:0:0:0:
64,192,31239,128,0,31406:0:0:0:0:
448,192,31239,128,0,31406:0:0:0:0:
192,192,31406,1,8,0:0:0:0:
320,192,31406,1,0,0:0:0:0:
192,192,31573,1,0,0:0:0:0:
64,192,31739,1,2,0:0:0:0:
320,192,31739,1,0,0:0:0:0:
448,192,31739,1,0,0:0:0:0:
192,192,31906,1,0,0:0:0:0:
64,192,32073,128,8,32239:0:0:0:0:
320,192,32073,1,0,0:0:0:0:
64,192,32406,128,2,32739:0:0:0:0:
192,192,32406,1,0,0:0:0:0:
320,192,32406,1,0,0:0:0:0:
320,192,32573,1,8,0:0:0:0:
192,192,32739,1,8,0:0:0:0:
448,192,32739,1,0,0:0:0:0:
192,192,32906,1,0,0:0:0:0:
64,192,33073,1,2,0:0:0:0:
448,192,33073,1,0,0:0:0:0:
64,192,33239,128,8,33489:0:0:0:0:
192,192,33239,1,0,0:0:0:0:
320,192,33239,1,0,0:0:0:0:
192,192,33573,128,8,33823:0:0:0:0:
64,192,33739,1,2,0:0:0:0:
320,192,33739,1,0,0:0:0:50:LR_CymbalQST.wav
448,192,33739,1,0,0:0:0:0:
448,192,33906,128,0,34156:0:0:0:0:
192,192,34073,1,8,0:0:0:0:
320,192,34073,1,0,0:0:0:0:
64,192,34239,1,8,0:0:0:0:
448,192,34239,1,0,0:0:0:0:
192,192,34323,1,2,0:0:0:0:
64,192,34406,1,2,0:0:0:0:
320,192,34406,1,0,0:0:0:0:
448,192,34406,1,0,0:0:0:0:
192,192,34573,1,0,0:0:0:70:LR_Tom Hit 2.wav
320,192,34573,1,0,0:0:0:0:
64,192,34739,1,8,0:0:0:0:
192,192,34739,1,2,0:0:0:0:
320,192,34739,1,0,0:0:0:50:LR_CymbalQST.wav
448,192,34739,1,0,0:0:0:0:
192,192,34906,128,0,35073:0:0:0:0:
64,192,35073,1,2,0:0:0:0:
320,192,35073,1,8,0:0:0:0:
448,192,35073,1,0,0:0:0:0:
320,192,35239,128,0,35406:0:0:0:0:
64,192,35406,1,2,0:0:0:0:
192,192,35406,1,8,0:0:0:0:
448,192,35406,1,0,0:0:0:0:
448,192,35573,128,0,35739:0:0:0:0:
64,192,35739,1,2,0:0:0:0:
192,192,35739,1,8,0:0:0:0:
320,192,35739,1,0,0:0:0:0:
64,192,35906,128,0,36073:0:0:0:0:
192,192,36073,1,2,0:0:0:0:
320,192,36073,1,8,0:0:0:0:
448,192,36073,1,0,0:0:0:0:
320,192,36239,128,8,36406:0:0:0:0:
64,192,36406,1,2,0:0:0:0:
192,192,36406,1,8,0:0:0:0:
448,192,36406,1,0,0:0:0:0:
64,192,36739,1,2,0:0:0:0:
192,192,36739,1,8,0:0:0:0:
448,192,36739,1,0,0:0:0:0:
448,192,36906,128,8,37073:0:0:0:0:
64,192,37073,1,2,0:0:0:0:
192,192,37073,1,8,0:0:0:0:
320,192,37073,1,0,0:0:0:0:
64,192,37406,1,2,0:0:0:0:
192,192,37406,1,8,0:0:0:0:
320,192,37406,1,0,0:0:0:50:LR_CymbalQST.wav
448,192,37406,1,0,0:0:0:0:
192,192,37573,128,0,37739:0:0:0:0:
64,192,37739,1,2,0:0:0:0:
320,192,37739,1,8,0:0:0:0:
448,192,37739,1,0,0:0:0:0:
64,192,37906,128,0,38073:0:0:0:0:
192,192,38073,128,2,38156:0:0:0:0:
320,192,38073,128,0,38156:0:0:0:70:LR_Tom Drop.wav
448,192,38073,128,0,38156:0:0:0:0:
192,192,38239,128,0,38323:0:0:0:70:LR_Tom Hit 2.wav
320,192,38239,128,0,38323:0:0:0:0:
64,192,38406,128,0,38489:0:0:0:70:LR_Tom Hit 2.wav
192,192,38406,128,0,38489:0:0:0:0:
64,192,38573,128,8,38656:0:0:0:0:
320,192,38573,128,0,38656:0:0:0:70:LR_Tom Hit 3.wav
448,192,38573,128,0,38656:0:0:0:0:
64,192,38906,1,0,0:0:0:70:LR_Tom Hit 2.wav
448,192,38906,1,0,0:0:0:0:
320,192,38989,1,0,0:0:0:70:LR_Tom Hit 2.wav
64,192,39073,128,2,39406:0:0:0:0:
192,192,39073,128,0,39406:0:0:0:70:LR_Tom Hit 3.wav
448,192,39073,128,0,39406:0:0:0:0:
64,192,39573,1,2,0:0:0:0:
192,192,39573,1,0,0:0:0:0:
448,192,39573,1,0,0:0:0:0:
192,192,39739,1,0,0:0:0:70:LR_Tom Hit 2.wav
320,192,39739,1,0,0:0:0:0:
64,192,40073,1,8,0:0:0:0:
320,192,40073,128,0,40406:0:0:0:50:LR_CymbalQST.wav
448,192,40073,1,0,0:0:0:0:
64,192,40406,1,2,0:0:0:0:
192,192,40406,1,0,0:0:0:0:
448,192,40406,1,0,0:0:0:0:
192,192,40573,1,0,0:0:0:0:
320,192,40739,1,8,0:0:0:0:
448,192,40739,1,0,0:0:0:0:
192,192,40906,1,8,0:0:0:0:
320,192,40906,1,0,0:0:0:0:
64,192,41073,1,2,0:0:0:0:
192,192,41073,1,0,0:0:0:0:
448,192,41073,1,0,0:0:0:0:
64,192,41239,1,8,0:0:0:0:
320,192,41239,128,0,41573:0:0:0:0:
64,192,41573,1,8,0:0:0:0:
448,192,41573,1,0,0:0:0:0:
192,192,41739,128,2,41906:0:0:0:0:
320,192,41739,1,0,0:0:0:0:
448,192,41739,1,0,0:0:0:0:
64,192,41906,1,0,0:0:0:0:
320,192,42073,128,8,42406:0:0:0:0:
448,192,42073,1,0,0:0:0:0:
192,192,42239,128,8,42406:0:0:0:0:
64,192,42406,1,2,0:0:0:0:
448,192,42406,1,0,0:0:0:0:
320,192,42573,1,0,0:0:0:0:
64,192,42739,1,8,0:0:0:0:
192,192,42739,1,0,0:0:0:0:
448,192,42739,128,0,43073:0:0:0:0:
64,192,43073,1,2,0:0:0:0:
192,192,43073,1,0,0:0:0:0:
320,192,43073,1,0,0:0:0:0:
448,192,43239,1,0,0:0:0:0:
192,192,43406,1,8,0:0:0:0:
320,192,43406,1,0,0:0:0:0:
64,192,43573,1,8,0:0:0:0:
192,192,43573,1,0,0:0:0:0:
64,192,43739,1,2,0:0:0:0:
320,192,43739,1,0,0:0:0:0:
448,192,43739,1,0,0:0:0:0:
192,192,43906,1,8,0:0:0:0:
320,192,43906,128,0,44156:0:0:0:0:
448,192,44073,1,0,0:0:0:0:
64,192,44239,1,8,0:0:0:0:
192,192,44239,128,0,44489:0:0:0:0:
320,192,44406,1,2,0:0:0:0:
448,192,44406,1,0,0:0:0:0:
64,192,44573,128,0,44823:0:0:0:0:
320,192,44739,1,8,0:0:0:0:
448,192,44739,1,0,0:0:0:0:
448,192,44906,128,8,45156:0:0:0:0:
64,192,45073,1,2,0:0:0:0:
192,192,45073,1,0,0:0:0:0:
320,192,45073,1,0,0:0:0:0:
192,192,45239,1,0,0:0:0:0:
64,192,45406,128,8,45739:0:0:0:0:
320,192,45406,1,0,0:0:0:0:
448,192,45406,1,0,0:0:0:0:
192,192,45739,1,2,0:0:0:0:
320,192,45739,1,0,0:0:0:0:
448,192,45739,1,0,0:0:0:0:
320,192,45906,1,0,0:0:0:0:
64,192,46073,1,8,0:0:0:0:
448,192,46073,1,0,0:0:0:0:
64,192,46239,1,8,0:0:0:0:
192,192,46239,1,0,0:0:0:0:
192,192,46406,1,2,0:0:0:0:
320,192,46406,1,0,0:0:0:0:
448,192,46406,1,0,0:0:0:0:
64,192,46573,1,8,0:0:0:0:
448,192,46573,128,0,46906:0:0:0:0:
64,192,46906,1,8,0:0:0:0:
320,192,46906,1,0,0:0:0:0:
192,192,47073,128,2,47239:0:0:0:0:
320,192,47073,1,0,0:0:0:0:
448,192,47073,1,0,0:0:0:0:
64,192,47239,1,0,0:0:0:0:
64,192,47406,1,8,0:0:0:0:
448,192,47406,128,0,47739:0:0:0:0:
320,192,47573,128,8,47739:0:0:0:0:
64,192,47739,1,2,0:0:0:0:
192,192,47739,1,0,0:0:0:0:
320,192,47906,1,0,0:0:0:0:
64,192,48073,1,8,0:0:0:0:
192,192,48073,128,0,48406:0:0:0:0:
448,192,48073,1,0,0:0:0:0:
64,192,48406,1,2,0:0:0:0:
320,192,48406,1,0,0:0:0:0:
448,192,48406,1,0,0:0:0:0:
320,192,48573,1,0,0:0:0:0:
64,192,48739,1,8,0:0:0:0:
192,192,48739,1,0,0:0:0:0:
64,192,48906,1,8,0:0:0:0:
448,192,48906,1,0,0:0:0:0:
192,192,49073,1,2,0:0:0:0:
320,192,49073,1,0,0:0:0:0:
448,192,49073,1,0,0:0:0:0:
64,192,49239,1,8,0:0:0:0:
320,192,49239,128,0,49573:0:0:0:50:LR_CymbalQST.wav
448,192,49239,128,0,49573:0:0:0:0:
64,192,49573,1,8,0:0:0:0:
192,192,49573,1,0,0:0:0:0:
64,192,49739,1,2,0:0:0:0:
320,192,49739,1,0,0:0:0:0:
448,192,49739,1,0,0:0:0:0:
64,192,49906,128,8,50239:0:0:0:0:
192,192,49906,128,0,50239:0:0:0:50:LR_CymbalQST.wav
448,192,49906,1,0,0:0:0:0:
320,192,50239,1,8,0:0:0:0:
448,192,50239,1,0,0:0:0:0:
64,192,50406,1,2,0:0:0:0:
192,192,50406,1,0,0:0:0:0:
448,192,50406,1,0,0:0:0:0:
192,192,50573,1,8,0:0:0:0:
320,192,50573,1,0,0:0:0:0:
64,192,50739,1,8,0:0:0:0:
320,192,50739,128,0,51073:0:0:0:50:LR_CymbalQST.wav
448,192,50739,1,0,0:0:0:0:
64,192,51073,1,2,0:0:0:0:
192,192,51073,1,0,0:0:0:0:
448,192,51073,1,0,0:0:0:0:
448,192,51239,1,0,0:0:0:0:
64,192,51406,1,8,0:0:0:0:
192,192,51406,1,0,0:0:0:0:
64,192,51573,1,8,0:0:0:0:
448,192,51573,1,0,0:0:0:0:
192,192,51739,1,2,0:0:0:0:
320,192,51739,1,0,0:0:0:0:
448,192,51739,1,0,0:0:0:0:
64,192,51906,128,8,52239:0:0:0:0:
320,192,51906,1,0,0:0:0:0:
320,192,52239,1,8,0:0:0:0:
448,192,52239,1,0,0:0:0:0:
64,192,52406,1,2,0:0:0:0:
192,192,52406,1,0,0:0:0:0:
448,192,52406,128,0,52573:0:0:0:0:
320,192,52573,1,0,0:0:0:0:
192,192,52739,128,8,53073:0:0:0:0:
448,192,52739,1,0,0:0:0:0:
64,192,52906,128,8,53073:0:0:0:0:
320,192,53073,1,2,0:0:0:0:
448,192,53073,1,0,0:0:0:0:
192,192,53239,1,0,0:0:0:0:
64,192,53406,1,8,0:0:0:0:
320,192,53406,128,0,53739:0:0:0:0:
448,192,53406,1,0,0:0:0:0:
64,192,53739,1,2,0:0:0:0:
192,192,53739,1,0,0:0:0:0:
448,192,53739,1,0,0:0:0:0:
192,192,53906,1,0,0:0:0:0:
320,192,54073,1,8,0:0:0:0:
448,192,54073,1,0,0:0:0:0:
64,192,54239,1,8,0:0:0:0:
320,192,54239,1,0,0:0:0:0:
64,192,54406,1,2,0:0:0:0:
192,192,54406,1,0,0:0:0:0:
448,192,54406,1,0,0:0:0:0:
192,192,54573,1,8,0:0:0:0:
448,192,54573,128,0,54823:0:0:0:0:
64,192,54906,1,8,0:0:0:0:
320,192,54906,128,0,55156:0:0:0:0:
192,192,55073,1,2,0:0:0:0:
448,192,55073,1,0,0:0:0:0:
192,192,55239,128,0,55489:0:0:0:0:
64,192,55406,1,8,0:0:0:0:
448,192,55406,1,0,0:0:0:0:
64,192,55573,128,8,55823:0:0:0:0:
192,192,55739,1,2,0:0:0:0:
320,192,55739,1,0,0:0:0:0:
448,192,55739,1,0,0:0:0:0:
320,192,55906,1,0,0:0:0:0:
64,192,56073,128,8,56406:0:0:0:0:
192,192,56073,1,0,0:0:0:0:
448,192,56073,1,0,0:0:0:0:
192,192,56406,1,2,0:0:0:0:
320,192,56406,1,0,0:0:0:0:
448,192,56406,1,0,0:0:0:0:
320,192,56573,1,0,0:0:0:0:
64,192,56739,1,8,0:0:0:0:
192,192,56739,1,0,0:0:0:0:
192,192,56906,1,8,0:0:0:0:
320,192,56906,1,0,0:0:0:0:
64,192,57073,1,2,0:0:0:0:
320,192,57073,1,0,0:0:0:0:
448,192,57073,1,0,0:0:0:0:
192,192,57239,1,8,0:0:0:0:
448,192,57239,128,0,57573:0:0:0:0:
64,192,57573,1,8,0:0:0:0:
192,192,57573,1,0,0:0:0:0:
64,192,57739,1,2,0:0:0:0:
320,192,57739,128,0,57906:0:0:0:0:
448,192,57739,1,0,0:0:0:0:
192,192,57906,1,0,0:0:0:0:
64,192,58073,1,8,0:0:0:0:
448,192,58073,128,0,58406:0:0:0:0:
320,192,58239,128,8,58406:0:0:0:0:
64,192,58406,1,2,0:0:0:0:
192,192,58406,1,0,0:0:0:0:
320,192,58573,1,0,0:0:0:0:
64,192,58739,128,8,59073:0:0:0:0:
192,192,58739,1,0,0:0:0:0:
448,192,58739,1,0,0:0:0:0:
192,192,59073,1,2,0:0:0:0:
320,192,59073,1,0,0:0:0:0:
448,192,59073,1,0,0:0:0:0:
192,192,59239,1,0,0:0:0:0:
64,192,59406,1,8,0:0:0:0:
448,192,59406,1,0,0:0:0:0:
320,192,59573,1,8,0:0:0:0:
448,192,59573,1,0,0:0:0:0:
64,192,59739,1,2,0:0:0:0:
192,192,59739,1,0,0:0:0:0:
320,192,59739,1,0,0:0:0:0:
64,192,59906,1,8,0:0:0:0:
192,192,59906,1,0,0:0:0:50:LR_CymbalQST.wav
448,192,59906,128,0,60239:0:0:0:0:
64,192,60239,1,8,0:0:0:0:
192,192,60239,1,0,0:0:0:0:
192,192,60406,1,2,0:0:0:0:
320,192,60406,1,0,0:0:0:0:
448,192,60406,1,0,0:0:0:0:
64,192,60573,128,8,60906:0:0:0:0:
320,192,60573,1,0,0:0:0:50:LR_CymbalQST.wav
448,192,60573,1,0,0:0:0:0:
192,192,60906,1,8,0:0:0:0:
448,192,60906,1,0,0:0:0:0:
64,192,61073,1,2,0:0:0:0:
320,192,61073,1,0,0:0:0:0:
448,192,61073,1,0,0:0:0:0:
192,192,61239,1,8,0:0:0:0:
320,192,61239,1,0,0:0:0:0:
64,192,61406,128,8,61573:0:0:0:0:
192,192,61406,128,0,61573:0:0:0:50:LR_CymbalQST.wav
448,192,61406,128,0,61573:0:0:0:0:
320,192,61739,1,0,0:0:0:0:
320,192,61906,1,8,0:0:0:0:
64,192,62073,128,8,62239:0:0:0:0:
448,192,62073,128,0,62239:0:0:0:0:
192,192,62239,128,0,62406:0:0:0:0:
64,192,62406,128,2,62573:0:0:0:0:
320,192,62406,128,0,62573:0:0:0:0:
448,192,62406,128,0,62573:0:0:0:0:
64,192,62739,128,8,62906:0:0:0:0:
192,192,62739,128,0,62906:0:0:0:0:
448,192,62739,128,0,62906:0:0:0:0:
320,192,63073,1,0,0:0:0:0:
320,192,63239,1,8,0:0:0:0:
64,192,63406,128,8,63573:0:0:0:0:
192,192,63406,128,0,63573:0:0:0:0:
320,192,63573,1,0,0:0:0:70:LR_Tom Hit 3.wav
448,192,63573,1,0,0:0:0:0:
192,192,63739,128,2,63906:0:0:0:0:
320,192,63739,128,0,63906:0:0:0:0:
64,192,63906,1,8,0:0:0:0:
448,192,63906,1,0,0:0:0:0:
64,192,64073,128,8,64239:0:0:0:0:
320,192,64073,128,0,64239:0:0:0:0:
448,192,64073,128,0,64239:0:0:0:0:
192,192,64406,1,0,0:0:0:0:
192,192,64573,1,8,0:0:0:0:
64,192,64739,128,8,64906:0:0:0:0:
448,192,64739,128,0,64906:0:0:0:0:
320,192,64906,128,0,65073:0:0:0:0:
64,192,65073,128,2,65239:0:0:0:0:
192,192,65073,128,0,65239:0:0:0:0:
320,192,65239,128,8,65406:0:0:0:0:
448,192,65239,128,0,65406:0:0:0:0:
192,192,65406,128,0,65573:0:0:0:0:
64,192,65573,1,8,0:0:0:0:
320,192,65573,1,0,0:0:0:0:
64,192,65739,128,2,65906:0:0:0:0:
320,192,65739,128,0,65906:0:0:0:0:
448,192,65739,128,0,65906:0:0:0:0:
192,192,65906,1,0,0:0:0:70:LR_Tom Hit 3.wav
320,192,66073,1,8,0:0:0:0:
448,192,66073,1,0,0:0:0:0:
320,192,66239,1,8,0:0:0:0:
448,192,66239,1,0,0:0:0:0:
64,192,66406,1,2,0:0:0:0:
192,192,66406,1,0,0:0:0:0:
448,192,66406,1,0,0:0:0:0:
192,192,66573,1,0,0:0:0:0:
64,192,66739,128,8,66906:0:0:0:0:
320,192,66739,128,0,66906:0:0:0:0:
448,192,66739,128,0,66906:0:0:0:0:
192,192,67239,1,8,0:0:0:0:
320,192,67406,128,8,67573:0:0:0:0:
448,192,67406,128,0,67573:0:0:0:0:
64,192,67573,128,0,67739:0:0:0:0:
192,192,67739,128,2,67906:0:0:0:0:
320,192,67739,128,0,67906:0:0:0:0:
448,192,67739,128,0,67906:0:0:0:0:
64,192,68073,128,8,68239:0:0:0:0:
192,192,68073,128,0,68239:0:0:0:0:
320,192,68073,128,0,68239:0:0:0:0:
448,192,68406,1,0,0:0:0:0:
448,192,68573,1,8,0:0:0:0:
192,192,68739,128,8,68906:0:0:0:0:
320,192,68739,128,0,68906:0:0:0:0:
64,192,68906,1,0,0:0:0:70:LR_Tom Hit 3.wav
448,192,68906,1,0,0:0:0:0:
320,192,69073,128,2,69239:0:0:0:0:
448,192,69073,128,0,69239:0:0:0:0:
64,192,69239,1,8,0:0:0:0:
192,192,69239,1,0,0:0:0:0:
64,192,69406,128,8,69573:0:0:0:0:
192,192,69406,128,0,69573:0:0:0:0:
448,192,69406,128,0,69573:0:0:0:0:
320,192,69739,1,0,0:0:0:0:
320,192,69906,1,8,0:0:0:0:
64,192,70073,128,8,70239:0:0:0:0:
448,192,70073,128,0,70239:0:0:0:0:
320,192,70239,128,0,70406:0:0:0:0:
64,192,70406,128,2,70573:0:0:0:0:
192,192,70406,128,0,70573:0:0:0:0:
320,192,70573,128,8,70739:0:0:0:0:
448,192,70573,128,0,70739:0:0:0:0:
64,192,70739,128,0,70906:0:0:0:0:
192,192,70906,1,8,0:0:0:0:
448,192,70906,1,0,0:0:0:0:
192,192,71073,128,2,71239:0:0:0:0:
320,192,71073,128,0,71239:0:0:0:0:
448,192,71073,128,0,71239:0:0:0:0:
64,192,71239,1,0,0:0:0:70:LR_Tom Hit 3.wav
320,192,71406,1,8,0:0:0:0:
448,192,71406,1,0,0:0:0:0:
320,192,71573,1,8,0:0:0:0:
448,192,71573,1,0,0:0:0:0:
64,192,71739,1,2,0:0:0:0:
192,192,71739,1,0,0:0:0:0:
448,192,71739,1,0,0:0:0:0:
192,192,71906,1,0,0:0:0:0:
64,192,72073,128,8,72239:0:0:0:0:
320,192,72073,128,0,72239:0:0:0:50:LR_CymbalQST.wav
448,192,72073,128,0,72239:0:0:0:0:
192,192,72406,1,0,0:0:0:0:
192,192,72573,1,8,0:0:0:0:
64,192,72739,128,8,72906:0:0:0:0:
320,192,72739,128,0,72906:0:0:0:0:
192,192,72906,128,0,73073:0:0:0:0:
64,192,73073,128,2,73239:0:0:0:0:
320,192,73073,128,0,73239:0:0:0:0:
448,192,73073,128,0,73239:0:0:0:0:
64,192,73406,128,8,73573:0:0:0:0:
192,192,73406,128,0,73573:0:0:0:0:
320,192,73406,128,0,73573:0:0:0:0:
448,192,73739,1,0,0:0:0:0:
448,192,73906,1,8,0:0:0:0:
64,192,74073,128,8,74239:0:0:0:0:
192,192,74073,128,0,74239:0:0:0:0:
320,192,74239,1,0,0:0:0:70:LR_Tom Hit 3.wav
448,192,74239,1,0,0:0:0:0:
64,192,74406,128,2,74573:0:0:0:0:
448,192,74406,128,0,74573:0:0:0:0:
192,192,74573,1,8,0:0:0:0:
320,192,74573,1,0,0:0:0:0:
192,192,74739,128,8,74906:0:0:0:0:
320,192,74739,128,0,74906:0:0:0:0:
448,192,74739,128,0,74906:0:0:0:0:
64,192,75073,1,0,0:0:0:0:
64,192,75239,1,8,0:0:0:0:
192,192,75406,128,8,75573:0:0:0:0:
448,192,75406,128,0,75573:0:0:0:0:
320,192,75573,128,0,75739:0:0:0:0:
64,192,75739,128,2,75906:0:0:0:0:
192,192,75739,128,0,75906:0:0:0:0:
320,192,75906,128,8,76073:0:0:0:0:
448,192,75906,128,0,76073:0:0:0:0:
192,192,76073,128,0,76239:0:0:0:0:
64,192,76239,1,8,0:0:0:0:
448,192,76239,1,0,0:0:0:0:
64,192,76406,128,2,76573:0:0:0:0:
320,192,76406,128,0,76573:0:0:0:0:
448,192,76406,128,0,76573:0:0:0:0:
192,192,76573,1,0,0:0:0:70:LR_Tom Hit 3.wav
320,192,76739,1,8,0:0:0:0:
448,192,76739,1,0,0:0:0:0:
320,192,76906,1,8,0:0:0:0:
448,192,76906,1,0,0:0:0:0:
192,192,76989,1,0,0:0:0:0:
64,192,77073,1,2,0:0:0:0:
448,192,77073,1,0,0:0:0:0:
320,192,77156,1,0,0:0:0:0:
192,192,77239,1,0,0:0:0:0:
320,192,77323,1,0,0:0:0:0:
64,192,77406,128,8,77739:0:0:0:0:
192,192,77406,1,0,0:0:0:50:LR_CymbalQST.wav
448,192,77406,1,0,0:0:0:0:
192,192,77739,1,2,0:0:0:0:
320,192,77739,1,0,0:0:0:0:
448,192,77739,1,0,0:0:0:0:
320,192,77906,1,8,0:0:0:0:
448,192,77906,1,0,0:0:0:0:
64,192,78073,1,8,0:0:0:0:
192,192,78073,1,0,0:0:0:0:
192,192,78239,1,0,0:0:0:0:
320,192,78239,1,0,0:0:0:0:
64,192,78406,1,2,0:0:0:0:
320,192,78406,1,0,0:0:0:0:
448,192,78406,1,0,0:0:0:0:
64,192,78573,1,8,0:0:0:0:
192,192,78573,128,0,78906:0:0:0:50:LR_CymbalQST.wav
448,192,78573,1,0,0:0:0:0:
320,192,78906,1,8,0:0:0:0:
448,192,78906,1,0,0:0:0:0:
64,192,79073,128,2,79406:0:0:0:0:
192,192,79073,1,0,0:0:0:0:
448,192,79073,1,0,0:0:0:0:
320,192,79406,1,8,0:0:0:0:
448,192,79406,1,0,0:0:0:0:
64,192,79573,1,0,0:0:0:0:
192,192,79573,1,0,0:0:0:0:
192,192,79739,1,2,0:0:0:0:
320,192,79739,1,0,0:0:0:0:
448,192,79739,1,0,0:0:0:0:
320,192,79906,1,8,0:0:0:0:
64,192,80073,1,8,0:0:0:0:
448,192,80073,1,0,0:0:0:50:LR_CymbalQST.wav
320,192,80239,1,0,0:0:0:0:
64,192,80406,1,2,0:0:0:0:
192,192,80406,1,0,0:0:0:0:
448,192,80406,1,0,0:0:0:0:
320,192,80573,1,8,0:0:0:0:
448,192,80573,128,0,80906:0:0:0:0:
192,192,80739,1,0,0:0:0:0:
192,192,80906,1,8,0:0:0:0:
320,192,80906,1,0,0:0:0:0:
64,192,81073,1,2,0:0:0:0:
320,192,81073,1,0,0:0:0:0:
448,192,81073,1,0,0:0:0:0:
64,192,81239,1,8,0:0:0:0:
192,192,81239,1,0,0:0:0:50:LR_CymbalQST.wav
448,192,81239,1,0,0:0:0:0:
192,192,81406,1,8,0:0:0:0:
320,192,81406,1,0,0:0:0:0:
320,192,81573,1,8,0:0:0:0:
64,192,81739,1,2,0:0:0:0:
192,192,81739,1,0,0:0:0:0:
448,192,81739,1,0,0:0:0:0:
192,192,81906,1,8,0:0:0:0:
320,192,81906,1,0,0:0:0:0:
64,192,82073,1,2,0:0:0:0:
320,192,82073,1,0,0:0:0:0:
448,192,82073,1,0,0:0:0:0:
192,192,82239,1,8,0:0:0:0:
320,192,82239,1,0,0:0:0:0:
64,192,82406,128,2,82739:0:0:0:0:
192,192,82406,1,0,0:0:0:0:
448,192,82406,1,0,0:0:0:0:
192,192,82739,1,2,0:0:0:0:
320,192,82739,1,0,0:0:0:0:
448,192,82739,1,0,0:0:0:0:
320,192,82906,1,8,0:0:0:0:
448,192,82906,1,0,0:0:0:0:
64,192,83073,1,2,0:0:0:0:
192,192,83073,1,0,0:0:0:0:
448,192,83073,1,0,0:0:0:0:
64,192,83239,1,8,0:0:0:0:
192,192,83239,1,0,0:0:0:0:
64,192,83406,1,2,0:0:0:0:
320,192,83406,1,0,0:0:0:0:
448,192,83406,1,0,0:0:0:0:
320,192,83573,1,8,0:0:0:0:
448,192,83573,1,0,0:0:0:0:
64,192,83739,1,2,0:0:0:0:
192,192,83739,1,0,0:0:0:0:
448,192,83739,1,0,0:0:0:0:
64,192,83906,1,0,0:0:0:70:LR_Tom Hit 2.wav
192,192,83906,1,0,0:0:0:0:
320,192,83989,1,0,0:0:0:70:LR_Tom Hit 2.wav
448,192,83989,1,0,0:0:0:0:
64,192,84073,1,2,0:0:0:0:
192,192,84073,1,0,0:0:0:0:
448,192,84073,1,0,0:0:0:0:
192,192,84239,1,8,0:0:0:0:
320,192,84239,1,0,0:0:0:0:
64,192,84406,1,2,0:0:0:0:
320,192,84406,1,0,0:0:0:0:
448,192,84406,1,0,0:0:0:0:
192,192,84573,1,8,0:0:0:0:
320,192,84573,1,0,0:0:0:0:
64,192,84739,1,2,0:0:0:0:
192,192,84739,1,0,0:0:0:0:
448,192,84739,1,0,0:0:0:0:
192,192,84906,1,8,0:0:0:0:
320,192,84906,1,0,0:0:0:0:
64,192,85073,1,2,0:0:0:0:
320,192,85073,1,0,0:0:0:0:
448,192,85073,1,0,0:0:0:0:
320,192,85239,1,0,0:0:0:70:LR_Tom Hit 2.wav
448,192,85239,1,0,0:0:0:0:
64,192,85323,1,0,0:0:0:70:LR_Tom Hit 2.wav
192,192,85323,1,0,0:0:0:0:
64,192,85406,1,2,0:0:0:0:
320,192,85406,1,0,0:0:0:50:LR_CymbalQST.wav
448,192,85406,1,0,0:0:0:0:
64,192,85573,1,8,0:0:0:0:
192,192,85573,1,0,0:0:0:0:
64,192,85739,1,2,0:0:0:0:
320,192,85739,1,0,0:0:0:50:LR_CymbalQST.wav
448,192,85739,1,0,0:0:0:0:
320,192,85906,1,8,0:0:0:0:
448,192,85906,1,0,0:0:0:0:
64,192,86073,128,0,86156:0:0:0:70:LR_Tom Drop.wav
192,192,86073,128,0,86156:0:0:0:50:LR_CymbalQST.wav
448,192,86073,128,0,86156:0:0:0:0:
192,192,86239,128,0,86323:0:0:0:70:LR_Tom Hit 2.wav
320,192,86239,128,0,86323:0:0:0:0:
320,192,86406,128,0,86489:0:0:0:70:LR_Tom Hit 2.wav
448,192,86406,128,0,86489:0:0:0:0:
64,192,86573,128,0,86656:0:0:0:70:LR_Tom Hit 3.wav
192,192,86573,128,0,86656:0:0:0:0:
448,192,86573,128,0,86656:0:0:0:0:
64,192,86906,1,8,0:0:0:0:
192,192,86906,1,0,0:0:0:0:
64,192,87073,1,2,0:0:0:0:
320,192,87073,1,0,0:0:0:0:
448,192,87073,1,0,0:0:0:0:
64,192,87406,1,2,0:0:0:0:
192,192,87406,1,0,0:0:0:0:
448,192,87406,1,0,0:0:0:0:
320,192,87573,1,0,0:0:0:70:LR_Tom Hit 2.wav
448,192,87573,1,0,0:0:0:0:
64,192,87656,1,0,0:0:0:70:LR_Tom Hit 2.wav
192,192,87656,1,0,0:0:0:0:
64,192,87739,1,2,0:0:0:0:
320,192,87739,1,0,0:0:0:50:LR_CymbalQST.wav
448,192,87739,1,0,0:0:0:0:
64,192,88073,1,8,0:0:0:0:
192,192,88073,1,0,0:0:0:50:LR_CymbalQST.wav
320,192,88073,128,0,88406:0:0:0:0:
448,192,88073,1,0,0:0:0:0:
64,192,88406,1,2,0:0:0:0:
192,192,88406,1,0,0:0:0:0:
448,192,88406,1,0,0:0:0:0:
64,192,88573,128,0,88906:0:0:0:0:
192,192,88739,1,8,0:0:0:0:
320,192,88739,1,0,0:0:0:0:
320,192,88906,1,8,0:0:0:0:
448,192,88906,1,0,0:0:0:0:
64,192,89073,1,2,0:0:0:0:
192,192,89073,1,0,0:0:0:0:
448,192,89073,1,0,0:0:0:0:
320,192,89239,1,8,0:0:0:0:
448,192,89239,128,0,89406:0:0:0:0:
192,192,89406,1,0,0:0:0:0:
192,192,89573,128,8,89739:0:0:0:0:
64,192,89739,1,2,0:0:0:0:
320,192,89739,1,0,0:0:0:0:
448,192,89739,1,0,0:0:0:0:
64,192,89906,128,0,90073:0:0:0:0:
192,192,89906,1,0,0:0:0:0:
448,192,90073,1,8,0:0:0:0:
192,192,90239,128,8,90406:0:0:0:0:
320,192,90239,1,0,0:0:0:0:
64,192,90406,1,2,0:0:0:0:
448,192,90406,1,0,0:0:0:0:
320,192,90573,128,0,91073:0:0:0:0:
64,192,90739,1,8,0:0:0:0:
192,192,90739,1,0,0:0:0:0:
448,192,90739,1,0,0:0:0:0:
64,192,91073,1,2,0:0:0:0:
192,192,91073,1,0,0:0:0:0:
448,192,91073,1,0,0:0:0:0:
192,192,91239,1,0,0:0:0:0:
320,192,91406,1,8,0:0:0:0:
448,192,91406,1,0,0:0:0:0:
64,192,91573,1,8,0:0:0:0:
192,192,91573,1,0,0:0:0:0:
64,192,91739,1,2,0:0:0:0:
320,192,91739,1,0,0:0:0:0:
448,192,91739,1,0,0:0:0:0:
192,192,91906,1,8,0:0:0:0:
448,192,91906,128,0,92239:0:0:0:0:
192,192,92239,1,8,0:0:0:0:
64,192,92406,1,2,0:0:0:0:
320,192,92406,1,0,0:0:0:0:
448,192,92406,1,0,0:0:0:0:
192,192,92573,1,0,0:0:0:0:
320,192,92739,1,8,0:0:0:0:
448,192,92739,1,0,0:0:0:0:
320,192,92906,1,8,0:0:0:0:
64,192,93073,1,2,0:0:0:0:
192,192,93073,1,0,0:0:0:0:
448,192,93073,1,0,0:0:0:0:
192,192,93239,1,0,0:0:0:0:
64,192,93406,128,8,93739:0:0:0:0:
320,192,93406,1,0,0:0:0:0:
192,192,93739,1,2,0:0:0:0:
320,192,93739,1,0,0:0:0:0:
448,192,93739,1,0,0:0:0:0:
64,192,93906,1,0,0:0:0:0:
192,192,94073,1,8,0:0:0:0:
448,192,94073,1,0,0:0:0:0:
192,192,94239,1,8,0:0:0:0:
64,192,94406,1,2,0:0:0:0:
320,192,94406,1,0,0:0:0:0:
448,192,94406,1,0,0:0:0:0:
320,192,94573,1,8,0:0:0:0:
448,192,94573,1,0,0:0:0:0:
192,192,94739,128,0,94906:0:0:0:0:
64,192,94906,1,8,0:0:0:0:
192,192,95073,1,2,0:0:0:0:
320,192,95073,128,0,95239:0:0:0:0:
448,192,95073,1,0,0:0:0:0:
64,192,95239,1,0,0:0:0:0:
192,192,95406,1,8,0:0:0:0:
448,192,95406,128,0,95573:0:0:0:0:
320,192,95573,1,8,0:0:0:0:
64,192,95739,128,2,96073:0:0:0:0:
192,192,95739,1,0,0:0:0:0:
448,192,95739,1,0,0:0:0:0:
320,192,96073,1,8,0:0:0:0:
448,192,96073,128,0,96406:0:0:0:0:
64,192,96406,1,2,0:0:0:0:
192,192,96406,1,0,0:0:0:0:
320,192,96406,1,0,0:0:0:0:
448,192,96573,1,0,0:0:0:0:
64,192,96739,128,8,97073:0:0:0:0:
192,192,96739,1,0,0:0:0:0:
192,192,96906,1,8,0:0:0:0:
320,192,97073,1,2,0:0:0:0:
448,192,97073,1,0,0:0:0:0:
64,192,97239,128,8,97573:0:0:0:0:
320,192,97239,128,0,97573:0:0:0:50:LR_CymbalQST.wav
448,192,97239,128,0,97573:0:0:0:0:
192,192,97573,1,0,0:0:0:0:
64,192,97739,1,2,0:0:0:0:
320,192,97739,1,0,0:0:0:70:LR_Tom Drop.wav
448,192,97739,1,0,0:0:0:0:
192,192,97906,128,0,98239:0:0:0:50:LR_CymbalQST.wav
64,192,98073,1,2,0:0:0:0:
320,192,98073,1,0,0:0:0:70:LR_Tom Hit 2.wav
448,192,98073,1,0,0:0:0:0:
448,192,98239,1,0,0:0:0:0:
64,192,98406,1,2,0:0:0:0:
192,192,98406,1,0,0:0:0:70:LR_Tom Hit 3.wav
320,192,98406,1,0,0:0:0:0:
192,192,98573,1,0,0:0:0:0:
64,192,98739,128,8,99073:0:0:0:0:
320,192,98739,1,0,0:0:0:50:LR_CymbalQST.wav
448,192,98739,1,0,0:0:0:0:
192,192,99073,1,2,0:0:0:0:
320,192,99073,1,0,0:0:0:0:
448,192,99073,1,0,0:0:0:0:
192,192,99239,128,0,99573:0:0:0:0:
320,192,99406,1,8,0:0:0:0:
448,192,99406,1,0,0:0:0:0:
64,192,99573,1,8,0:0:0:0:
448,192,99573,1,0,0:0:0:0:
64,192,99739,1,2,0:0:0:0:
192,192,99739,1,0,0:0:0:0:
320,192,99739,1,0,0:0:0:0:
64,192,99906,128,8,100073:0:0:0:0:
448,192,99906,1,0,0:0:0:0:
320,192,100073,1,0,0:0:0:0:
320,192,100239,128,8,100406:0:0:0:0:
64,192,100406,1,2,0:0:0:0:
192,192,100406,1,0,0:0:0:0:
448,192,100406,1,0,0:0:0:0:
192,192,100573,128,0,100739:0:0:0:0:
320,192,100573,1,0,0:0:0:0:
64,192,100739,1,8,0:0:0:0:
448,192,100739,1,0,0:0:0:0:
320,192,100906,128,8,101073:0:0:0:0:
64,192,101073,1,2,0:0:0:0:
192,192,101073,1,0,0:0:0:0:
448,192,101073,1,0,0:0:0:0:
448,192,101239,128,0,101739:0:0:0:0:
64,192,101406,1,8,0:0:0:0:
192,192,101406,1,0,0:0:0:0:
320,192,101406,1,0,0:0:0:0:
64,192,101739,1,2,0:0:0:0:
192,192,101739,1,0,0:0:0:0:
320,192,101739,1,0,0:0:0:0:
448,192,101906,1,0,0:0:0:0:
64,192,102073,1,8,0:0:0:0:
192,192,102073,1,0,0:0:0:0:
64,192,102239,1,8,0:0:0:0:
192,192,102239,1,0,0:0:0:0:
64,192,102406,1,2,0:0:0:0:
320,192,102406,1,0,0:0:0:0:
448,192,102406,1,0,0:0:0:0:
192,192,102573,1,8,0:0:0:0:
448,192,102573,128,0,102906:0:0:0:0:
192,192,102906,1,8,0:0:0:0:
64,192,103073,1,2,0:0:0:0:
320,192,103073,1,0,0:0:0:0:
448,192,103073,1,0,0:0:0:0:
192,192,103239,1,0,0:0:0:0:
64,192,103406,1,8,0:0:0:0:
320,192,103406,1,0,0:0:0:0:
64,192,103573,1,8,0:0:0:0:
192,192,103739,1,2,0:0:0:0:
320,192,103739,1,0,0:0:0:0:
448,192,103739,1,0,0:0:0:0:
448,192,103906,1,0,0:0:0:0:
192,192,104073,128,8,104406:0:0:0:0:
320,192,104073,1,0,0:0:0:0:
64,192,104406,1,2,0:0:0:0:
320,192,104406,1,0,0:0:0:0:
448,192,104406,1,0,0:0:0:0:
192,192,104573,1,0,0:0:0:0:
320,192,104739,1,8,0:0:0:0:
448,192,104739,1,0,0:0:0:0:
320,192,104906,1,8,0:0:0:0:
64,192,105073,1,2,0:0:0:0:
192,192,105073,1,0,0:0:0:0:
448,192,105073,1,0,0:0:0:0:
192,192,105239,1,8,0:0:0:0:
448,192,105239,1,0,0:0:0:0:
64,192,105406,128,0,105573:0:0:0:0:
320,192,105573,1,8,0:0:0:0:
64,192,105739,1,2,0:0:0:0:
192,192,105739,128,0,105906:0:0:0:0:
448,192,105739,1,0,0:0:0:0:
320,192,105906,1,0,0:0:0:0:
64,192,106073,1,8,0:0:0:0:
320,192,106073,128,0,106239:0:0:0:0:
192,192,106239,1,8,0:0:0:0:
64,192,106406,128,2,106739:0:0:0:0:
320,192,106406,1,0,0:0:0:0:
448,192,106406,1,0,0:0:0:0:
192,192,106739,1,8,0:0:0:0:
320,192,106739,128,0,107073:0:0:0:0:
64,192,107073,1,2,0:0:0:0:
192,192,107073,1,0,0:0:0:0:
448,192,107073,1,0,0:0:0:0:
320,192,107239,1,0,0:0:0:0:
64,192,107406,1,8,0:0:0:0:
448,192,107406,128,0,107739:0:0:0:0:
64,192,107573,1,8,0:0:0:0:
192,192,107739,1,2,0:0:0:0:
320,192,107739,1,0,0:0:0:0:
64,192,107906,128,8,108489:0:0:0:0:
192,192,107906,1,0,0:0:0:50:LR_CymbalQST.wav
448,192,107906,1,0,0:0:0:0:
320,192,108239,128,0,108323:0:0:0:70:LR_Tom Drop.wav
448,192,108239,128,0,108323:0:0:0:0:
192,192,108406,128,0,108489:0:0:0:70:LR_Tom Hit 3.wav
320,192,108406,128,0,108489:0:0:0:0:
64,192,108573,128,0,108739:0:0:0:70:LR_Tom Hit 2.wav
192,192,108573,128,0,108739:0:0:0:50:LR_CymbalQST.wav
448,192,108573,128,0,108906:0:0:0:0:
320,192,108906,1,0,0:0:0:0:
64,192,109073,1,2,0:0:0:0:
448,192,109073,1,0,0:0:0:0:
192,192,109156,1,2,0:0:0:0:
320,192,109239,1,2,0:0:0:0:
448,192,109239,1,0,0:0:0:0:
64,192,109323,1,2,0:0:0:0:
192,192,109323,1,0,0:0:0:0:
64,192,109406,128,8,109573:0:0:0:0:
320,192,109406,1,0,0:0:0:50:LR_CymbalQST.wav
448,192,109406,1,0,0:0:0:0:
64,192,109739,128,2,110073:0:0:0:0:
192,192,109739,1,0,0:0:0:0:
448,192,109739,1,0,0:0:0:0:
448,192,109906,1,8,0:0:0:0:
192,192,110073,1,8,0:0:0:0:
320,192,110073,1,0,0:0:0:0:
320,192,110239,1,0,0:0:0:0:
64,192,110406,1,2,0:0:0:0:
192,192,110406,1,0,0:0:0:0:
448,192,110406,1,0,0:0:0:0:
64,192,110573,128,8,110739:0:0:0:0:
192,192,110573,1,0,0:0:0:0:
320,192,110906,128,8,111073:0:0:0:0:
448,192,110906,128,0,111073:0:0:0:0:
64,192,111073,1,2,0:0:0:0:
192,192,111073,1,0,0:0:0:0:
192,192,111239,128,0,111406:0:0:0:0:
320,192,111239,128,0,111406:0:0:0:0:
64,192,111406,1,8,0:0:0:0:
448,192,111406,1,0,0:0:0:0:
192,192,111573,128,0,111739:0:0:0:0:
64,192,111739,1,2,0:0:0:0:
320,192,111739,1,0,0:0:0:0:
448,192,111739,1,0,0:0:0:0:
448,192,111906,128,0,112073:0:0:0:0:
64,192,112073,128,8,112239:0:0:0:0:
320,192,112073,1,0,0:0:0:0:
64,192,112406,128,2,112739:0:0:0:0:
192,192,112406,1,0,0:0:0:0:
320,192,112406,1,0,0:0:0:0:
320,192,112573,1,8,0:0:0:0:
192,192,112739,1,8,0:0:0:0:
448,192,112739,1,0,0:0:0:0:
448,192,112906,1,0,0:0:0:0:
64,192,113073,1,2,0:0:0:0:
192,192,113073,1,0,0:0:0:0:
320,192,113073,1,0,0:0:0:0:
64,192,113239,1,8,0:0:0:0:
320,192,113239,128,0,113573:0:0:0:0:
448,192,113573,1,8,0:0:0:0:
64,192,113739,1,2,0:0:0:0:
192,192,113739,1,0,0:0:0:0:
448,192,113739,1,0,0:0:0:0:
64,192,113906,128,0,114239:0:0:0:0:
192,192,114073,1,0,0:0:0:70:LR_Tom Drop.wav
448,192,114073,1,0,0:0:0:0:
192,192,114239,1,0,0:0:0:70:LR_Tom Hit 2.wav
448,192,114239,1,0,0:0:0:0:
64,192,114406,1,2,0:0:0:0:
320,192,114406,1,0,0:0:0:70:LR_Tom Hit 2.wav
448,192,114406,1,0,0:0:0:0:
192,192,114573,1,0,0:0:0:70:LR_Tom Hit 3.wav
320,192,114573,1,0,0:0:0:0:
64,192,114739,128,8,114906:0:0:0:0:
192,192,114739,1,0,0:0:0:50:LR_CymbalQST.wav
448,192,114739,1,0,0:0:0:0:
64,192,115073,128,2,115406:0:0:0:0:
192,192,115073,1,0,0:0:0:0:
448,192,115073,1,0,0:0:0:0:
192,192,115239,128,8,115406:0:0:0:0:
320,192,115406,1,8,0:0:0:0:
448,192,115406,1,0,0:0:0:0:
320,192,115573,1,0,0:0:0:0:
64,192,115739,1,2,0:0:0:0:
192,192,115739,1,0,0:0:0:0:
448,192,115739,1,0,0:0:0:0:
192,192,115906,1,8,0:0:0:0:
320,192,115906,128,0,116073:0:0:0:0:
192,192,116239,128,8,116406:0:0:0:0:
320,192,116239,128,0,116406:0:0:0:0:
64,192,116406,1,2,0:0:0:0:
448,192,116406,1,0,0:0:0:0:
64,192,116573,128,0,116739:0:0:0:0:
192,192,116573,128,0,116739:0:0:0:0:
320,192,116739,1,8,0:0:0:0:
448,192,116739,1,0,0:0:0:0:
320,192,116906,1,0,0:0:0:0:
64,192,117073,1,2,0:0:0:0:
192,192,117073,1,0,0:0:0:0:
448,192,117073,1,0,0:0:0:0:
320,192,117239,1,0,0:0:0:0:
64,192,117406,128,8,117573:0:0:0:0:
192,192,117406,1,0,0:0:0:0:
64,192,117739,128,2,118073:0:0:0:0:
192,192,117739,1,0,0:0:0:0:
448,192,117739,1,0,0:0:0:0:
448,192,117906,1,8,0:0:0:0:
192,192,118073,1,8,0:0:0:0:
320,192,118073,1,0,0:0:0:0:
320,192,118239,1,0,0:0:0:0:
64,192,118406,1,2,0:0:0:0:
192,192,118406,1,0,0:0:0:0:
448,192,118406,1,0,0:0:0:0:
320,192,118573,128,8,118823:0:0:0:0:
448,192,118573,128,0,118823:0:0:0:50:LR_CymbalQST.wav
192,192,118906,128,8,119156:0:0:0:0:
320,192,118906,128,0,119156:0:0:0:0:
64,192,119073,1,2,0:0:0:0:
448,192,119073,1,0,0:0:0:50:LR_CymbalQST.wav
64,192,119239,128,0,119489:0:0:0:0:
192,192,119239,128,0,119489:0:0:0:0:
320,192,119406,1,8,0:0:0:0:
448,192,119406,1,0,0:0:0:0:
64,192,119573,1,8,0:0:0:0:
192,192,119573,1,0,0:0:0:0:
320,192,119656,1,2,0:0:0:0:
64,192,119739,1,2,0:0:0:0:
192,192,119739,1,0,0:0:0:0:
448,192,119739,1,0,0:0:0:0:
192,192,119906,1,0,0:0:0:70:LR_Tom Hit 2.wav
320,192,119906,1,0,0:0:0:0:
64,192,120073,1,8,0:0:0:0:
192,192,120073,1,2,0:0:0:0:
320,192,120073,1,0,0:0:0:50:LR_CymbalQST.wav
448,192,120073,1,0,0:0:0:0:
192,192,120239,128,0,120406:0:0:0:0:
64,192,120406,1,2,0:0:0:0:
320,192,120406,1,8,0:0:0:0:
448,192,120406,1,0,0:0:0:0:
320,192,120573,128,0,120739:0:0:0:0:
64,192,120739,1,2,0:0:0:0:
192,192,120739,1,8,0:0:0:0:
448,192,120739,1,0,0:0:0:0:
448,192,120906,128,0,121073:0:0:0:0:
64,192,121073,1,2,0:0:0:0:
192,192,121073,1,8,0:0:0:0:
320,192,121073,1,0,0:0:0:0:
64,192,121239,128,0,121406:0:0:0:0:
192,192,121406,1,2,0:0:0:0:
320,192,121406,1,8,0:0:0:0:
448,192,121406,1,0,0:0:0:0:
320,192,121573,128,8,121739:0:0:0:0:
64,192,121739,1,2,0:0:0:0:
192,192,121739,1,8,0:0:0:0:
448,192,121739,1,0,0:0:0:0:
64,192,122073,1,2,0:0:0:0:
192,192,122073,1,8,0:0:0:0:
448,192,122073,1,0,0:0:0:0:
320,192,122239,128,0,122406:0:0:0:0:
64,192,122406,1,2,0:0:0:0:
192,192,122406,1,8,0:0:0:0:
448,192,122406,1,0,0:0:0:0:
192,192,122573,1,8,0:0:0:0:
320,192,122573,1,0,0:0:0:70:LR_Tom Hit 2.wav
64,192,122739,1,2,0:0:0:0:
192,192,122739,1,8,0:0:0:0:
320,192,122739,1,0,0:0:0:50:LR_CymbalQST.wav
448,192,122739,1,0,0:0:0:0:
192,192,122906,128,0,123073:0:0:0:0:
64,192,123073,1,2,0:0:0:0:
320,192,123073,1,8,0:0:0:0:
448,192,123073,1,0,0:0:0:0:
64,192,123239,128,0,123406:0:0:0:0:
192,192,123406,1,2,0:0:0:0:
320,192,123406,1,8,0:0:0:0:
448,192,123406,1,0,0:0:0:0:
320,192,123573,128,0,123739:0:0:0:0:
64,192,123739,1,8,0:0:0:0:
192,192,123739,1,2,0:0:0:0:
448,192,123739,1,0,0:0:0:0:
448,192,123906,128,0,124073:0:0:0:0:
64,192,124073,1,2,0:0:0:0:
192,192,124073,1,8,0:0:0:0:
320,192,124073,1,0,0:0:0:0:
192,192,124239,128,0,124406:0:0:0:0:
64,192,124406,1,8,0:0:0:0:
320,192,124406,1,2,0:0:0:0:
448,192,124406,1,0,0:0:0:0:
64,192,124739,1,2,0:0:0:0:
320,192,124739,1,8,0:0:0:0:
448,192,124739,1,0,0:0:0:0:
192,192,124906,1,8,0:0:0:0:
320,192,124906,1,0,0:0:0:70:LR_Tom Hit 2.wav
64,192,125073,1,8,0:0:0:0:
192,192,125073,1,2,0:0:0:0:
448,192,125073,1,0,0:0:0:0:
192,192,125239,1,8,0:0:0:0:
320,192,125239,1,0,0:0:0:70:LR_Tom Hit 2.wav
64,192,125406,1,2,0:0:0:0:
192,192,125406,1,8,0:0:0:0:
320,192,125406,1,0,0:0:0:50:LR_CymbalQST.wav
448,192,125406,1,0,0:0:0:0:
64,192,125573,128,0,125739:0:0:0:0:
192,192,125739,1,8,0:0:0:0:
320,192,125739,1,2,0:0:0:0:
448,192,125739,1,0,0:0:0:0:
320,192,125906,128,0,126073:0:0:0:0:
64,192,126073,1,2,0:0:0:0:
192,192,126073,1,8,0:0:0:0:
448,192,126073,1,0,0:0:0:0:
192,192,126239,128,0,126406:0:0:0:0:
64,192,126406,1,8,0:0:0:0:
320,192,126406,1,2,0:0:0:0:
448,192,126406,1,0,0:0:0:0:
448,192,126573,128,0,126739:0:0:0:0:
64,192,126739,1,2,0:0:0:0:
192,192,126739,1,8,0:0:0:0:
320,192,126739,1,0,0:0:0:0:
320,192,126906,128,8,127073:0:0:0:0:
64,192,127073,1,8,0:0:0:0:
192,192,127073,1,2,0:0:0:0:
448,192,127073,1,0,0:0:0:0:
192,192,127406,1,2,0:0:0:0:
320,192,127406,1,8,0:0:0:0:
448,192,127406,1,0,0:0:0:0:
64,192,127573,128,0,127739:0:0:0:0:
192,192,127739,1,8,0:0:0:0:
320,192,127739,1,2,0:0:0:0:
448,192,127739,1,0,0:0:0:0:
192,192,127906,1,8,0:0:0:0:
320,192,127906,1,0,0:0:0:70:LR_Tom Hit 2.wav
64,192,128073,1,2,0:0:0:0:
192,192,128073,1,8,0:0:0:0:
320,192,128073,1,0,0:0:0:50:LR_CymbalQST.wav
448,192,128073,1,0,0:0:0:0:
192,192,128239,128,0,128406:0:0:0:0:
64,192,128406,1,8,0:0:0:0:
320,192,128406,1,2,0:0:0:0:
448,192,128406,1,0,0:0:0:0:
448,192,128573,128,0,128739:0:0:0:0:
64,192,128739,128,2,128823:0:0:0:0:
192,192,128739,128,0,128823:0:0:0:70:LR_Tom Drop.wav
320,192,128739,128,0,128823:0:0:0:0:
64,192,128906,128,0,128989:0:0:0:70:LR_Tom Hit 2.wav
448,192,128906,128,0,128989:0:0:0:0:
320,192,129073,128,0,129156:0:0:0:70:LR_Tom Hit 2.wav
448,192,129073,128,0,129156:0:0:0:0:
64,192,129239,128,8,129323:0:0:0:0:
192,192,129239,128,0,129323:0:0:0:70:LR_Tom Hit 3.wav
320,192,129239,128,0,129323:0:0:0:0:
320,192,129573,1,0,0:0:0:70:LR_Tom Hit 2.wav
448,192,129573,1,0,0:0:0:0:
64,192,129656,1,0,0:0:0:70:LR_Tom Hit 2.wav
192,192,129656,1,0,0:0:0:0:
64,192,129739,128,2,133406:0:0:0:0:
320,192,129739,128,0,133406:0:0:0:70:LR_Tom Hit 3.wav
448,192,129739,128,0,133406:0:0:0:0:
