osu file format v14

[General]
AudioFilename: audio.mp3
AudioLeadIn: 0
PreviewTime: 86916
Countdown: 0
SampleSet: Soft
StackLeniency: 0.7
Mode: 3
LetterboxInBreaks: 0
SpecialStyle: 0
WidescreenStoryboard: 1

[Editor]
Bookmarks: 10749,13083,74083
DistanceSpacing: 0.83
BeatDivisor: 4
GridSize: 16
TimelineZoom: 1.7

[Metadata]
Title:Sunglow (Cut Ver.)
TitleUnicode:Sunglow (Cut Ver.)
Artist:Yamajet feat. Hiura Masako
ArtistUnicode:Yamajet feat. ひうらまさこ
Creator:secXcscX
Version:Normal
Source:crossbeats REV. SUNRISE
Tags:GROOVE COASTER 3 LINK FEVER Happy High Carolie しあわせハイカロリー capcom video game japanese female vocals jpop j-pop j pop short version
BeatmapID:3085486
BeatmapSetID:1506341

[Difficulty]
HPDrainRate:7.5
CircleSize:4
OverallDifficulty:7.5
ApproachRate:5
SliderMultiplier:1.4
SliderTickRate:1

[Events]
//Background and Video events
0,0,"BG.jpg",0,0
//Break Periods
//Storyboard Layer 0 (Background)
//Storyboard Layer 1 (Fail)
//Storyboard Layer 2 (Pass)
//Storyboard Layer 3 (Foreground)
//Storyboard Layer 4 (Overlay)
//Storyboard Sound Samples
Sample,33739,0,"LR_CymbalQST.wav",50
Sample,39073,0,"LR_Tom Hit 3.wav",70
Sample,49239,0,"LR_CymbalQST.wav",50
Sample,49906,0,"LR_CymbalQST.wav",50
Sample,59906,0,"LR_CymbalQST.wav",50
Sample,60573,0,"LR_CymbalQST.wav",50
Sample,61406,0,"LR_CymbalQST.wav",50
Sample,87739,0,"LR_CymbalQST.wav",50
Sample,97739,0,"LR_Tom Drop.wav",70
Sample,118573,0,"LR_CymbalQST.wav",50
Sample,122573,0,"LR_Tom Hit 2.wav",70
Sample,124906,0,"LR_Tom Hit 2.wav",70
Sample,125239,0,"LR_Tom Hit 2.wav",70
Sample,127906,0,"LR_Tom Hit 2.wav",70
Sample,129739,0,"LR_Tom Hit 3.wav",70

[TimingPoints]
2740,333.333333333333,4,2,1,60,1,0
88073,-100.0,4,2,1,60,0,1
109406,-100.0,4,2,1,60,0,0

[HitObjects]
448,192,2406,1,2,0:0:0:0:
320,192,2489,1,0,0:0:0:70:LR_Tom Hit 3.wav
192,192,2573,1,0,0:0:0:70:LR_Tom Hit 3.wav
64,192,2739,1,8,0:0:0:0:
448,192,2739,1,0,0:0:0:0:
192,192,3073,1,8,0:0:0:0:
448,192,3073,1,0,0:0:0:0:
320,192,3406,1,8,0:0:0:0:
448,192,3406,1,0,0:0:0:0:
192,192,3739,1,8,0:0:0:0:
448,192,3739,1,0,0:0:0:0:
64,192,4073,1,8,0:0:0:0:
448,192,4073,1,0,0:0:0:0:
64,192,4406,1,8,0:0:0:0:
320,192,4406,1,0,0:0:0:0:
64,192,4739,1,8,0:0:0:0:
192,192,4739,1,0,0:0:0:0:
64,192,5073,1,8,0:0:0:0:
320,192,5073,1,0,0:0:0:0:
192,192,5406,1,8,0:0:0:0:
448,192,5406,1,0,0:0:0:0:
192,192,5739,1,8,0:0:0:0:
320,192,5739,1,0,0:0:0:0:
64,192,6073,1,8,0:0:0:0:
192,192,6073,1,0,0:0:0:0:
192,192,6406,1,8,0:0:0:0:
448,192,6406,1,0,0:0:0:0:
192,192,6739,1,8,0:0:0:0:
320,192,6739,1,0,0:0:0:0:
64,192,7073,1,8,0:0:0:0:
320,192,7073,1,0,0:0:0:0:
320,192,7406,1,8,0:0:0:0:
448,192,7406,1,0,0:0:0:0:
64,192,7739,1,8,0:0:0:0:
320,192,7739,1,0,0:0:0:0:
192,192,8073,1,8,0:0:0:0:
320,192,8073,1,0,0:0:0:0:
192,192,8406,1,8,0:0:0:0:
448,192,8406,1,0,0:0:0:0:
64,192,8739,1,8,0:0:0:0:
448,192,8739,1,0,0:0:0:0:
64,192,9073,1,8,0:0:0:0:
320,192,9073,1,0,0:0:0:0:
192,192,9406,1,8,0:0:0:0:
320,192,9406,1,0,0:0:0:0:
192,192,9739,1,8,0:0:0:0:
448,192,9739,1,0,0:0:0:0:
320,192,10073,1,8,0:0:0:0:
448,192,10073,1,0,0:0:0:0:
64,192,10406,1,8,0:0:0:0:
320,192,10406,1,0,0:0:0:0:
64,192,10739,1,8,0:0:0:0:
192,192,10739,1,0,0:0:0:0:
192,192,11073,1,8,0:0:0:0:
448,192,11073,1,0,0:0:0:0:
320,192,11406,1,8,0:0:0:0:
448,192,11406,1,0,0:0:0:0:
64,192,11739,1,8,0:0:0:0:
320,192,11739,1,0,0:0:0:0:
64,192,12073,1,8,0:0:0:0:
192,192,12073,1,0,0:0:0:0:
192,192,12406,1,8,0:0:0:0:
448,192,12406,1,0,0:0:0:0:
64,192,12739,1,8,0:0:0:0:
448,192,12739,1,0,0:0:0:0:
64,192,13073,1,2,0:0:0:0:
448,192,13239,1,2,0:0:0:0:
320,192,13323,1,2,0:0:0:0:
64,192,13406,128,8,13739:0:0:0:0:
192,192,13406,1,0,0:0:0:50:LR_CymbalQST.wav
320,192,13739,1,8,0:0:0:0:
448,192,13739,1,2,0:0:0:0:
64,192,14073,1,8,0:0:0:0:
448,192,14073,1,0,0:0:0:0:
64,192,14406,1,8,0:0:0:0:
192,192,14406,1,0,0:0:0:0:
192,192,14573,1,0,0:0:0:0:
320,192,14739,1,8,0:0:0:0:
448,192,14739,128,0,15073:0:0:0:0:
64,192,15073,1,8,0:0:0:0:
192,192,15073,1,2,0:0:0:0:
64,192,15406,1,8,0:0:0:0:
448,192,15406,1,0,0:0:0:0:
320,192,15739,1,8,0:0:0:0:
448,192,15739,1,0,0:0:0:0:
64,192,16073,1,8,0:0:0:0:
192,192,16073,128,0,16406:0:0:0:0:
320,192,16406,1,8,0:0:0:0:
448,192,16406,1,2,0:0:0:0:
64,192,16739,1,8,0:0:0:0:
448,192,16739,1,0,0:0:0:0:
64,192,17073,1,8,0:0:0:0:
192,192,17073,1,0,0:0:0:0:
192,192,17239,1,0,0:0:0:0:
320,192,17406,128,8,17739:0:0:0:0:
448,192,17406,1,0,0:0:0:0:
64,192,17739,1,8,0:0:0:0:
192,192,17739,1,2,0:0:0:0:
64,192,18073,1,0,0:0:0:70:LR_Tom Hit 3.wav
448,192,18073,1,0,0:0:0:0:
320,192,18239,1,0,0:0:0:70:LR_Tom Hit 3.wav
64,192,18406,1,0,0:0:0:70:LR_Tom Hit 2.wav
448,192,18406,1,0,0:0:0:0:
192,192,18573,1,0,0:0:0:70:LR_Tom Hit 2.wav
320,192,18739,1,0,0:0:0:70:LR_Tom Hit 3.wav
448,192,18739,128,0,19073:0:0:0:0:
64,192,19073,1,8,0:0:0:0:
192,192,19073,1,2,0:0:0:0:
192,192,19406,1,8,0:0:0:0:
320,192,19406,1,0,0:0:0:0:
320,192,19739,1,8,0:0:0:0:
448,192,19739,1,0,0:0:0:0:
448,192,19906,1,0,0:0:0:0:
64,192,20073,128,8,20406:0:0:0:0:
192,192,20073,1,0,0:0:0:0:
320,192,20406,1,8,0:0:0:0:
448,192,20406,1,2,0:0:0:0:
192,192,20739,1,8,0:0:0:0:
320,192,20739,1,0,0:0:0:0:
64,192,21073,1,8,0:0:0:0:
192,192,21073,128,0,21406:0:0:0:0:
320,192,21406,1,8,0:0:0:0:
448,192,21406,1,0,0:0:0:0:
64,192,21739,1,8,0:0:0:0:
320,192,21739,1,2,0:0:0:0:
64,192,22073,1,8,0:0:0:0:
448,192,22073,1,0,0:0:0:0:
320,192,22239,1,0,0:0:0:0:
64,192,22406,1,8,0:0:0:0:
192,192,22406,1,0,0:0:0:0:
320,192,22573,1,10,0:0:0:0:
448,192,22573,128,0,22906:0:0:0:50:LR_CymbalQST.wav
192,192,22906,1,0,0:0:0:70:LR_Tom Drop.wav
320,192,23073,1,0,0:0:0:70:LR_Tom Hit 3.wav
64,192,23239,128,0,23573:0:0:0:70:LR_Tom Hit 2.wav
192,192,23239,1,0,0:0:0:50:LR_CymbalQST.wav
448,192,23573,1,0,0:0:0:0:
64,192,23739,1,2,0:0:0:0:
192,192,23823,1,2,0:0:0:0:
320,192,23906,1,2,0:0:0:0:
448,192,23989,1,2,0:0:0:0:
64,192,24073,1,8,0:0:0:0:
192,192,24073,1,0,0:0:0:50:LR_CymbalQST.wav
64,192,24406,128,2,24739:0:0:0:0:
448,192,24406,1,0,0:0:0:0:
192,192,24739,1,8,0:0:0:0:
320,192,24906,1,0,0:0:0:0:
64,192,25073,1,2,0:0:0:0:
448,192,25073,1,0,0:0:0:0:
192,192,25239,128,8,25406:0:0:0:0:
448,192,25573,128,8,25739:0:0:0:0:
192,192,25739,1,2,0:0:0:0:
320,192,25739,1,0,0:0:0:0:
64,192,25906,128,0,26073:0:0:0:0:
320,192,26073,1,8,0:0:0:0:
448,192,26239,128,0,26406:0:0:0:0:
64,192,26406,1,2,0:0:0:0:
192,192,26406,1,0,0:0:0:0:
320,192,26573,1,0,0:0:0:0:
448,192,26739,1,8,0:0:0:0:
64,192,27073,1,2,0:0:0:0:
448,192,27073,128,0,27406:0:0:0:0:
192,192,27406,1,8,0:0:0:0:
320,192,27573,1,0,0:0:0:0:
64,192,27739,1,2,0:0:0:0:
448,192,27739,1,0,0:0:0:0:
192,192,27906,128,8,28239:0:0:0:0:
320,192,28239,1,8,0:0:0:0:
64,192,28406,1,2,0:0:0:0:
448,192,28406,1,0,0:0:0:0:
320,192,28573,128,0,28739:0:0:0:0:
64,192,28739,1,0,0:0:0:70:LR_Tom Drop.wav
192,192,28906,1,0,0:0:0:70:LR_Tom Hit 2.wav
320,192,29073,1,2,0:0:0:0:
448,192,29073,1,0,0:0:0:70:LR_Tom Hit 2.wav
64,192,29239,1,0,0:0:0:70:LR_Tom Hit 3.wav
192,192,29406,1,8,0:0:0:0:
320,192,29406,1,0,0:0:0:50:LR_CymbalQST.wav
64,192,29739,128,2,30073:0:0:0:0:
448,192,29739,1,0,0:0:0:0:
320,192,30073,1,8,0:0:0:0:
448,192,30239,1,0,0:0:0:0:
64,192,30406,1,2,0:0:0:0:
192,192,30406,1,0,0:0:0:0:
320,192,30573,128,8,30739:0:0:0:0:
448,192,30906,128,8,31073:0:0:0:0:
192,192,31073,1,2,0:0:0:0:
320,192,31073,1,0,0:0:0:0:
64,192,31239,128,0,31406:0:0:0:0:
320,192,31406,1,8,0:0:0:0:
448,192,31573,128,0,31739:0:0:0:0:
64,192,31739,1,2,0:0:0:0:
192,192,31739,1,0,0:0:0:0:
320,192,31906,1,0,0:0:0:0:
192,192,32073,1,8,0:0:0:0:
64,192,32406,1,2,0:0:0:0:
448,192,32406,128,0,32739:0:0:0:0:
320,192,32739,1,8,0:0:0:0:
192,192,32906,1,0,0:0:0:0:
64,192,33073,1,2,0:0:0:0:
448,192,33073,1,0,0:0:0:0:
320,192,33239,128,8,33573:0:0:0:0:
192,192,33573,1,8,0:0:0:0:
320,192,33739,1,2,0:0:0:0:
448,192,33906,128,0,34073:0:0:0:0:
64,192,34073,1,8,0:0:0:0:
192,192,34073,1,0,0:0:0:0:
320,192,34239,1,8,0:0:0:0:
192,192,34323,1,2,0:0:0:0:
64,192,34406,1,2,0:0:0:0:
192,192,34573,1,0,0:0:0:70:LR_Tom Hit 2.wav
320,192,34573,1,0,0:0:0:0:
64,192,34739,128,10,35073:0:0:0:0:
448,192,34739,1,0,0:0:0:50:LR_CymbalQST.wav
320,192,35073,1,2,0:0:0:0:
448,192,35073,1,8,0:0:0:0:
448,192,35239,1,0,0:0:0:0:
192,192,35406,1,2,0:0:0:0:
320,192,35406,1,8,0:0:0:0:
320,192,35573,1,0,0:0:0:0:
64,192,35739,1,2,0:0:0:0:
192,192,35739,1,8,0:0:0:0:
192,192,35906,1,0,0:0:0:0:
64,192,36073,1,2,0:0:0:0:
448,192,36073,1,8,0:0:0:0:
64,192,36239,1,8,0:0:0:0:
192,192,36406,1,2,0:0:0:0:
320,192,36406,1,8,0:0:0:0:
64,192,36739,1,2,0:0:0:0:
448,192,36739,1,8,0:0:0:0:
448,192,36906,1,8,0:0:0:0:
192,192,37073,1,2,0:0:0:0:
320,192,37073,1,8,0:0:0:0:
64,192,37406,1,10,0:0:0:0:
448,192,37406,128,0,37739:0:0:0:50:LR_CymbalQST.wav
64,192,37739,1,2,0:0:0:0:
192,192,37739,1,8,0:0:0:0:
64,192,37906,1,0,0:0:0:0:
320,192,38073,1,2,0:0:0:0:
448,192,38073,1,0,0:0:0:70:LR_Tom Drop.wav
64,192,38239,1,0,0:0:0:70:LR_Tom Hit 2.wav
192,192,38239,1,0,0:0:0:0:
320,192,38406,1,0,0:0:0:70:LR_Tom Hit 2.wav
64,192,38573,1,8,0:0:0:0:
448,192,38573,1,0,0:0:0:70:LR_Tom Hit 3.wav
64,192,38906,1,0,0:0:0:70:LR_Tom Hit 2.wav
192,192,38989,1,0,0:0:0:70:LR_Tom Hit 2.wav
320,192,39073,128,2,39573:0:0:0:0:
64,192,39573,1,2,0:0:0:0:
448,192,39573,1,0,0:0:0:0:
192,192,39739,1,0,0:0:0:70:LR_Tom Hit 2.wav
64,192,40073,1,8,0:0:0:0:
448,192,40073,128,0,40406:0:0:0:50:LR_CymbalQST.wav
64,192,40406,1,2,0:0:0:0:
320,192,40406,1,0,0:0:0:0:
192,192,40573,1,0,0:0:0:0:
320,192,40739,1,8,0:0:0:0:
320,192,40906,1,8,0:0:0:0:
64,192,41073,1,2,0:0:0:0:
448,192,41073,1,0,0:0:0:0:
192,192,41239,1,8,0:0:0:0:
192,192,41573,1,8,0:0:0:0:
64,192,41739,1,2,0:0:0:0:
448,192,41739,128,0,41906:0:0:0:0:
320,192,42073,128,8,42239:0:0:0:0:
64,192,42406,1,2,0:0:0:0:
192,192,42406,128,0,42573:0:0:0:0:
320,192,42739,1,8,0:0:0:0:
448,192,42739,128,0,43073:0:0:0:0:
64,192,43073,1,2,0:0:0:0:
192,192,43073,1,0,0:0:0:0:
320,192,43239,1,0,0:0:0:0:
64,192,43406,1,8,0:0:0:0:
64,192,43573,1,8,0:0:0:0:
192,192,43739,1,2,0:0:0:0:
448,192,43739,1,0,0:0:0:0:
320,192,43906,1,8,0:0:0:0:
320,192,44239,1,8,0:0:0:0:
64,192,44406,1,2,0:0:0:0:
192,192,44573,1,0,0:0:0:0:
320,192,44739,1,8,0:0:0:0:
448,192,44906,1,8,0:0:0:0:
64,192,45073,1,2,0:0:0:0:
192,192,45073,1,0,0:0:0:0:
64,192,45406,128,8,45739:0:0:0:0:
320,192,45406,1,0,0:0:0:0:
192,192,45739,1,2,0:0:0:0:
448,192,45739,1,0,0:0:0:0:
320,192,45906,1,0,0:0:0:0:
192,192,46073,1,8,0:0:0:0:
192,192,46239,1,8,0:0:0:0:
64,192,46406,1,2,0:0:0:0:
448,192,46406,1,0,0:0:0:0:
320,192,46573,1,8,0:0:0:0:
320,192,46906,1,8,0:0:0:0:
192,192,47073,128,2,47239:0:0:0:0:
448,192,47073,1,0,0:0:0:0:
64,192,47406,128,8,47573:0:0:0:0:
320,192,47739,1,2,0:0:0:0:
448,192,47739,128,0,47906:0:0:0:0:
64,192,48073,128,8,48406:0:0:0:0:
192,192,48073,1,0,0:0:0:0:
320,192,48406,1,2,0:0:0:0:
448,192,48406,1,0,0:0:0:0:
192,192,48573,1,0,0:0:0:0:
448,192,48739,1,8,0:0:0:0:
448,192,48906,1,8,0:0:0:0:
64,192,49073,1,2,0:0:0:0:
320,192,49073,1,0,0:0:0:0:
64,192,49239,128,8,49573:0:0:0:0:
320,192,49573,1,8,0:0:0:0:
64,192,49739,1,2,0:0:0:0:
448,192,49739,1,0,0:0:0:0:
448,192,49906,128,8,50239:0:0:0:0:
320,192,50239,1,8,0:0:0:0:
64,192,50406,1,2,0:0:0:0:
192,192,50406,1,0,0:0:0:0:
320,192,50573,1,8,0:0:0:0:
64,192,50739,1,8,0:0:0:0:
448,192,50739,128,0,51073:0:0:0:50:LR_CymbalQST.wav
192,192,51073,1,2,0:0:0:0:
320,192,51073,1,0,0:0:0:0:
64,192,51239,1,0,0:0:0:0:
320,192,51406,1,8,0:0:0:0:
320,192,51573,1,8,0:0:0:0:
192,192,51739,1,2,0:0:0:0:
448,192,51739,1,0,0:0:0:0:
64,192,51906,1,8,0:0:0:0:
64,192,52239,1,8,0:0:0:0:
192,192,52406,1,2,0:0:0:0:
448,192,52406,128,0,52573:0:0:0:0:
320,192,52739,128,8,52906:0:0:0:0:
64,192,53073,1,2,0:0:0:0:
192,192,53073,128,0,53239:0:0:0:0:
320,192,53406,1,8,0:0:0:0:
448,192,53406,128,0,53739:0:0:0:0:
64,192,53739,1,2,0:0:0:0:
192,192,53739,1,0,0:0:0:0:
320,192,53906,1,0,0:0:0:0:
64,192,54073,1,8,0:0:0:0:
64,192,54239,1,8,0:0:0:0:
192,192,54406,1,2,0:0:0:0:
320,192,54406,1,0,0:0:0:0:
448,192,54573,1,8,0:0:0:0:
448,192,54906,1,8,0:0:0:0:
64,192,55073,1,2,0:0:0:0:
320,192,55073,1,0,0:0:0:0:
192,192,55239,1,0,0:0:0:0:
320,192,55406,1,8,0:0:0:0:
448,192,55573,1,8,0:0:0:0:
64,192,55739,1,2,0:0:0:0:
192,192,55739,1,0,0:0:0:0:
64,192,56073,128,8,56406:0:0:0:0:
448,192,56073,1,0,0:0:0:0:
320,192,56406,1,2,0:0:0:0:
448,192,56406,1,0,0:0:0:0:
192,192,56573,1,0,0:0:0:0:
320,192,56739,1,8,0:0:0:0:
320,192,56906,1,8,0:0:0:0:
64,192,57073,1,2,0:0:0:0:
448,192,57073,1,0,0:0:0:0:
192,192,57239,1,8,0:0:0:0:
192,192,57573,1,8,0:0:0:0:
320,192,57739,128,2,57906:0:0:0:0:
448,192,57739,1,0,0:0:0:0:
64,192,58073,128,8,58239:0:0:0:0:
320,192,58239,1,8,0:0:0:0:
192,192,58406,1,2,0:0:0:0:
448,192,58406,128,0,58573:0:0:0:0:
64,192,58739,128,8,59073:0:0:0:0:
320,192,58739,1,0,0:0:0:0:
192,192,59073,1,2,0:0:0:0:
448,192,59073,1,0,0:0:0:0:
320,192,59239,1,0,0:0:0:0:
192,192,59406,1,8,0:0:0:0:
192,192,59573,1,8,0:0:0:0:
64,192,59739,1,2,0:0:0:0:
320,192,59739,1,0,0:0:0:0:
320,192,59906,128,8,60239:0:0:0:0:
192,192,60239,1,8,0:0:0:0:
64,192,60406,1,2,0:0:0:0:
448,192,60406,1,0,0:0:0:0:
64,192,60573,128,8,60906:0:0:0:0:
192,192,60906,1,8,0:0:0:0:
320,192,61073,1,2,0:0:0:0:
448,192,61073,1,0,0:0:0:0:
192,192,61239,1,8,0:0:0:0:
320,192,61406,128,8,61739:0:0:0:0:
192,192,61739,1,0,0:0:0:0:
320,192,61906,1,8,0:0:0:0:
64,192,62073,128,8,62406:0:0:0:0:
448,192,62406,128,2,62573:0:0:0:0:
192,192,62739,128,8,63073:0:0:0:0:
320,192,63073,1,0,0:0:0:0:
192,192,63239,1,8,0:0:0:0:
64,192,63406,1,8,0:0:0:0:
448,192,63406,1,0,0:0:0:0:
64,192,63739,1,2,0:0:0:0:
320,192,63739,1,0,0:0:0:0:
192,192,63906,1,8,0:0:0:0:
320,192,64073,128,8,64406:0:0:0:0:
192,192,64406,1,0,0:0:0:0:
320,192,64573,1,8,0:0:0:0:
64,192,64739,128,8,65073:0:0:0:0:
320,192,65073,1,2,0:0:0:0:
448,192,65073,1,0,0:0:0:0:
192,192,65239,1,8,0:0:0:0:
448,192,65406,128,0,65573:0:0:0:0:
64,192,65573,1,8,0:0:0:0:
320,192,65739,1,2,0:0:0:0:
448,192,65739,1,0,0:0:0:0:
192,192,65906,1,0,0:0:0:70:LR_Tom Hit 3.wav
448,192,66073,1,8,0:0:0:0:
448,192,66239,1,8,0:0:0:0:
64,192,66406,1,2,0:0:0:0:
320,192,66573,1,0,0:0:0:0:
192,192,66739,128,8,67073:0:0:0:0:
192,192,67239,1,8,0:0:0:0:
448,192,67406,128,8,67739:0:0:0:0:
64,192,67739,128,2,67906:0:0:0:0:
320,192,68073,128,8,68406:0:0:0:0:
64,192,68406,1,0,0:0:0:0:
320,192,68573,1,8,0:0:0:0:
192,192,68739,1,8,0:0:0:0:
448,192,68739,1,0,0:0:0:0:
64,192,69073,1,2,0:0:0:0:
448,192,69073,1,0,0:0:0:0:
320,192,69239,1,8,0:0:0:0:
192,192,69406,128,8,69739:0:0:0:0:
192,192,69906,1,8,0:0:0:0:
320,192,70073,128,8,70406:0:0:0:0:
64,192,70406,1,2,0:0:0:0:
192,192,70406,1,0,0:0:0:0:
320,192,70573,1,8,0:0:0:0:
448,192,70739,128,0,70906:0:0:0:0:
192,192,70906,1,8,0:0:0:0:
64,192,71073,1,2,0:0:0:0:
448,192,71073,1,0,0:0:0:0:
320,192,71239,1,0,0:0:0:70:LR_Tom Hit 3.wav
192,192,71406,1,8,0:0:0:0:
192,192,71573,1,8,0:0:0:0:
448,192,71739,1,2,0:0:0:0:
64,192,71906,1,0,0:0:0:0:
320,192,72073,128,8,72406:0:0:0:0:
448,192,72073,1,0,0:0:0:50:LR_CymbalQST.wav
64,192,72406,1,0,0:0:0:0:
320,192,72573,1,8,0:0:0:0:
448,192,72739,128,8,73073:0:0:0:0:
64,192,73073,128,2,73239:0:0:0:0:
192,192,73406,128,8,73739:0:0:0:0:
448,192,73739,1,0,0:0:0:0:
192,192,73906,1,8,0:0:0:0:
64,192,74073,1,8,0:0:0:0:
320,192,74073,1,0,0:0:0:0:
64,192,74406,1,2,0:0:0:0:
448,192,74406,1,0,0:0:0:0:
192,192,74573,1,8,0:0:0:0:
320,192,74739,128,8,75073:0:0:0:0:
64,192,75073,1,0,0:0:0:0:
320,192,75239,1,8,0:0:0:0:
192,192,75406,128,8,75739:0:0:0:0:
320,192,75739,1,2,0:0:0:0:
448,192,75739,1,0,0:0:0:0:
192,192,75906,1,8,0:0:0:0:
64,192,76073,128,0,76239:0:0:0:0:
320,192,76239,1,8,0:0:0:0:
64,192,76406,1,2,0:0:0:0:
448,192,76406,1,0,0:0:0:0:
192,192,76573,1,0,0:0:0:70:LR_Tom Hit 3.wav
320,192,76739,1,8,0:0:0:0:
320,192,76906,1,8,0:0:0:0:
64,192,77073,1,2,0:0:0:0:
448,192,77073,1,0,0:0:0:0:
192,192,77239,1,0,0:0:0:0:
64,192,77406,128,8,77739:0:0:0:0:
448,192,77406,1,0,0:0:0:50:LR_CymbalQST.wav
320,192,77739,1,2,0:0:0:0:
448,192,77739,1,0,0:0:0:0:
192,192,77906,1,8,0:0:0:0:
448,192,78073,1,8,0:0:0:0:
320,192,78239,1,0,0:0:0:0:
64,192,78406,1,2,0:0:0:0:
192,192,78406,1,0,0:0:0:0:
320,192,78573,1,8,0:0:0:0:
448,192,78573,128,0,78906:0:0:0:50:LR_CymbalQST.wav
192,192,78906,1,8,0:0:0:0:
64,192,79073,1,2,0:0:0:0:
448,192,79073,1,0,0:0:0:0:
320,192,79406,1,8,0:0:0:0:
192,192,79573,1,0,0:0:0:0:
64,192,79739,1,2,0:0:0:0:
448,192,79739,1,0,0:0:0:0:
192,192,79906,1,8,0:0:0:0:
320,192,80073,1,8,0:0:0:0:
448,192,80073,1,0,0:0:0:50:LR_CymbalQST.wav
64,192,80239,1,0,0:0:0:0:
64,192,80406,1,2,0:0:0:0:
192,192,80406,1,0,0:0:0:0:
320,192,80573,1,8,0:0:0:0:
64,192,80739,1,0,0:0:0:0:
192,192,80739,1,0,0:0:0:0:
448,192,80906,1,8,0:0:0:0:
320,192,81073,1,2,0:0:0:0:
448,192,81073,1,0,0:0:0:0:
64,192,81239,1,8,0:0:0:0:
192,192,81239,1,0,0:0:0:50:LR_CymbalQST.wav
320,192,81406,1,8,0:0:0:0:
192,192,81573,1,8,0:0:0:0:
64,192,81739,1,2,0:0:0:0:
448,192,81739,1,0,0:0:0:0:
320,192,81906,1,8,0:0:0:0:
64,192,82073,1,2,0:0:0:0:
192,192,82073,1,0,0:0:0:0:
448,192,82239,1,8,0:0:0:0:
192,192,82406,1,2,0:0:0:0:
320,192,82406,128,0,82739:0:0:0:0:
64,192,82739,128,2,83073:0:0:0:0:
192,192,82739,128,0,83073:0:0:0:0:
320,192,83073,1,2,0:0:0:0:
192,192,83239,1,8,0:0:0:0:
320,192,83406,128,2,83739:0:0:0:0:
448,192,83406,128,0,83739:0:0:0:0:
192,192,83739,1,2,0:0:0:0:
320,192,83906,1,0,0:0:0:70:LR_Tom Hit 2.wav
64,192,84073,1,2,0:0:0:0:
448,192,84073,1,0,0:0:0:0:
192,192,84239,128,8,84573:0:0:0:0:
320,192,84239,128,0,84573:0:0:0:0:
64,192,84573,1,8,0:0:0:0:
192,192,84739,128,2,85073:0:0:0:0:
320,192,84739,128,0,85073:0:0:0:0:
448,192,85073,1,2,0:0:0:0:
320,192,85239,1,0,0:0:0:70:LR_Tom Hit 2.wav
64,192,85406,1,2,0:0:0:0:
192,192,85406,1,0,0:0:0:50:LR_CymbalQST.wav
320,192,85573,1,8,0:0:0:0:
64,192,85739,1,2,0:0:0:0:
448,192,85739,1,0,0:0:0:50:LR_CymbalQST.wav
192,192,85906,1,8,0:0:0:0:
320,192,86073,1,0,0:0:0:70:LR_Tom Drop.wav
448,192,86073,1,0,0:0:0:50:LR_CymbalQST.wav
64,192,86239,1,0,0:0:0:70:LR_Tom Hit 2.wav
192,192,86239,1,0,0:0:0:0:
320,192,86406,1,0,0:0:0:70:LR_Tom Hit 2.wav
448,192,86406,1,0,0:0:0:0:
64,192,86573,1,0,0:0:0:70:LR_Tom Hit 3.wav
192,192,86573,1,0,0:0:0:0:
320,192,86906,1,8,0:0:0:0:
64,192,87073,1,2,0:0:0:0:
448,192,87073,1,0,0:0:0:0:
64,192,87406,1,2,0:0:0:0:
448,192,87406,1,0,0:0:0:0:
192,192,87573,1,0,0:0:0:70:LR_Tom Hit 2.wav
320,192,87656,1,0,0:0:0:70:LR_Tom Hit 2.wav
448,192,87739,1,2,0:0:0:0:
192,192,88073,1,8,0:0:0:0:
320,192,88073,128,0,88406:0:0:0:50:LR_CymbalQST.wav
64,192,88406,1,2,0:0:0:0:
448,192,88406,1,0,0:0:0:0:
192,192,88573,1,0,0:0:0:0:
320,192,88739,1,8,0:0:0:0:
320,192,88906,1,8,0:0:0:0:
64,192,89073,1,2,0:0:0:0:
448,192,89073,1,0,0:0:0:0:
192,192,89239,128,8,89406:0:0:0:0:
448,192,89406,1,0,0:0:0:0:
320,192,89573,128,8,89739:0:0:0:0:
64,192,89739,1,2,0:0:0:0:
192,192,89739,1,0,0:0:0:0:
320,192,89906,1,0,0:0:0:0:
448,192,89906,128,0,90239:0:0:0:0:
192,192,90239,1,8,0:0:0:0:
64,192,90406,1,2,0:0:0:0:
448,192,90406,1,0,0:0:0:0:
192,192,90573,1,0,0:0:0:0:
320,192,90739,128,8,91073:0:0:0:0:
64,192,91073,1,2,0:0:0:0:
448,192,91073,1,0,0:0:0:0:
320,192,91239,1,0,0:0:0:0:
192,192,91406,1,8,0:0:0:0:
192,192,91573,1,8,0:0:0:0:
64,192,91739,1,2,0:0:0:0:
448,192,91739,1,0,0:0:0:0:
320,192,91906,128,8,92406:0:0:0:0:
64,192,92406,1,2,0:0:0:0:
448,192,92406,1,0,0:0:0:0:
320,192,92573,1,0,0:0:0:0:
192,192,92739,1,8,0:0:0:0:
192,192,92906,1,8,0:0:0:0:
320,192,93073,1,2,0:0:0:0:
448,192,93073,1,0,0:0:0:0:
320,192,93239,1,0,0:0:0:0:
64,192,93406,128,8,93739:0:0:0:0:
192,192,93406,1,0,0:0:0:0:
320,192,93739,1,2,0:0:0:0:
448,192,93739,1,0,0:0:0:0:
192,192,93906,1,0,0:0:0:0:
320,192,94073,1,8,0:0:0:0:
320,192,94239,1,8,0:0:0:0:
64,192,94406,1,2,0:0:0:0:
192,192,94406,1,0,0:0:0:0:
192,192,94573,1,8,0:0:0:0:
448,192,94739,128,0,95073:0:0:0:0:
64,192,95073,128,2,95406:0:0:0:0:
320,192,95073,1,0,0:0:0:0:
192,192,95406,128,8,95739:0:0:0:0:
320,192,95739,128,2,96073:0:0:0:0:
448,192,95739,1,0,0:0:0:0:
64,192,96073,1,8,0:0:0:0:
448,192,96073,128,0,96406:0:0:0:0:
192,192,96406,1,2,0:0:0:0:
320,192,96406,1,0,0:0:0:0:
320,192,96573,1,0,0:0:0:0:
192,192,96739,128,8,97073:0:0:0:0:
320,192,97073,1,2,0:0:0:0:
448,192,97073,1,0,0:0:0:0:
64,192,97239,128,8,97573:0:0:0:0:
192,192,97239,1,0,0:0:0:50:LR_CymbalQST.wav
448,192,97573,1,0,0:0:0:0:
320,192,97739,1,2,0:0:0:0:
192,192,97906,1,0,0:0:0:50:LR_CymbalQST.wav
64,192,98073,1,2,0:0:0:0:
448,192,98073,1,0,0:0:0:70:LR_Tom Hit 2.wav
64,192,98406,1,2,0:0:0:0:
448,192,98406,1,0,0:0:0:70:LR_Tom Hit 3.wav
192,192,98739,128,8,99073:0:0:0:0:
320,192,98739,1,0,0:0:0:50:LR_CymbalQST.wav
64,192,99073,1,2,0:0:0:0:
448,192,99073,1,0,0:0:0:0:
320,192,99239,1,0,0:0:0:0:
192,192,99406,1,8,0:0:0:0:
192,192,99573,1,8,0:0:0:0:
64,192,99739,1,2,0:0:0:0:
320,192,99739,1,0,0:0:0:0:
448,192,99906,128,8,100073:0:0:0:0:
192,192,100073,1,0,0:0:0:0:
64,192,100239,128,8,100406:0:0:0:0:
192,192,100406,1,2,0:0:0:0:
448,192,100406,1,0,0:0:0:0:
64,192,100573,1,0,0:0:0:0:
320,192,100573,128,0,100906:0:0:0:0:
192,192,100906,1,8,0:0:0:0:
64,192,101073,1,2,0:0:0:0:
448,192,101073,1,0,0:0:0:0:
320,192,101239,1,0,0:0:0:0:
192,192,101406,128,8,101739:0:0:0:0:
64,192,101739,1,2,0:0:0:0:
448,192,101739,1,0,0:0:0:0:
192,192,101906,1,0,0:0:0:0:
320,192,102073,1,8,0:0:0:0:
320,192,102239,1,8,0:0:0:0:
64,192,102406,1,2,0:0:0:0:
448,192,102406,1,0,0:0:0:0:
192,192,102573,128,8,103073:0:0:0:0:
64,192,103073,1,2,0:0:0:0:
448,192,103073,1,0,0:0:0:0:
192,192,103239,1,0,0:0:0:0:
320,192,103406,1,8,0:0:0:0:
320,192,103573,1,8,0:0:0:0:
64,192,103739,1,2,0:0:0:0:
192,192,103739,1,0,0:0:0:0:
192,192,103906,1,0,0:0:0:0:
320,192,104073,1,8,0:0:0:0:
448,192,104073,128,0,104406:0:0:0:0:
64,192,104406,1,2,0:0:0:0:
192,192,104406,1,0,0:0:0:0:
320,192,104573,1,0,0:0:0:0:
64,192,104739,1,8,0:0:0:0:
64,192,104906,1,8,0:0:0:0:
192,192,105073,1,2,0:0:0:0:
320,192,105073,1,0,0:0:0:0:
320,192,105239,1,8,0:0:0:0:
448,192,105406,128,0,105739:0:0:0:0:
64,192,105739,1,2,0:0:0:0:
192,192,105739,128,0,106073:0:0:0:0:
320,192,106073,128,8,106406:0:0:0:0:
64,192,106406,1,2,0:0:0:0:
448,192,106406,128,0,106739:0:0:0:0:
192,192,106739,128,8,107073:0:0:0:0:
320,192,106739,1,0,0:0:0:0:
64,192,107073,1,2,0:0:0:0:
448,192,107073,1,0,0:0:0:0:
64,192,107239,1,0,0:0:0:0:
320,192,107406,1,8,0:0:0:0:
320,192,107573,1,8,0:0:0:0:
64,192,107739,1,2,0:0:0:0:
192,192,107739,1,0,0:0:0:0:
320,192,107906,1,8,0:0:0:0:
448,192,107906,128,0,108239:0:0:0:50:LR_CymbalQST.wav
64,192,108239,1,0,0:0:0:70:LR_Tom Drop.wav
192,192,108239,1,0,0:0:0:0:
320,192,108406,1,0,0:0:0:70:LR_Tom Hit 3.wav
448,192,108406,1,0,0:0:0:0:
64,192,108573,128,0,108906:0:0:0:70:LR_Tom Hit 2.wav
192,192,108573,1,0,0:0:0:50:LR_CymbalQST.wav
320,192,108906,1,0,0:0:0:0:
64,192,109073,1,2,0:0:0:0:
192,192,109156,1,2,0:0:0:0:
448,192,109239,1,2,0:0:0:0:
320,192,109323,1,2,0:0:0:0:
64,192,109406,1,8,0:0:0:0:
192,192,109406,1,0,0:0:0:50:LR_CymbalQST.wav
64,192,109739,1,2,0:0:0:0:
448,192,109739,128,0,110073:0:0:0:0:
192,192,110073,1,8,0:0:0:0:
320,192,110239,1,0,0:0:0:0:
64,192,110406,1,2,0:0:0:0:
448,192,110406,1,0,0:0:0:0:
192,192,110573,128,8,110739:0:0:0:0:
320,192,110906,128,8,111073:0:0:0:0:
64,192,111073,1,2,0:0:0:0:
448,192,111073,1,0,0:0:0:0:
192,192,111239,128,0,111406:0:0:0:0:
320,192,111406,1,8,0:0:0:0:
64,192,111573,128,0,111739:0:0:0:0:
320,192,111739,1,2,0:0:0:0:
448,192,111739,1,0,0:0:0:0:
320,192,111906,1,0,0:0:0:0:
192,192,112073,1,8,0:0:0:0:
64,192,112406,128,2,112739:0:0:0:0:
448,192,112406,1,0,0:0:0:0:
320,192,112739,1,8,0:0:0:0:
192,192,112906,1,0,0:0:0:0:
64,192,113073,1,2,0:0:0:0:
448,192,113073,1,0,0:0:0:0:
320,192,113239,128,8,113573:0:0:0:0:
192,192,113573,1,8,0:0:0:0:
320,192,113739,1,2,0:0:0:0:
448,192,113739,1,0,0:0:0:0:
192,192,113906,128,0,114073:0:0:0:0:
320,192,114073,1,0,0:0:0:70:LR_Tom Drop.wav
192,192,114239,1,0,0:0:0:70:LR_Tom Hit 2.wav
64,192,114406,1,2,0:0:0:0:
448,192,114406,1,0,0:0:0:70:LR_Tom Hit 2.wav
320,192,114573,1,0,0:0:0:70:LR_Tom Hit 3.wav
64,192,114739,1,8,0:0:0:0:
192,192,114739,1,0,0:0:0:50:LR_CymbalQST.wav
64,192,115073,1,2,0:0:0:0:
448,192,115073,128,0,115406:0:0:0:0:
192,192,115406,1,8,0:0:0:0:
320,192,115573,1,0,0:0:0:0:
192,192,115739,1,2,0:0:0:0:
448,192,115739,1,0,0:0:0:0:
64,192,115906,128,8,116073:0:0:0:0:
192,192,116239,128,8,116406:0:0:0:0:
320,192,116406,1,2,0:0:0:0:
448,192,116406,1,0,0:0:0:0:
448,192,116573,128,0,116739:0:0:0:0:
192,192,116739,1,8,0:0:0:0:
64,192,116906,128,0,117073:0:0:0:0:
320,192,117073,1,2,0:0:0:0:
448,192,117073,1,0,0:0:0:0:
320,192,117239,1,0,0:0:0:0:
192,192,117406,1,8,0:0:0:0:
64,192,117739,128,2,118073:0:0:0:0:
448,192,117739,1,0,0:0:0:0:
192,192,118073,1,8,0:0:0:0:
320,192,118239,1,0,0:0:0:0:
448,192,118406,1,2,0:0:0:0:
192,192,118573,128,8,118906:0:0:0:0:
320,192,118906,1,8,0:0:0:0:
192,192,119073,128,2,119239:0:0:0:0:
448,192,119073,1,0,0:0:0:50:LR_CymbalQST.wav
320,192,119239,1,0,0:0:0:0:
64,192,119406,1,8,0:0:0:0:
448,192,119406,1,0,0:0:0:0:
320,192,119573,1,8,0:0:0:0:
192,192,119656,1,2,0:0:0:0:
64,192,119739,1,2,0:0:0:0:
320,192,119906,1,0,0:0:0:70:LR_Tom Hit 2.wav
64,192,120073,1,10,0:0:0:0:
448,192,120073,128,0,120406:0:0:0:50:LR_CymbalQST.wav
192,192,120406,1,2,0:0:0:0:
320,192,120406,1,8,0:0:0:0:
192,192,120573,1,0,0:0:0:0:
320,192,120739,1,2,0:0:0:0:
448,192,120739,1,8,0:0:0:0:
448,192,120906,1,0,0:0:0:0:
64,192,121073,1,2,0:0:0:0:
192,192,121073,1,8,0:0:0:0:
64,192,121239,1,0,0:0:0:0:
320,192,121406,1,2,0:0:0:0:
448,192,121406,1,8,0:0:0:0:
320,192,121573,1,8,0:0:0:0:
64,192,121739,1,2,0:0:0:0:
192,192,121739,1,8,0:0:0:0:
64,192,122073,1,2,0:0:0:0:
192,192,122073,1,8,0:0:0:0:
192,192,122239,1,0,0:0:0:0:
320,192,122406,1,2,0:0:0:0:
448,192,122406,1,8,0:0:0:0:
192,192,122573,1,8,0:0:0:0:
64,192,122739,128,10,123073:0:0:0:0:
448,192,122739,1,0,0:0:0:50:LR_CymbalQST.wav
192,192,123073,1,2,0:0:0:0:
320,192,123073,1,8,0:0:0:0:
320,192,123239,1,0,0:0:0:0:
64,192,123406,1,2,0:0:0:0:
192,192,123406,1,8,0:0:0:0:
64,192,123573,1,0,0:0:0:0:
320,192,123739,1,8,0:0:0:0:
448,192,123739,1,2,0:0:0:0:
448,192,123906,1,0,0:0:0:0:
192,192,124073,1,2,0:0:0:0:
320,192,124073,1,8,0:0:0:0:
192,192,124239,1,0,0:0:0:0:
64,192,124406,1,8,0:0:0:0:
448,192,124406,1,2,0:0:0:0:
64,192,124739,1,2,0:0:0:0:
192,192,124739,1,8,0:0:0:0:
320,192,124906,1,8,0:0:0:0:
64,192,125073,1,8,0:0:0:0:
448,192,125073,1,2,0:0:0:0:
192,192,125239,1,8,0:0:0:0:
320,192,125406,1,10,0:0:0:0:
448,192,125406,128,0,125739:0:0:0:50:LR_CymbalQST.wav
64,192,125739,1,8,0:0:0:0:
192,192,125739,1,2,0:0:0:0:
192,192,125906,1,0,0:0:0:0:
320,192,126073,1,2,0:0:0:0:
448,192,126073,1,8,0:0:0:0:
320,192,126239,1,0,0:0:0:0:
64,192,126406,1,8,0:0:0:0:
448,192,126406,1,2,0:0:0:0:
64,192,126573,1,0,0:0:0:0:
192,192,126739,1,2,0:0:0:0:
448,192,126739,1,8,0:0:0:0:
448,192,126906,1,8,0:0:0:0:
64,192,127073,1,8,0:0:0:0:
320,192,127073,1,2,0:0:0:0:
64,192,127406,1,2,0:0:0:0:
320,192,127406,1,8,0:0:0:0:
64,192,127573,1,0,0:0:0:0:
192,192,127739,1,8,0:0:0:0:
448,192,127739,1,2,0:0:0:0:
320,192,127906,1,8,0:0:0:0:
64,192,128073,128,10,128406:0:0:0:0:
192,192,128073,1,0,0:0:0:50:LR_CymbalQST.wav
320,192,128406,1,8,0:0:0:0:
448,192,128406,1,2,0:0:0:0:
320,192,128573,1,0,0:0:0:0:
64,192,128739,1,2,0:0:0:0:
192,192,128739,1,0,0:0:0:70:LR_Tom Drop.wav
320,192,128906,1,0,0:0:0:70:LR_Tom Hit 2.wav
448,192,128906,1,0,0:0:0:0:
64,192,129073,1,0,0:0:0:70:LR_Tom Hit 2.wav
192,192,129073,1,0,0:0:0:0:
320,192,129239,1,8,0:0:0:0:
448,192,129239,1,0,0:0:0:70:LR_Tom Hit 3.wav
64,192,129573,1,0,0:0:0:70:LR_Tom Hit 2.wav
192,192,129656,1,0,0:0:0:70:LR_Tom Hit 2.wav
320,192,129739,128,2,133406:0:0:0:0:
