osu file format v14

[General]
AudioFilename: audio.mp3
AudioLeadIn: 0
PreviewTime: 63428
Countdown: 0
SampleSet: Soft
StackLeniency: 0.7
Mode: 0
LetterboxInBreaks: 0
WidescreenStoryboard: 0

[Editor]
DistanceSpacing: 1
BeatDivisor: 4
GridSize: 16
TimelineZoom: 1.8

[Metadata]
Title:Sunglow
TitleUnicode:Sunglow
Artist:Yamajet feat. Hiura Masako
ArtistUnicode:Yamajet feat. ひうらまさこ
Creator:Calculator
Version:Insane
Source:crossbeats REV. SUNRISE
Tags:しあわせハイカロリー game edit cut size version ver capcom cross/beats p4nde p4ndemonium
BeatmapID:1761515
BeatmapSetID:841793

[Difficulty]
HPDrainRate:5
CircleSize:3.5
OverallDifficulty:8.5
ApproachRate:9
SliderMultiplier:1.7
SliderTickRate:1

[Events]
//Background and Video events
0,0,"imissyou.jpg",0,0
//Break Periods
//Storyboard Layer 0 (Background)
//Storyboard Layer 1 (Fail)
//Storyboard Layer 2 (Pass)
//Storyboard Layer 3 (Foreground)
//Storyboard Layer 4 (Overlay)
//Storyboard Sound Samples

[TimingPoints]
-655,333.333333333333,4,2,13,60,1,0
344,-133.333333333333,4,2,13,60,0,0
9844,-111.111111111111,4,2,13,60,0,0
11344,-111.111111111111,4,2,13,80,0,0
15678,-142.857142857143,4,2,13,80,0,0
16678,-142.857142857143,4,2,13,60,0,0
38011,-151.515151515152,4,2,13,50,0,0
54011,-125,4,2,13,60,0,0
59344,-125,4,2,13,65,0,0
62011,-125,4,2,13,70,0,0
64678,-100,4,2,13,80,0,1
73844,-100,4,2,13,80,0,0
75011,-125,4,2,13,80,0,0
75344,-100,4,2,13,80,0,1
83344,-100,4,2,13,80,0,0
85178,-100,4,2,13,42,0,0
85511,-100,4,2,13,45,0,0
85844,-100,4,2,13,70,0,0
86011,-111.111111111111,4,2,13,70,0,0
86594,-111.111111111111,4,2,13,35,0,0
86678,-111.111111111111,4,2,13,65,0,0
89261,-111.111111111111,4,2,13,35,0,0
89344,-111.111111111111,4,2,13,70,0,0
91928,-111.111111111111,4,2,13,35,0,0
92011,-111.111111111111,4,2,13,70,0,0
94594,-111.111111111111,4,2,13,35,0,0
94678,-111.111111111111,4,2,13,70,0,0
95844,-111.111111111111,4,2,13,42,0,0
96178,-111.111111111111,4,2,13,45,0,0
96511,-111.111111111111,4,2,13,70,0,0
96678,-99.9999999999999,4,2,13,80,0,1
104678,-99.9999999999999,4,2,13,80,0,0
107344,-99.9999999999999,4,2,13,80,0,1
116511,-99.9999999999999,4,2,13,80,0,0
116844,-99.9999999999999,4,2,13,60,0,0
118344,-99.9999999999999,4,2,13,50,0,0
118678,-99.9999999999999,4,2,13,40,0,0
119011,-99.9999999999999,4,2,13,30,0,0
119344,-99.9999999999999,4,2,13,20,0,0
119678,-99.9999999999999,4,2,13,15,0,0
120011,-99.9999999999999,4,2,13,10,0,0
120344,-99.9999999999999,4,2,13,5,0,0

[Colours]
Combo1 : 255,255,79
Combo2 : 77,219,87
Combo3 : 85,162,255

[HitObjects]
347,18,344,6,0,L|298:5,2,31.8750012159348,0|0|0,1:0|1:0|1:0,0:0:0:0:
474,65,678,2,0,P|490:131|443:196,1,127.500004863739,6|8,1:2|0:0,0:0:0:0:
278,221,1178,2,0,L|202:201,1,63.7500024318696,0|0,0:0|1:0,0:0:0:0:
330,133,1511,2,0,L|406:113,1,63.7500024318696,2|0,0:0|1:0,0:0:0:0:
388,264,1844,2,0,P|365:319|294:349,1,127.500004863739,2|0,0:0|0:0,0:0:0:0:
154,188,2344,2,0,L|230:208,1,63.7500024318696,8|0,0:0|0:0,0:0:0:0:
89,256,2678,2,0,L|13:276,1,63.7500024318696,0|0,1:0|0:0,0:0:0:0:
65,164,3011,2,0,L|45:88,1,63.7500024318696,0|8,1:0|0:0,0:0:0:0:
79,344,3344,6,0,P|135:342|219:345,1,127.500004863739,2|8,1:2|0:0,0:0:0:0:
370,347,3844,2,0,P|342:348|300:346,1,63.7500024318696,0|0,0:0|1:0,0:0:0:0:
467,276,4178,2,0,P|468:304|466:346,1,63.7500024318696,2|0,0:0|1:0,0:0:0:0:
381,250,4511,2,0,P|364:208|380:116,1,127.500004863739,2|0,0:0|0:0,0:0:0:0:
468,41,5011,2,0,P|469:69|467:111,1,63.7500024318696,8|0,0:0|0:0,0:0:0:0:
461,209,5344,1,0,1:0:0:0:
375,154,5511,1,0,1:0:0:0:
289,209,5678,1,0,1:0:0:0:
203,154,5844,1,0,1:0:0:0:
89,192,6011,2,0,L|15:176,1,63.7500024318696,0|0,1:0|0:0,0:0:0:0:
105,53,6344,5,10,0:0:0:0:
192,124,6511,2,0,L|340:92,1,127.500004863739,2|0,0:0|0:0,0:0:0:0:
210,32,7011,5,2,1:2:0:0:
174,216,7178,2,0,P|105:217|26:184,1,127.500004863739,2|0,0:0|0:0,0:0:0:0:
145,100,7678,5,10,0:0:0:0:
226,301,7844,2,0,P|294:311|357:268,1,127.500004863739,2|0,0:0|0:0,0:0:0:0:
183,195,8344,2,0,L|103:199,1,63.7500024318696,2|0,1:2|0:0,0:0:0:0:
346,186,8678,5,2,1:2:0:0:
209,104,8844,1,2,0:0:0:0:
235,272,9011,1,10,0:0:0:0:
425,96,9178,1,2,0:0:0:0:
226,185,9344,5,2,1:2:0:0:
440,231,9511,1,2,0:0:0:0:
329,64,9678,1,2,1:2:0:0:
316,287,9844,2,0,P|372:344|466:335,1,152.999995330811,6|0,1:2|1:0,0:0:0:0:
308,163,10344,5,0,1:0:0:0:
152,225,10511,2,0,P|95:280|104:374,1,152.999995330811,14|2,0:0|1:2,0:0:0:0:
265,352,11011,5,8,0:0:0:0:
284,351,11094,1,8,0:0:0:0:
303,350,11177,1,10,0:0:0:0:
322,350,11261,1,8,0:0:0:0:
341,349,11344,6,0,L|437:329,1,76.4999976654053,10|0,0:0|0:0,0:0:0:0:
226,240,11678,2,0,L|130:220,1,76.4999976654053,8|2,0:0|1:2,0:0:0:0:
384,153,12011,1,10,0:0:0:0:
320,285,12178,1,2,1:2:0:0:
218,103,12344,2,0,L|314:83,1,76.4999976654053,8|2,0:0|1:2,0:0:0:0:
469,45,12678,6,0,L|449:141,1,76.4999976654053,8|0,0:0|1:0,0:0:0:0:
308,162,13011,2,0,L|288:66,1,76.4999976654053,10|0,0:0|1:0,0:0:0:0:
466,241,13344,1,8,0:0:0:0:
320,257,13511,1,2,1:2:0:0:
412,128,13678,2,0,L|508:148,1,76.4999976654053,8|0,0:0|1:0,0:0:0:0:
360,300,14011,6,0,P|313:305|277:297,1,76.4999976654053,14|0,0:0|1:0,0:0:0:0:
180,260,14344,1,8,0:0:0:0:
234,183,14511,1,2,1:2:0:0:
182,350,14678,1,10,0:0:0:0:
128,183,14844,1,2,1:2:0:0:
266,286,15011,1,0,1:0:0:0:
95,285,15178,1,10,0:0:0:0:
60,83,15511,5,0,1:0:0:0:
60,83,15594,1,0,1:0:0:0:
60,83,15678,2,0,P|138:45|240:66,1,178.499994552612,4|8,1:0|0:0,0:0:0:0:
343,137,16344,1,0,1:0:0:0:
343,137,16678,6,0,L|464:116,1,118.999996368408,2|8,1:2|0:0,0:0:0:0:
385,46,17178,1,2,0:0:0:0:
385,46,17344,2,0,L|324:56,1,59.4999981842042,2|2,1:2|1:2,0:0:0:0:
171,105,17678,1,8,0:0:0:0:
303,168,17844,6,0,L|424:189,1,118.999996368408,2|0,1:2|1:0,0:0:0:0:
332,276,18344,2,0,L|271:286,1,59.4999981842042,10|0,0:2|0:0,0:0:0:0:
416,339,18678,2,0,L|476:349,1,59.4999981842042,2|0,1:2|1:0,0:0:0:0:
329,177,19011,2,0,L|270:166,1,59.4999981842042,10|0,0:2|0:0,0:0:0:0:
453,249,19344,6,0,L|470:125,1,118.999996368408,2|8,1:2|0:0,0:0:0:0:
419,50,19844,1,2,0:2:0:0:
419,50,20011,2,0,P|354:31|293:62,1,118.999996368408,2|8,1:2|0:0,0:0:0:0:
226,150,20511,6,0,L|167:139,1,59.4999981842042,0|0,1:0|0:0,0:0:0:0:
58,54,20844,2,0,L|116:43,1,59.4999981842042,0|8,1:0|0:0,0:0:0:0:
218,33,21178,1,0,0:0:0:0:
70,136,21344,2,0,P|52:184|76:261,1,118.999996368408,2|10,1:2|0:2,0:0:0:0:
152,302,21844,1,0,0:0:0:0:
70,360,22011,6,0,P|52:312|76:235,1,118.999996368408,2|8,1:2|0:2,0:0:0:0:
152,193,22511,1,2,0:2:0:0:
152,193,22678,2,0,L|215:192,1,59.4999981842042,2|2,1:2|1:2,0:0:0:0:
357,189,23011,1,8,0:0:0:0:
264,298,23178,6,0,P|216:316|139:292,1,118.999996368408,2|0,1:2|1:0,0:0:0:0:
362,272,23678,2,0,L|344:344,1,59.4999981842042,10|0,0:2|0:0,0:0:0:0:
444,223,24011,2,0,L|462:295,1,59.4999981842042,2|0,1:2|1:0,0:0:0:0:
319,191,24344,2,0,L|301:119,1,59.4999981842042,10|0,0:2|0:0,0:0:0:0:
354,49,24678,6,0,P|417:34|491:56,1,118.999996368408,2|10,1:2|0:2,0:0:0:0:
304,133,25178,2,0,L|175:132,1,118.999996368408,2|0,0:2|1:0,0:0:0:0:
271,49,25678,5,8,0:0:0:0:
391,165,25844,2,0,P|398:233|367:298,1,118.999996368408,4|0,1:0|1:0,0:0:0:0:
279,163,26344,5,8,0:0:0:0:
364,63,26511,2,0,L|493:62,1,118.999996368408,4|0,1:0|1:0,0:0:0:0:
391,165,27011,2,0,L|326:165,1,59.4999981842042,8|0,0:0|1:0,0:0:0:0:
278,224,27344,6,0,P|297:167|277:95,1,118.999996368408,4|8,1:2|0:2,0:0:0:0:
199,39,27844,1,2,0:2:0:0:
199,39,28011,2,0,L|117:36,1,59.4999981842042,2|2,1:2|1:2,0:0:0:0:
32,37,28344,1,8,0:0:0:0:
27,159,28511,6,0,L|23:291,1,118.999996368408,2|0,1:2|1:0,0:0:0:0:
83,349,29011,2,0,L|163:328,1,59.4999981842042,10|0,0:2|0:0,0:0:0:0:
232,328,29344,2,0,L|301:346,1,59.4999981842042,2|0,1:2|1:0,0:0:0:0:
371,204,29678,2,0,L|301:230,1,59.4999981842042,10|0,0:2|0:0,0:0:0:0:
467,352,30011,6,0,P|475:312|457:222,1,118.999996368408,2|8,1:2|0:0,0:0:0:0:
386,137,30511,1,2,0:2:0:0:
311,250,30678,2,0,L|440:248,1,118.999996368408,2|8,1:2|0:0,0:0:0:0:
258,166,31178,6,0,L|200:151,1,59.4999981842042,0|0,1:0|0:0,0:0:0:0:
198,256,31511,2,0,L|140:271,1,59.4999981842042,0|8,1:0|0:0,0:0:0:0:
25,302,31844,1,0,0:0:0:0:
123,363,32011,2,0,P|171:381|248:357,1,118.999996368408,2|10,1:2|0:2,0:0:0:0:
289,281,32511,1,0,0:0:0:0:
347,363,32678,6,0,P|299:381|222:357,1,118.999996368408,2|8,1:2|0:0,0:0:0:0:
181,279,33178,1,2,0:2:0:0:
181,279,33344,2,0,L|123:264,1,59.4999981842042,2|2,1:2|1:2,0:0:0:0:
21,214,33678,1,8,0:0:0:0:
155,148,33844,6,0,L|281:115,1,118.999996368408,2|0,1:2|1:0,0:0:0:0:
339,249,34344,2,0,L|281:234,1,59.4999981842042,10|0,0:2|0:0,0:0:0:0:
343,93,34678,2,0,L|401:78,1,59.4999981842042,2|0,1:2|1:0,0:0:0:0:
486,266,35011,2,0,L|428:251,1,59.4999981842042,10|0,0:2|0:0,0:0:0:0:
466,40,35344,6,0,P|487:100|458:170,1,118.999996368408,2|10,1:2|0:2,0:0:0:0:
365,194,35844,2,0,B|297:162|296:217|233:191,1,118.999996368408,2|0,0:2|1:0,0:0:0:0:
114,139,36344,5,8,0:0:0:0:
248,90,36511,2,0,L|378:98,1,118.999996368408,4|0,1:0|1:0,0:0:0:0:
281,196,37011,5,8,0:0:0:0:
160,245,37178,2,0,L|30:237,1,118.999996368408,4|0,1:0|1:0,0:0:0:0:
99,140,37678,2,0,L|164:136,1,59.4999981842042,10|0,0:2|1:0,0:0:0:0:
266,41,38011,6,0,L|143:32,1,112.199999657593,6|2,1:2|0:2,0:0:0:0:
48,25,38511,1,2,1:2:0:0:
48,25,38678,2,0,P|33:93|56:154,1,112.199999657593,2|10,1:2|0:2,0:0:0:0:
203,234,39344,6,0,L|326:225,1,112.199999657593,2|2,1:2|0:2,0:0:0:0:
439,218,39844,1,2,1:2:0:0:
439,218,40011,2,0,L|443:156,1,56.0999998287964,2|0,1:2|1:0,0:0:0:0:
309,77,40344,2,0,L|313:132,1,56.0999998287964,10|0,0:2|1:0,0:0:0:0:
457,47,40678,6,0,P|404:35|330:54,1,112.199999657593,2|2,1:2|0:2,0:0:0:0:
255,102,41178,1,2,1:2:0:0:
255,102,41344,2,0,L|193:97,1,56.0999998287964,0|2,1:0|0:2,0:0:0:0:
34,34,41678,2,0,L|89:29,1,56.0999998287964,8|2,0:0|0:2,0:0:0:0:
95,188,42011,2,0,L|33:183,1,56.0999998287964,0|0,1:0|1:0,0:0:0:0:
143,102,42344,2,0,L|198:97,1,56.0999998287964,8|0,0:0|1:0,0:0:0:0:
196,270,42678,6,0,L|136:263,2,56.0999998287964,2|2|10,1:2|1:2|0:2,0:0:0:0:
288,325,43178,1,2,0:2:0:0:
161,363,43344,2,0,L|35:376,1,112.199999657593,2|0,1:2|0:0,0:0:0:0:
84,258,43844,1,0,1:0:0:0:
84,258,44011,2,0,L|210:271,1,112.199999657593,0|10,1:0|0:2,0:0:0:0:
400,349,44678,6,0,L|274:336,1,112.199999657593,2|2,1:2|0:2,0:0:0:0:
373,234,45178,1,2,1:2:0:0:
373,234,45344,2,0,L|433:227,1,56.0999998287964,0|2,1:0|1:2,0:0:0:0:
286,176,45678,2,0,L|226:169,1,56.0999998287964,10|2,0:2|1:2,0:0:0:0:
326,71,46011,6,0,P|384:55|451:87,1,112.199999657593,0|0,1:0|0:0,0:0:0:0:
484,156,46511,1,0,1:0:0:0:
484,156,46678,2,0,L|484:285,1,112.199999657593,0|8,1:0|0:0,0:0:0:0:
484,365,47178,1,0,1:0:0:0:
379,304,47344,2,0,L|386:244,1,56.0999998287964,0|0,1:0|1:0,0:0:0:0:
279,187,47678,2,0,L|285:242,1,56.0999998287964,8|0,0:0|1:0,0:0:0:0:
367,96,48011,2,0,L|307:89,1,56.0999998287964,2|0,1:2|1:0,0:0:0:0:
156,124,48344,1,10,0:2:0:0:
156,124,48678,6,0,L|152:244,1,112.199999657593,6|2,1:2|0:2,0:0:0:0:
265,348,49178,1,2,1:2:0:0:
265,348,49344,2,0,P|270:269|253:221,1,112.199999657593,2|10,1:2|0:2,0:0:0:0:
191,93,50011,6,0,L|65:92,1,112.199999657593,2|2,1:2|0:2,0:0:0:0:
184,187,50511,1,2,1:2:0:0:
184,187,50678,2,0,L|247:186,1,56.0999998287964,2|0,1:2|1:0,0:0:0:0:
349,97,51011,2,0,L|286:96,1,56.0999998287964,10|0,0:2|1:0,0:0:0:0:
337,201,51344,6,0,P|391:218|450:194,1,112.199999657593,2|2,1:2|0:2,0:0:0:0:
459,100,51844,1,2,1:2:0:0:
459,100,52011,2,0,L|526:71,1,56.0999998287964,0|2,1:0|0:2,0:0:0:0:
349,61,52344,2,0,L|282:32,1,56.0999998287964,8|2,0:0|0:2,0:0:0:0:
196,160,52678,2,0,L|263:131,1,56.0999998287964,0|0,1:0|1:0,0:0:0:0:
150,53,53011,2,0,L|83:24,1,56.0999998287964,8|0,0:0|1:0,0:0:0:0:
16,150,53344,6,0,P|8:195|11:230,2,56.0999998287964,2|2|10,1:2|1:2|0:2,0:0:0:0:
43,42,53844,1,2,0:2:0:0:
147,210,54011,6,0,P|171:282|135:352,1,136,4|8,1:2|0:0,0:0:0:0:
5,273,54511,1,0,0:0:0:0:
5,273,54678,2,0,L|78:274,1,68,0|0,1:0|0:0,0:0:0:0:
220,276,55011,1,10,0:2:0:0:
59,338,55178,6,0,P|35:266|71:196,1,136,6|0,1:2|1:0,0:0:0:0:
165,158,55678,2,0,L|240:147,1,68,10|0,0:2|0:0,0:0:0:0:
80,111,56011,2,0,L|5:100,1,68,2|0,1:2|0:0,0:0:0:0:
163,44,56344,2,0,L|238:55,1,68,10|2,0:2|0:2,0:0:0:0:
386,128,56678,5,6,1:2:0:0:
214,160,56845,1,2,0:2:0:0:
336,34,57011,1,10,0:2:0:0:
310,204,57178,2,0,L|291:346,1,136,2|0,1:2|1:0,0:0:0:0:
192,250,57678,5,8,0:0:0:0:
302,110,57844,2,0,P|356:95|449:136,1,136,4|0,0:0|0:0,0:0:0:0:
281,263,58344,6,0,P|240:278|191:263,1,68,8|0,0:0|1:0,0:0:0:0:
377,227,58678,2,0,P|418:212|467:227,1,68,8|0,0:0|1:0,0:0:0:0:
252,173,59011,2,0,L|156:149,1,68,8|0,0:0|0:0,0:0:0:0:
120,304,59344,5,10,0:2:0:0:
79,142,59511,1,0,1:0:0:0:
192,250,59678,5,8,0:0:0:0:
217,69,59845,1,2,1:2:0:0:
61,228,60011,5,10,0:2:0:0:
284,185,60178,1,0,1:0:0:0:
104,130,60344,1,8,0:0:0:0:
279,298,60511,1,2,1:2:0:0:
279,298,60594,1,0,1:0:0:0:
279,298,60678,6,0,L|363:281,1,68,8|2,0:0|1:2,0:0:0:0:
127,241,61011,2,0,L|43:224,1,68,8|2,0:0|1:2,0:0:0:0:
191,338,61344,5,10,0:2:0:0:
340,194,61511,1,0,1:0:0:0:
148,141,61678,1,8,0:0:0:0:
345,284,61844,1,0,1:0:0:0:
345,284,61927,1,0,1:0:0:0:
345,284,62011,6,0,L|429:267,1,68,10|0,0:2|1:0,0:0:0:0:
316,99,62344,2,0,L|232:82,1,68,8|2,0:0|1:2,0:0:0:0:
392,236,62678,5,10,0:2:0:0:
362,27,62844,1,0,1:0:0:0:
268,212,63011,1,0,1:0:0:0:
452,121,63178,1,10,0:2:0:0:
231,34,63511,5,0,1:0:0:0:
139,27,63678,2,0,P|82:27|59:40,1,68,10|0,0:2|0:0,0:0:0:0:
19,98,64011,1,10,0:2:0:0:
122,129,64178,1,0,1:0:0:0:
122,129,64261,1,0,1:0:0:0:
122,129,64344,2,0,L|197:147,1,68,14|0,0:2|0:0,0:0:0:0:
244,231,64678,6,0,P|215:146|282:72,1,170,6|8,1:2|0:0,0:0:0:0:
375,47,65178,1,2,0:2:0:0:
384,139,65344,2,0,L|295:164,1,85,2|0,1:2|1:0,0:0:0:0:
459,85,65678,1,8,0:0:0:0:
468,176,65844,1,2,1:2:0:0:
302,161,66011,5,2,0:2:0:0:
302,161,66178,2,0,L|213:136,1,85,2|8,1:2|0:0,0:0:0:0:
117,102,66511,2,0,L|35:124,1,85,2|0,0:2|1:0,0:0:0:0:
115,275,66844,2,0,P|113:238|128:189,1,85,2|8,1:2|0:0,0:0:0:0:
194,329,67178,2,0,P|121:374|36:328,1,170,2|0,0:2|0:0,0:0:0:0:
126,192,67678,2,0,L|215:167,1,85,8|0,0:0|0:0,0:0:0:0:
43,225,68011,5,0,1:0:0:0:
134,97,68178,1,0,1:0:0:0:
148,279,68344,1,8,0:0:0:0:
49,90,68511,2,0,P|73:38|186:29,1,170,0|0,1:0|1:0,0:0:0:0:
207,169,69011,2,0,L|125:146,1,85,8|0,0:0|0:0,0:0:0:0:
273,99,69344,6,0,L|354:76,2,85,2|2|10,1:2|1:2|0:2,0:0:0:0:
125,146,69844,1,2,0:2:0:0:
288,221,70011,6,0,P|367:243|433:172,1,170,2|8,1:2|0:0,0:0:0:0:
246,111,70511,1,0,0:0:0:0:
190,222,70678,2,0,L|212:303,1,85,2|2,1:2|1:2,0:0:0:0:
348,161,71011,2,0,L|370:79,1,85,10|2,0:2|1:2,0:0:0:0:
207,123,71344,6,0,L|125:145,1,85,2|0,0:2|1:0,0:0:0:0:
335,207,71678,2,0,L|417:229,1,85,10|0,0:2|0:0,0:0:0:0:
228,27,72011,2,0,L|146:49,1,85,2|0,1:2|1:0,0:0:0:0:
377,115,72345,2,0,L|459:137,1,85,10|0,0:2|0:0,0:0:0:0:
273,28,72678,6,0,P|246:71|287:189,1,170,2|8,1:2|0:0,0:0:0:0:
341,103,73178,1,2,0:2:0:0:
145,49,73344,2,0,L|63:71,1,85,2|0,1:2|1:0,0:0:0:0:
155,229,73678,1,10,0:2:0:0:
240,74,73844,2,0,L|54:24,1,170,4|0,1:2|1:0,0:0:0:0:
47,234,74344,5,10,0:2:0:0:
151,64,74511,1,4,1:0:0:0:
25,143,74678,5,10,0:2:0:0:
180,197,74844,1,0,1:0:0:0:
188,45,75011,2,0,P|138:37|101:48,1,68,10|0,0:2|0:0,0:0:0:0:
27,57,75344,6,0,L|235:71,1,170,6|8,1:2|0:0,0:0:0:0:
338,78,75844,1,2,0:2:0:0:
234,176,76011,2,0,L|149:170,1,85,2|0,1:2|1:0,0:0:0:0:
355,165,76344,2,0,L|440:159,1,85,8|2,0:0|1:2,0:0:0:0:
311,243,76678,5,2,0:2:0:0:
226,90,76844,2,0,L|220:5,1,85,2|8,1:2|0:0,0:0:0:0:
358,192,77178,2,0,L|364:277,1,85,2|0,0:2|1:0,0:0:0:0:
173,193,77511,2,0,L|258:187,1,85,2|8,1:2|0:0,0:0:0:0:
181,277,77844,2,0,P|124:262|103:151,1,170,2|0,0:2|0:0,0:0:0:0:
265,277,78344,2,0,L|271:362,1,85,8|0,0:0|0:0,0:0:0:0:
257,187,78678,5,0,1:0:0:0:
384,263,78844,1,0,1:0:0:0:
176,239,79011,1,8,0:0:0:0:
376,179,79178,2,0,P|450:211|462:295,1,170,0|0,1:0|1:0,0:0:0:0:
260,165,79678,2,0,L|266:80,1,85,8|0,0:0|0:0,0:0:0:0:
349,268,80011,6,0,L|355:353,2,85,2|2|10,1:2|1:2|0:2,0:0:0:0:
261,194,80511,1,2,0:2:0:0:
171,298,80678,6,0,P|266:326|332:278,1,170,2|8,1:2|0:0,0:0:0:0:
143,212,81178,1,0,0:0:0:0:
68,284,81344,2,0,L|100:370,1,85,2|2,1:2|1:2,0:0:0:0:
245,228,81678,2,0,L|277:142,1,85,10|2,0:2|1:2,0:0:0:0:
124,48,82011,6,0,P|74:61|35:46,1,85,2|0,0:2|1:0,0:0:0:0:
194,151,82344,2,0,P|244:138|283:153,1,85,10|0,0:2|0:0,0:0:0:0:
113,236,82678,2,0,L|24:214,1,85,2|0,1:2|1:0,0:0:0:0:
198,320,83011,2,0,L|280:299,1,85,10|0,0:2|0:0,0:0:0:0:
28,310,83344,5,10,0:2:0:0:
174,214,83511,1,0,1:0:0:0:
108,377,83677,1,0,1:0:0:0:
68,209,83844,1,0,1:0:0:0:
198,320,84011,5,10,0:2:0:0:
126,120,84178,1,2,1:2:0:0:
336,158,84344,1,2,1:2:0:0:
174,214,84511,2,0,P|141:150|178:59,1,170,10|2,0:2|1:2,0:0:0:0:
240,138,85011,1,2,1:2:0:0:
56,176,85178,1,10,0:2:0:0:
173,62,85344,6,0,L|130:44,3,42.5,8|8|10|8,0:0|0:0|0:2|0:0,0:0:0:0:
19,71,85678,2,0,L|61:88,3,42.5,8|8|10|8,0:0|0:0|0:2|0:0,0:0:0:0:
149,146,86011,6,0,P|217:160|293:108,1,152.999995330811,0|8,1:0|0:0,0:0:0:0:
91,264,86594,1,8,0:0:0:0:
91,264,86678,2,0,L|177:260,1,76.4999976654053,8|0,0:0|1:0,0:0:0:0:
270,255,87011,1,0,1:0:0:0:
168,351,87178,2,0,P|243:367|337:334,1,152.999995330811,12|0,0:0|1:0,0:0:0:0:
417,251,87678,1,0,1:0:0:0:
315,347,87845,2,0,P|390:363|484:330,1,152.999995330811,12|0,0:0|1:0,0:0:0:0:
486,159,88344,2,0,L|483:94,3,38.2499988327027,8|8|8|8,0:0|0:0|0:0|0:0,0:0:0:0:
427,46,88678,6,0,P|352:30|258:63,1,152.999995330811,0|8,1:0|0:0,0:0:0:0:
359,242,89260,1,8,0:0:0:0:
359,242,89344,2,0,L|355:156,1,76.4999976654053,10|2,0:2|1:2,0:0:0:0:
350,63,89677,1,2,1:2:0:0:
208,168,89844,2,0,P|283:184|377:151,1,152.999995330811,14|2,0:2|1:2,0:0:0:0:
200,59,90344,1,2,1:2:0:0:
104,158,90511,2,0,P|88:233|121:327,1,152.999995330811,14|2,0:2|1:2,0:0:0:0:
209,351,91011,2,0,L|274:348,3,38.2499988327027,8|8|10|8,0:0|0:0|0:2|0:0,0:0:0:0:
327,303,91344,6,0,L|137:294,1,152.999995330811,0|8,1:0|0:0,0:0:0:0:
261,181,91928,1,8,0:0:0:0:
261,181,92012,2,0,L|347:177,1,76.4999976654053,8|2,0:0|1:2,0:0:0:0:
440,172,92345,1,2,1:2:0:0:
327,303,92511,2,0,P|296:232|343:174,1,152.999995330811,14|0,0:2|1:0,0:0:0:0:
416,325,93011,1,0,1:0:0:0:
247,349,93178,2,0,L|57:340,1,152.999995330811,12|2,0:0|1:2,0:0:0:0:
169,252,93678,2,0,L|207:250,3,38.2499988327027,10|8|10|8,0:2|0:0|0:2|0:0,0:0:0:0:
286,248,94011,6,0,L|295:58,1,152.999995330811,0|8,1:0|0:0,0:0:0:0:
425,16,94594,1,8,0:0:0:0:
425,16,94678,2,0,L|429:102,1,76.4999976654053,10|2,0:2|1:2,0:0:0:0:
434,195,95011,1,2,1:2:0:0:
293,95,95178,2,0,P|348:65|448:122,1,152.999995330811,14|2,0:2|1:2,0:0:0:0:
250,202,95678,1,2,1:2:0:0:
200,43,95844,1,10,0:2:0:0:
322,120,96011,6,0,L|271:135,3,38.2499988327027,8|8|10|8,0:0|0:0|0:2|0:0,0:0:0:0:
165,154,96344,1,8,0:0:0:0:
146,156,96427,1,8,0:0:0:0:
127,155,96510,1,8,0:0:0:0:
108,153,96593,1,8,0:0:0:0:
89,147,96678,6,0,L|110:258,1,85,4|0,1:0|0:0,0:0:0:0:
172,351,97011,2,0,L|193:240,1,85,8|0,0:0|0:0,0:0:0:0:
196,126,97344,1,0,1:0:0:0:
72,245,97511,1,0,1:0:0:0:
255,198,97678,1,8,0:0:0:0:
104,146,97844,2,0,P|56:144|15:159,1,85,0|0,1:0|0:0,0:0:0:0:
223,275,98178,2,0,P|271:277|312:262,1,85,0|8,1:0|0:0,0:0:0:0:
185,150,98511,2,0,L|83:122,1,85,0|0,0:0|1:0,0:0:0:0:
305,265,98844,1,0,1:0:0:0:
285,108,99011,1,8,0:0:0:0:
246,341,99178,1,0,0:0:0:0:
388,248,99344,6,0,P|369:209|240:214,1,170,0|8,1:0|0:0,0:0:0:0:
397,342,99844,1,0,0:0:0:0:
464,193,100011,5,2,1:2:0:0:
379,154,100178,1,2,1:2:0:0:
473,287,100344,1,10,0:2:0:0:
425,79,100511,2,0,B|335:41|335:110|248:73,1,170,2|2,1:2|1:2,0:0:0:0:
177,20,101011,1,10,0:2:0:0:
97,103,101178,2,0,P|87:142|94:189,1,85,2|0,1:2|0:0,0:0:0:0:
203,151,101511,1,2,1:2:0:0:
84,21,101678,1,8,0:0:0:0:
11,152,101844,1,2,1:2:0:0:
238,122,102011,6,0,L|419:103,2,170,4|8|0,1:0|0:0|1:0,0:0:0:0:
99,134,102844,1,2,1:2:0:0:
180,44,103011,1,10,0:2:0:0:
190,203,103178,2,0,L|189:292,1,85,2|0,1:2|0:0,0:0:0:0:
64,141,103511,2,0,L|63:52,1,85,0|8,1:0|0:0,0:0:0:0:
220,147,103844,2,0,L|219:236,1,85,0|0,0:0|1:0,0:0:0:0:
155,72,104178,1,2,1:2:0:0:
314,102,104344,1,10,0:2:0:0:
137,195,104511,1,2,1:2:0:0:
293,81,104678,6,0,B|378:51|377:126|473:97,1,170,0|8,1:0|0:0,0:0:0:0:
430,19,105178,1,0,0:0:0:0:
328,158,105344,2,0,P|321:207|335:239,2,85,0|0|8,1:0|1:0|0:0,0:0:0:0:
406,47,105844,2,0,L|506:40,1,85,0|0,1:0|0:0,0:0:0:0:
295,147,106178,2,0,L|195:140,1,85,0|12,1:0|0:0,0:0:0:0:
409,128,106511,2,0,P|416:177|402:209,1,85,0|0,0:0|1:0,0:0:0:0:
305,46,106844,1,8,0:0:0:0:
305,46,106928,1,8,0:0:0:0:
305,46,107011,1,8,0:0:0:0:
490,41,107178,1,0,1:0:0:0:
333,193,107344,6,0,P|272:198|217:179,1,85,14|0,0:2|0:0,0:0:0:0:
70,165,107678,2,0,P|131:160|186:179,1,85,8|2,0:0|1:2,0:0:0:0:
274,314,108011,5,10,0:2:0:0:
265,121,108178,1,2,1:2:0:0:
160,283,108344,5,8,0:0:0:0:
339,213,108511,1,2,1:2:0:0:
153,164,108678,6,0,L|66:142,1,85,8|0,0:0|1:0,0:0:0:0:
204,268,109011,2,0,L|291:246,1,85,10|0,0:2|1:0,0:0:0:0:
110,242,109344,6,0,L|23:220,1,85,8|2,0:0|1:2,0:0:0:0:
180,367,109677,2,0,L|267:345,1,85,8|0,0:0|1:0,0:0:0:0:
383,254,110011,6,0,P|369:196|334:167,1,85,14|0,0:2|1:0,0:0:0:0:
220,15,110344,1,8,0:0:0:0:
229,227,110511,1,2,1:2:0:0:
345,49,110677,5,10,0:2:0:0:
148,126,110844,1,2,1:2:0:0:
353,179,111011,6,0,L|448:203,1,85,10|2,0:2|1:2,0:0:0:0:
255,114,111344,5,8,0:0:0:0:
335,286,111511,1,0,1:0:0:0:
359,97,111678,2,0,L|335:2,1,85,8|0,0:0|1:0,0:0:0:0:
229,227,112011,5,8,0:0:0:0:
443,168,112178,1,0,1:0:0:0:
279,152,112344,1,8,0:0:0:0:
373,247,112511,1,0,1:0:0:0:
212,94,112678,6,0,P|152:77|100:93,1,85,14|0,0:2|0:0,0:0:0:0:
361,153,113011,2,0,P|421:170|473:154,1,85,8|2,0:0|1:2,0:0:0:0:
294,21,113344,5,10,0:2:0:0:
266,231,113511,1,2,1:2:0:0:
411,76,113677,5,8,0:0:0:0:
203,117,113844,1,2,1:2:0:0:
396,205,114011,6,0,L|485:245,1,85,8|0,0:0|1:0,0:0:0:0:
371,55,114344,2,0,L|281:14,1,85,10|0,0:2|1:0,0:0:0:0:
266,231,114678,6,0,P|255:278|264:327,1,85,8|2,0:0|1:2,0:0:0:0:
364,137,115011,2,0,P|375:90|366:41,1,85,8|0,0:0|1:0,0:0:0:0:
183,223,115344,6,0,P|239:236|276:226,1,85,14|0,0:2|1:0,0:0:0:0:
384,154,115678,1,8,0:0:0:0:
165,106,115844,5,2,1:2:0:0:
180,326,116011,1,10,0:2:0:0:
297,140,116178,1,2,1:2:0:0:
93,222,116344,1,0,1:0:0:0:
308,276,116511,1,10,0:2:0:0:
254,19,116844,5,0,1:0:0:0:
254,19,116928,1,0,1:0:0:0:
254,19,117011,1,4,1:0:0:0:
256,192,117094,12,0,120344,0:0:0:0:
