osu file format v14

[General]
AudioFilename: Yamajet - 2038.mp3
AudioLeadIn: 0
PreviewTime: 84641
Countdown: 0
SampleSet: Soft
StackLeniency: 0.7
Mode: 3
LetterboxInBreaks: 0
SpecialStyle: 1
WidescreenStoryboard: 1

[Editor]
DistanceSpacing: 1
BeatDivisor: 7
GridSize: 8
TimelineZoom: 1.9

[Metadata]
Title:2038
TitleUnicode:2038
Artist:Yamajet
ArtistUnicode:Yamajet
Creator:Ryu Sei
Version:Basic
Source:BGA BATTLE 2
Tags:7K+1 special S key MONDO Rayz141 -Sandy_Corzeta- instrumental electronic BMS
BeatmapID:516816
BeatmapSetID:220846

[Difficulty]
HPDrainRate:7
CircleSize:8
OverallDifficulty:8
ApproachRate:5
SliderMultiplier:1.4
SliderTickRate:1

[Events]
//Background and Video events
0,0,"2038bg.jpg",0,0
//Break Periods
//Storyboard Layer 0 (Background)
//Storyboard Layer 1 (Fail)
//Storyboard Layer 2 (Pass)
//Storyboard Layer 3 (Foreground)
//Storyboard Layer 4 (Overlay)
//Storyboard Sound Samples

[TimingPoints]
1715,434.782608695652,4,2,1,70,1,0
85193,-100,4,2,0,70,0,0
85301,-100,4,2,1,70,0,1
112149,-100,4,2,1,70,0,0

[HitObjects]
32,192,1388,5,0,0:0:0:8:
160,192,1715,1,0,0:0:0:0:
160,192,2258,1,0,0:0:0:0:
160,192,2475,1,0,0:0:0:0:
160,192,3671,1,0,0:0:0:0:
160,192,3997,1,0,0:0:0:0:
160,192,4214,1,0,0:0:0:0:
160,192,5193,1,0,0:0:0:0:
160,192,5736,1,0,0:0:0:0:
160,192,5954,1,0,0:0:0:0:
160,192,7149,1,0,0:0:0:0:
160,192,7475,1,0,0:0:0:0:
160,192,7693,1,0,0:0:0:0:
160,192,7910,1,0,0:0:0:0:
96,192,8128,1,0,0:0:0:0:
96,192,8454,1,0,0:0:0:0:
352,192,8672,1,0,0:0:0:0:
352,192,9215,1,0,0:0:0:0:
352,192,9432,1,0,0:0:0:0:
352,192,10628,1,0,0:0:0:0:
352,192,10954,1,0,0:0:0:0:
352,192,11171,1,0,0:0:0:0:
352,192,12150,1,0,0:0:0:0:
352,192,12693,1,0,0:0:0:0:
352,192,12911,1,0,0:0:0:0:
352,192,14106,1,0,0:0:0:0:
352,192,14432,1,0,0:0:0:0:
352,192,14650,1,0,0:0:0:0:
352,192,14867,1,0,0:0:0:0:
288,192,15085,1,0,0:0:0:0:
288,192,15411,1,0,0:0:0:0:
32,192,15628,1,0,0:0:0:0:
480,192,16062,1,0,0:0:0:0:
96,192,16497,1,0,0:0:0:0:
32,192,17367,1,0,0:0:0:0:
480,192,17801,1,0,0:0:0:0:
32,192,18236,1,0,0:0:0:0:
32,192,18454,1,0,0:0:0:0:
32,192,18671,1,0,0:0:0:0:
32,192,19106,1,0,0:0:0:0:
480,192,19541,1,0,0:0:0:0:
96,192,19975,1,0,0:0:0:0:
32,192,20845,1,0,0:0:0:0:
480,192,21280,1,0,0:0:0:0:
32,192,21714,1,0,0:0:0:0:
32,192,22041,1,0,0:0:0:0:
32,192,22584,1,0,0:0:0:0:
416,192,23019,1,0,0:0:0:0:
160,192,23454,1,0,0:0:0:0:
32,192,24323,1,0,0:0:0:0:
416,192,24758,1,0,0:0:0:0:
32,192,25193,1,0,0:0:0:0:
32,192,25410,1,0,0:0:0:0:
32,192,25628,1,0,0:0:0:0:
32,192,26062,1,0,0:0:0:0:
416,192,26497,1,0,0:0:0:0:
160,192,26932,1,0,0:0:0:0:
32,192,27801,1,0,0:0:0:0:
416,192,28236,1,0,0:0:0:0:
32,192,28671,1,0,0:0:0:0:
32,192,29106,1,0,0:0:0:0:
352,192,29106,1,0,0:0:0:0:
480,192,29106,1,0,0:0:0:0:
32,192,29541,1,4,0:0:0:0:
480,192,29541,1,0,0:0:0:0:
160,192,29975,1,8,0:0:0:0:
480,192,29975,1,0,0:0:0:0:
480,192,30410,1,0,0:0:0:0:
160,192,30845,1,8,0:0:0:0:
480,192,30845,1,0,0:0:0:0:
480,192,31280,1,0,0:0:0:0:
160,192,31714,1,8,0:0:0:0:
480,192,31714,1,0,0:0:0:0:
480,192,32149,1,0,0:0:0:0:
160,192,32584,1,8,0:0:0:0:
480,192,32584,1,0,0:0:0:0:
96,192,33019,1,0,0:0:0:0:
96,192,33454,1,0,0:0:0:0:
416,192,33454,1,8,0:0:0:0:
96,192,33888,1,0,0:0:0:0:
416,192,34323,1,8,0:0:0:0:
96,192,34323,1,0,0:0:0:0:
96,192,34758,1,0,0:0:0:0:
416,192,35193,1,8,0:0:0:0:
96,192,35193,1,0,0:0:0:0:
96,192,35628,1,0,0:0:0:0:
96,192,36062,1,0,0:0:0:0:
416,192,36062,1,8,0:0:0:0:
352,192,36497,1,0,0:0:0:0:
352,192,36932,1,0,0:0:0:0:
160,192,36932,1,8,0:0:0:0:
352,192,37367,1,0,0:0:0:0:
160,192,37802,1,8,0:0:0:0:
352,192,37802,1,0,0:0:0:0:
352,192,38236,1,0,0:0:0:0:
32,192,38236,1,0,0:0:0:0:
160,192,38671,1,8,0:0:0:0:
352,192,38671,1,0,0:0:0:0:
352,192,39106,1,0,0:0:0:0:
160,192,39541,1,8,0:0:0:0:
352,192,39541,1,0,0:0:0:0:
224,192,39975,1,0,0:0:0:0:
224,192,40410,1,0,0:0:0:0:
480,192,40410,1,8,0:0:0:0:
32,192,40628,1,0,0:0:0:0:
224,192,40845,1,0,0:0:0:0:
224,192,41280,1,0,0:0:0:0:
480,192,41280,1,8,0:0:0:0:
224,192,41714,1,0,0:0:0:0:
480,192,42149,1,8,0:0:0:0:
224,192,42149,1,0,0:0:0:0:
416,192,42584,1,4,0:0:0:0:
160,192,42693,1,4,0:0:0:0:
288,192,42910,1,4,0:0:0:0:
32,192,43454,1,4,0:0:0:0:
160,192,43454,1,0,0:0:0:0:
416,192,43671,1,0,0:0:0:0:
160,192,43888,1,0,0:0:0:0:
416,192,44106,1,0,0:0:0:0:
160,192,44323,1,0,0:0:0:0:
416,192,44541,1,0,0:0:0:0:
160,192,44758,1,0,0:0:0:0:
416,192,44975,1,0,0:0:0:0:
96,192,45193,1,0,0:0:0:0:
352,192,45410,1,0,0:0:0:0:
96,192,45628,1,0,0:0:0:0:
352,192,45845,1,0,0:0:0:0:
96,192,46062,1,0,0:0:0:0:
352,192,46280,1,0,0:0:0:0:
96,192,46497,1,0,0:0:0:0:
352,192,46714,1,0,0:0:0:0:
480,192,46932,1,0,0:0:0:0:
224,192,47149,1,0,0:0:0:0:
480,192,47367,1,0,0:0:0:0:
224,192,47584,1,0,0:0:0:0:
480,192,47801,1,0,0:0:0:0:
224,192,48019,1,0,0:0:0:0:
480,192,48236,1,0,0:0:0:0:
224,192,48454,1,0,0:0:0:0:
352,192,48671,1,0,0:0:0:0:
96,192,48888,1,0,0:0:0:0:
352,192,49106,1,0,0:0:0:0:
96,192,49323,1,0,0:0:0:0:
352,192,49541,1,0,0:0:0:0:
96,192,49758,1,0,0:0:0:0:
352,192,49975,1,0,0:0:0:0:
96,192,50193,1,0,0:0:0:0:
416,192,50410,1,0,0:0:0:0:
224,192,50628,1,0,0:0:0:0:
416,192,50845,1,0,0:0:0:0:
224,192,51062,1,0,0:0:0:0:
416,192,51280,1,0,0:0:0:0:
224,192,51497,1,0,0:0:0:0:
416,192,51714,1,0,0:0:0:0:
224,192,51932,1,0,0:0:0:0:
96,192,52149,1,0,0:0:0:0:
288,192,52367,1,0,0:0:0:0:
96,192,52584,1,0,0:0:0:0:
288,192,52801,1,0,0:0:0:0:
96,192,53019,1,0,0:0:0:0:
288,192,53236,1,0,0:0:0:0:
96,192,53454,1,0,0:0:0:0:
288,192,53671,1,0,0:0:0:0:
352,192,53888,1,0,0:0:0:0:
160,192,54106,1,0,0:0:0:0:
352,192,54323,1,0,0:0:0:0:
160,192,54541,1,0,0:0:0:0:
352,192,54758,1,0,0:0:0:0:
160,192,54975,1,0,0:0:0:0:
352,192,55193,1,0,0:0:0:0:
160,192,55410,1,0,0:0:0:0:
224,192,55628,1,0,0:0:0:0:
416,192,55845,1,0,0:0:0:0:
224,192,56062,1,0,0:0:0:0:
416,192,56280,1,0,0:0:0:0:
224,192,56497,1,0,0:0:0:0:
416,192,56714,1,0,0:0:0:0:
224,192,56932,1,0,0:0:0:0:
32,192,57041,1,4,0:0:0:0:
416,192,57149,1,0,0:0:0:0:
32,192,57367,1,4,0:0:0:0:
224,192,57801,1,0,0:0:0:0:
352,192,58236,1,0,0:0:0:0:
480,192,58562,1,0,0:0:0:0:
416,192,58888,1,0,0:0:0:0:
224,192,59758,1,0,0:0:0:0:
288,192,60410,1,0,0:0:0:0:
416,192,60845,1,0,0:0:0:0:
96,192,61932,1,0,0:0:0:0:
224,192,62258,1,0,0:0:0:0:
352,192,62584,1,0,0:0:0:0:
288,192,63019,1,0,0:0:0:0:
224,192,63454,1,0,0:0:0:0:
160,192,63888,1,0,0:0:0:0:
224,192,64323,1,0,0:0:0:0:
288,192,64975,1,0,0:0:0:0:
416,192,65628,1,0,0:0:0:0:
352,192,65954,1,0,0:0:0:0:
224,192,66714,1,0,0:0:0:0:
96,192,67584,1,0,0:0:0:0:
352,192,67801,1,0,0:0:0:0:
416,192,69649,1,0,0:0:0:0:
288,192,69758,1,0,0:0:0:0:
160,192,69867,1,0,0:0:0:0:
480,192,69975,1,0,0:0:0:0:
352,192,70193,1,0,0:0:0:0:
224,192,70301,1,0,0:0:0:0:
96,192,70519,1,0,0:0:0:0:
32,192,70736,1,4,0:0:0:0:
480,192,70736,1,0,0:0:0:0:
288,192,71062,1,0,0:0:0:0:
416,192,71280,1,4,0:0:0:0:
32,192,71714,1,0,0:0:0:0:
352,192,72367,1,0,0:0:0:0:
288,192,72693,1,0,0:0:0:0:
224,192,73019,1,0,0:0:0:0:
480,192,73345,1,0,0:0:0:0:
32,192,73454,1,0,0:0:0:0:
352,192,73671,1,0,0:0:0:0:
160,192,73888,1,0,0:0:0:0:
288,192,74214,1,0,0:0:0:0:
416,192,74541,1,0,0:0:0:0:
352,192,74758,1,0,0:0:0:0:
32,192,75193,1,0,0:0:0:0:
160,192,75410,1,0,0:0:0:0:
288,192,75519,1,0,0:0:0:0:
416,192,75628,1,0,0:0:0:0:
480,192,75954,1,0,0:0:0:0:
416,192,76280,1,0,0:0:0:0:
288,192,76388,1,0,0:0:0:0:
160,192,76497,1,0,0:0:0:0:
96,192,76823,1,0,0:0:0:0:
32,192,76932,1,0,0:0:0:0:
352,192,77149,1,0,0:0:0:0:
288,192,77367,1,0,0:0:0:0:
160,192,77693,1,0,0:0:0:0:
416,192,78019,1,0,0:0:0:0:
480,192,78236,1,0,0:0:0:0:
32,192,78671,1,0,0:0:0:0:
160,192,79106,1,0,0:0:0:0:
288,192,79432,1,0,0:0:0:0:
416,192,79758,1,0,0:0:0:0:
480,192,79975,1,0,0:0:0:0:
32,192,80410,1,0,0:0:0:0:
480,192,80845,1,0,0:0:0:0:
416,192,81171,1,0,0:0:0:0:
160,192,81497,1,0,0:0:0:0:
352,192,81714,1,0,0:0:0:0:
32,192,82149,1,0,0:0:0:0:
160,192,82584,1,0,0:0:0:0:
288,192,82910,1,0,0:0:0:0:
416,192,83128,1,0,0:0:0:0:
352,192,83454,1,0,0:0:0:0:
224,192,83599,1,0,0:0:0:0:
352,192,83743,1,0,0:0:0:0:
224,192,84033,1,0,0:0:0:0:
352,192,84178,1,0,0:0:0:0:
224,192,84323,1,0,0:0:0:0:
160,192,84649,1,0,0:0:0:0:
224,192,84758,1,0,0:0:0:0:
288,192,84975,1,0,0:0:0:0:
352,192,85193,1,0,0:0:0:70:soft-hitnormal.wav
32,192,85193,1,4,0:0:0:0:
224,192,86171,1,0,0:0:0:0:
416,192,86497,1,0,0:0:0:0:
288,192,86714,1,0,0:0:0:0:
96,192,86932,1,0,0:0:0:0:
160,192,87258,128,0,87584:0:0:0:0:
224,192,87584,1,0,0:0:0:0:
288,192,87801,1,0,0:0:0:0:
352,192,88019,128,0,88671:0:0:0:0:
480,192,88671,1,0,0:0:0:0:
352,192,88997,1,0,0:0:0:0:
288,192,89649,1,0,0:0:0:0:
224,192,89975,1,0,0:0:0:0:
160,192,90193,1,0,0:0:0:0:
224,192,90410,1,0,0:0:0:0:
160,192,91606,1,0,0:0:0:0:
288,192,91714,1,0,0:0:0:0:
352,192,91932,1,0,0:0:0:0:
480,192,92149,1,0,0:0:0:0:
224,192,93128,1,0,0:0:0:0:
416,192,93454,1,0,0:0:0:0:
288,192,93671,1,0,0:0:0:0:
96,192,93888,1,0,0:0:0:0:
160,192,94214,128,0,94541:0:0:0:0:
224,192,94541,1,0,0:0:0:0:
288,192,94758,1,0,0:0:0:0:
480,192,94975,128,0,95628:0:0:0:0:
352,192,95628,1,0,0:0:0:0:
224,192,95954,1,0,0:0:0:0:
288,192,96606,1,0,0:0:0:0:
224,192,96932,1,0,0:0:0:0:
160,192,97149,1,0,0:0:0:0:
288,192,97367,1,0,0:0:0:0:
288,192,98236,1,0,0:0:0:0:
416,192,98345,1,0,0:0:0:0:
160,192,98562,1,0,0:0:0:0:
32,192,98888,1,0,0:0:0:0:
32,192,99106,1,0,0:0:0:0:
288,192,99106,1,0,0:0:0:0:
480,192,99323,1,0,0:0:0:0:
288,192,100193,1,0,0:0:0:0:
416,192,100301,1,0,0:0:0:0:
352,192,100519,1,0,0:0:0:0:
288,192,100736,1,0,0:0:0:0:
160,192,101932,1,0,0:0:0:0:
288,192,102041,1,0,0:0:0:0:
224,192,102258,1,0,0:0:0:0:
160,192,102475,1,0,0:0:0:0:
224,192,103671,1,0,0:0:0:0:
160,192,103780,1,0,0:0:0:0:
96,192,103997,1,0,0:0:0:0:
160,192,104214,1,0,0:0:0:0:
224,192,105519,1,0,0:0:0:0:
480,192,105628,1,0,0:0:0:0:
224,192,105736,1,0,0:0:0:0:
288,192,106062,1,0,0:0:0:0:
480,192,106280,1,0,0:0:0:0:
288,192,107149,1,0,0:0:0:0:
416,192,107258,1,0,0:0:0:0:
352,192,107475,1,0,0:0:0:0:
288,192,107693,1,0,0:0:0:0:
224,192,108888,1,0,0:0:0:0:
480,192,108997,1,0,0:0:0:0:
288,192,109214,1,0,0:0:0:0:
160,192,109432,1,0,0:0:0:0:
288,192,110628,1,0,0:0:0:0:
160,192,110736,1,0,0:0:0:0:
96,192,110954,1,0,0:0:0:0:
224,192,111171,1,0,0:0:0:0:
288,192,111714,1,4,0:0:0:0:
416,192,111823,1,4,0:0:0:0:
224,192,112041,1,4,0:0:0:0:
32,192,112149,1,0,0:0:0:0:
32,192,112646,1,0,0:0:0:0:
