osu file format v14

[General]
AudioFilename: audio.mp3
AudioLeadIn: 0
PreviewTime: 545
Countdown: 0
SampleSet: None
StackLeniency: 0.7
Mode: 1
LetterboxInBreaks: 0
WidescreenStoryboard: 1

[Editor]
DistanceSpacing: 1.3
BeatDivisor: 4
GridSize: 32
TimelineZoom: 7.300001

[Metadata]
Title:(^^) (Takeshita Remix)
TitleUnicode:(^^) (Takeshita Remix)
Artist:Yamajet
ArtistUnicode:Yamajet
Creator:Quizmaegi
Version:(P P) but OD0
Source:BMS
Tags:foon PP pp Megi demPPs
BeatmapID:1459669
BeatmapSetID:689574

[Difficulty]
HPDrainRate:0
CircleSize:5
OverallDifficulty:0
ApproachRate:6
SliderMultiplier:1.4
SliderTickRate:1

[Events]
//Background and Video events
0,0,"foon-glitched-25-10-2016-18-53-30.png",0,0
//Break Periods
//Storyboard Layer 0 (Background)
//Storyboard Layer 1 (Fail)
//Storyboard Layer 2 (Pass)
//Storyboard Layer 3 (Foreground)
//Storyboard Sound Samples

[TimingPoints]
545,272.727272727273,4,1,0,100,1,0
545,-0.01,4,1,0,100,0,0
8726,-133.333333333333,4,2,0,100,0,0

[HitObjects]
256,192,545,12,0,549,0:0:0:0:
256,192,547,12,0,551,0:0:0:0:
256,192,549,12,0,553,0:0:0:0:
256,192,551,12,0,555,0:0:0:0:
256,192,553,12,0,557,0:0:0:0:
256,192,555,12,0,559,0:0:0:0:
256,192,557,12,0,561,0:0:0:0:
256,192,559,12,0,563,0:0:0:0:
256,192,562,12,0,566,0:0:0:0:
256,192,564,12,0,568,0:0:0:0:
256,192,566,12,0,570,0:0:0:0:
256,192,568,12,0,572,0:0:0:0:
256,192,570,12,0,574,0:0:0:0:
256,192,572,12,0,576,0:0:0:0:
256,192,574,12,0,578,0:0:0:0:
256,192,576,12,0,580,0:0:0:0:
256,192,579,12,0,583,0:0:0:0:
256,192,581,12,0,585,0:0:0:0:
256,192,583,12,0,587,0:0:0:0:
256,192,585,12,0,589,0:0:0:0:
256,192,587,12,0,591,0:0:0:0:
256,192,589,12,0,593,0:0:0:0:
256,192,591,12,0,595,0:0:0:0:
256,192,593,12,0,597,0:0:0:0:
256,192,596,12,0,600,0:0:0:0:
256,192,598,12,0,602,0:0:0:0:
256,192,600,12,0,604,0:0:0:0:
256,192,602,12,0,606,0:0:0:0:
256,192,604,12,0,608,0:0:0:0:
256,192,606,12,0,610,0:0:0:0:
256,192,608,12,0,612,0:0:0:0:
256,192,610,12,0,614,0:0:0:0:
256,192,613,12,0,617,0:0:0:0:
256,192,615,12,0,619,0:0:0:0:
256,192,617,12,0,621,0:0:0:0:
256,192,619,12,0,623,0:0:0:0:
256,192,621,12,0,625,0:0:0:0:
256,192,623,12,0,627,0:0:0:0:
256,192,625,12,0,629,0:0:0:0:
256,192,627,12,0,631,0:0:0:0:
256,192,630,12,0,634,0:0:0:0:
256,192,632,12,0,636,0:0:0:0:
256,192,634,12,0,638,0:0:0:0:
256,192,636,12,0,640,0:0:0:0:
256,192,638,12,0,642,0:0:0:0:
256,192,640,12,0,644,0:0:0:0:
256,192,642,12,0,646,0:0:0:0:
256,192,644,12,0,648,0:0:0:0:
256,192,647,12,0,651,0:0:0:0:
256,192,649,12,0,653,0:0:0:0:
256,192,651,12,0,655,0:0:0:0:
256,192,653,12,0,657,0:0:0:0:
256,192,655,12,0,659,0:0:0:0:
256,192,657,12,0,661,0:0:0:0:
256,192,659,12,0,663,0:0:0:0:
256,192,661,12,0,665,0:0:0:0:
256,192,664,12,0,668,0:0:0:0:
256,192,666,12,0,670,0:0:0:0:
256,192,668,12,0,672,0:0:0:0:
256,192,670,12,0,674,0:0:0:0:
256,192,672,12,0,676,0:0:0:0:
256,192,674,12,0,678,0:0:0:0:
256,192,676,12,0,680,0:0:0:0:
256,192,678,12,0,682,0:0:0:0:
256,192,681,12,0,685,0:0:0:0:
256,192,683,12,0,687,0:0:0:0:
256,192,685,12,0,689,0:0:0:0:
256,192,687,12,0,691,0:0:0:0:
256,192,689,12,0,693,0:0:0:0:
256,192,691,12,0,695,0:0:0:0:
256,192,693,12,0,697,0:0:0:0:
256,192,695,12,0,699,0:0:0:0:
256,192,698,12,0,702,0:0:0:0:
256,192,700,12,0,704,0:0:0:0:
256,192,702,12,0,706,0:0:0:0:
256,192,704,12,0,708,0:0:0:0:
256,192,706,12,0,710,0:0:0:0:
256,192,708,12,0,712,0:0:0:0:
256,192,710,12,0,714,0:0:0:0:
256,192,712,12,0,716,0:0:0:0:
256,192,715,12,0,719,0:0:0:0:
256,192,717,12,0,721,0:0:0:0:
256,192,719,12,0,723,0:0:0:0:
256,192,721,12,0,725,0:0:0:0:
256,192,723,12,0,727,0:0:0:0:
256,192,725,12,0,729,0:0:0:0:
256,192,727,12,0,731,0:0:0:0:
256,192,729,12,0,733,0:0:0:0:
256,192,732,12,0,736,0:0:0:0:
256,192,734,12,0,738,0:0:0:0:
256,192,736,12,0,740,0:0:0:0:
256,192,738,12,0,742,0:0:0:0:
256,192,740,12,0,744,0:0:0:0:
256,192,742,12,0,746,0:0:0:0:
256,192,744,12,0,748,0:0:0:0:
256,192,746,12,0,750,0:0:0:0:
256,192,749,12,0,753,0:0:0:0:
256,192,751,12,0,755,0:0:0:0:
256,192,753,12,0,757,0:0:0:0:
256,192,755,12,0,759,0:0:0:0:
256,192,757,12,0,761,0:0:0:0:
256,192,759,12,0,763,0:0:0:0:
256,192,761,12,0,765,0:0:0:0:
256,192,763,12,0,767,0:0:0:0:
256,192,766,12,0,770,0:0:0:0:
256,192,768,12,0,772,0:0:0:0:
256,192,770,12,0,774,0:0:0:0:
256,192,772,12,0,776,0:0:0:0:
256,192,774,12,0,778,0:0:0:0:
256,192,776,12,0,780,0:0:0:0:
256,192,778,12,0,782,0:0:0:0:
256,192,780,12,0,784,0:0:0:0:
256,192,783,12,0,787,0:0:0:0:
256,192,785,12,0,789,0:0:0:0:
256,192,787,12,0,791,0:0:0:0:
256,192,789,12,0,793,0:0:0:0:
256,192,791,12,0,795,0:0:0:0:
256,192,793,12,0,797,0:0:0:0:
256,192,795,12,0,799,0:0:0:0:
256,192,797,12,0,801,0:0:0:0:
256,192,800,12,0,804,0:0:0:0:
256,192,802,12,0,806,0:0:0:0:
256,192,804,12,0,808,0:0:0:0:
256,192,806,12,0,810,0:0:0:0:
256,192,808,12,0,812,0:0:0:0:
256,192,810,12,0,814,0:0:0:0:
256,192,812,12,0,816,0:0:0:0:
256,192,814,12,0,818,0:0:0:0:
256,192,817,12,0,821,0:0:0:0:
256,192,819,12,0,823,0:0:0:0:
256,192,821,12,0,825,0:0:0:0:
256,192,823,12,0,827,0:0:0:0:
256,192,825,12,0,829,0:0:0:0:
256,192,827,12,0,831,0:0:0:0:
256,192,829,12,0,833,0:0:0:0:
256,192,831,12,0,835,0:0:0:0:
256,192,834,12,0,838,0:0:0:0:
256,192,836,12,0,840,0:0:0:0:
256,192,838,12,0,842,0:0:0:0:
256,192,840,12,0,844,0:0:0:0:
256,192,842,12,0,846,0:0:0:0:
256,192,844,12,0,848,0:0:0:0:
256,192,846,12,0,850,0:0:0:0:
256,192,848,12,0,852,0:0:0:0:
256,192,851,12,0,855,0:0:0:0:
256,192,853,12,0,857,0:0:0:0:
256,192,855,12,0,859,0:0:0:0:
256,192,857,12,0,861,0:0:0:0:
256,192,859,12,0,863,0:0:0:0:
256,192,861,12,0,865,0:0:0:0:
256,192,863,12,0,867,0:0:0:0:
256,192,865,12,0,869,0:0:0:0:
256,192,868,12,0,872,0:0:0:0:
256,192,870,12,0,874,0:0:0:0:
256,192,872,12,0,876,0:0:0:0:
256,192,874,12,0,878,0:0:0:0:
256,192,876,12,0,880,0:0:0:0:
256,192,878,12,0,882,0:0:0:0:
256,192,880,12,0,884,0:0:0:0:
256,192,882,12,0,886,0:0:0:0:
256,192,885,12,0,889,0:0:0:0:
256,192,887,12,0,891,0:0:0:0:
256,192,889,12,0,893,0:0:0:0:
256,192,891,12,0,895,0:0:0:0:
256,192,893,12,0,897,0:0:0:0:
256,192,895,12,0,899,0:0:0:0:
256,192,897,12,0,901,0:0:0:0:
256,192,899,12,0,903,0:0:0:0:
256,192,902,12,0,906,0:0:0:0:
256,192,904,12,0,908,0:0:0:0:
256,192,906,12,0,910,0:0:0:0:
256,192,908,12,0,912,0:0:0:0:
256,192,910,12,0,914,0:0:0:0:
256,192,912,12,0,916,0:0:0:0:
256,192,914,12,0,918,0:0:0:0:
256,192,916,12,0,920,0:0:0:0:
256,192,919,12,0,923,0:0:0:0:
256,192,921,12,0,925,0:0:0:0:
256,192,923,12,0,927,0:0:0:0:
256,192,925,12,0,929,0:0:0:0:
256,192,927,12,0,931,0:0:0:0:
256,192,929,12,0,933,0:0:0:0:
256,192,931,12,0,935,0:0:0:0:
256,192,933,12,0,937,0:0:0:0:
256,192,936,12,0,940,0:0:0:0:
256,192,938,12,0,942,0:0:0:0:
256,192,940,12,0,944,0:0:0:0:
256,192,942,12,0,946,0:0:0:0:
256,192,944,12,0,948,0:0:0:0:
256,192,946,12,0,950,0:0:0:0:
256,192,948,12,0,952,0:0:0:0:
256,192,950,12,0,954,0:0:0:0:
256,192,953,12,0,957,0:0:0:0:
256,192,955,12,0,959,0:0:0:0:
256,192,957,12,0,961,0:0:0:0:
256,192,959,12,0,963,0:0:0:0:
256,192,961,12,0,965,0:0:0:0:
256,192,963,12,0,967,0:0:0:0:
256,192,965,12,0,969,0:0:0:0:
256,192,967,12,0,971,0:0:0:0:
256,192,970,12,0,974,0:0:0:0:
256,192,972,12,0,976,0:0:0:0:
256,192,974,12,0,978,0:0:0:0:
256,192,976,12,0,980,0:0:0:0:
256,192,978,12,0,982,0:0:0:0:
256,192,980,12,0,984,0:0:0:0:
256,192,982,12,0,986,0:0:0:0:
256,192,984,12,0,988,0:0:0:0:
256,192,987,12,0,991,0:0:0:0:
256,192,989,12,0,993,0:0:0:0:
256,192,991,12,0,995,0:0:0:0:
256,192,993,12,0,997,0:0:0:0:
256,192,995,12,0,999,0:0:0:0:
256,192,997,12,0,1001,0:0:0:0:
256,192,999,12,0,1003,0:0:0:0:
256,192,1001,12,0,1005,0:0:0:0:
256,192,1004,12,0,1008,0:0:0:0:
256,192,1006,12,0,1010,0:0:0:0:
256,192,1008,12,0,1012,0:0:0:0:
256,192,1010,12,0,1014,0:0:0:0:
256,192,1012,12,0,1016,0:0:0:0:
256,192,1014,12,0,1018,0:0:0:0:
256,192,1016,12,0,1020,0:0:0:0:
256,192,1018,12,0,1022,0:0:0:0:
256,192,1021,12,0,1025,0:0:0:0:
256,192,1023,12,0,1027,0:0:0:0:
256,192,1025,12,0,1029,0:0:0:0:
256,192,1027,12,0,1031,0:0:0:0:
256,192,1029,12,0,1033,0:0:0:0:
256,192,1031,12,0,1035,0:0:0:0:
256,192,1033,12,0,1037,0:0:0:0:
256,192,1035,12,0,1039,0:0:0:0:
256,192,1038,12,0,1042,0:0:0:0:
256,192,1040,12,0,1044,0:0:0:0:
256,192,1042,12,0,1046,0:0:0:0:
256,192,1044,12,0,1048,0:0:0:0:
256,192,1046,12,0,1050,0:0:0:0:
256,192,1048,12,0,1052,0:0:0:0:
256,192,1050,12,0,1054,0:0:0:0:
256,192,1052,12,0,1056,0:0:0:0:
256,192,1055,12,0,1059,0:0:0:0:
256,192,1057,12,0,1061,0:0:0:0:
256,192,1059,12,0,1063,0:0:0:0:
256,192,1061,12,0,1065,0:0:0:0:
256,192,1063,12,0,1067,0:0:0:0:
256,192,1065,12,0,1069,0:0:0:0:
256,192,1067,12,0,1071,0:0:0:0:
256,192,1069,12,0,1073,0:0:0:0:
256,192,1072,12,0,1076,0:0:0:0:
256,192,1074,12,0,1078,0:0:0:0:
256,192,1076,12,0,1080,0:0:0:0:
256,192,1078,12,0,1082,0:0:0:0:
256,192,1080,12,0,1084,0:0:0:0:
256,192,1082,12,0,1086,0:0:0:0:
256,192,1084,12,0,1088,0:0:0:0:
256,192,1086,12,0,1090,0:0:0:0:
256,192,1090,12,0,1094,0:0:0:0:
256,192,1092,12,0,1096,0:0:0:0:
256,192,1094,12,0,1098,0:0:0:0:
256,192,1096,12,0,1100,0:0:0:0:
256,192,1098,12,0,1102,0:0:0:0:
256,192,1100,12,0,1104,0:0:0:0:
256,192,1102,12,0,1106,0:0:0:0:
256,192,1104,12,0,1108,0:0:0:0:
256,192,1107,12,0,1111,0:0:0:0:
256,192,1109,12,0,1113,0:0:0:0:
256,192,1111,12,0,1115,0:0:0:0:
256,192,1113,12,0,1117,0:0:0:0:
256,192,1115,12,0,1119,0:0:0:0:
256,192,1117,12,0,1121,0:0:0:0:
256,192,1119,12,0,1123,0:0:0:0:
256,192,1121,12,0,1125,0:0:0:0:
256,192,1124,12,0,1128,0:0:0:0:
256,192,1126,12,0,1130,0:0:0:0:
256,192,1128,12,0,1132,0:0:0:0:
256,192,1130,12,0,1134,0:0:0:0:
256,192,1132,12,0,1136,0:0:0:0:
256,192,1134,12,0,1138,0:0:0:0:
256,192,1136,12,0,1140,0:0:0:0:
256,192,1138,12,0,1142,0:0:0:0:
256,192,1141,12,0,1145,0:0:0:0:
256,192,1143,12,0,1147,0:0:0:0:
256,192,1145,12,0,1149,0:0:0:0:
256,192,1147,12,0,1151,0:0:0:0:
256,192,1149,12,0,1153,0:0:0:0:
256,192,1151,12,0,1155,0:0:0:0:
256,192,1153,12,0,1157,0:0:0:0:
256,192,1155,12,0,1159,0:0:0:0:
256,192,1158,12,0,1162,0:0:0:0:
256,192,1160,12,0,1164,0:0:0:0:
256,192,1162,12,0,1166,0:0:0:0:
256,192,1164,12,0,1168,0:0:0:0:
256,192,1166,12,0,1170,0:0:0:0:
256,192,1168,12,0,1172,0:0:0:0:
256,192,1170,12,0,1174,0:0:0:0:
256,192,1172,12,0,1176,0:0:0:0:
256,192,1175,12,0,1179,0:0:0:0:
256,192,1177,12,0,1181,0:0:0:0:
256,192,1179,12,0,1183,0:0:0:0:
256,192,1181,12,0,1185,0:0:0:0:
256,192,1183,12,0,1187,0:0:0:0:
256,192,1185,12,0,1189,0:0:0:0:
256,192,1187,12,0,1191,0:0:0:0:
256,192,1189,12,0,1193,0:0:0:0:
256,192,1192,12,0,1196,0:0:0:0:
256,192,1194,12,0,1198,0:0:0:0:
256,192,1196,12,0,1200,0:0:0:0:
256,192,1198,12,0,1202,0:0:0:0:
256,192,1200,12,0,1204,0:0:0:0:
256,192,1202,12,0,1206,0:0:0:0:
256,192,1204,12,0,1208,0:0:0:0:
256,192,1206,12,0,1210,0:0:0:0:
256,192,1209,12,0,1213,0:0:0:0:
256,192,1211,12,0,1215,0:0:0:0:
256,192,1213,12,0,1217,0:0:0:0:
256,192,1215,12,0,1219,0:0:0:0:
256,192,1217,12,0,1221,0:0:0:0:
256,192,1219,12,0,1223,0:0:0:0:
256,192,1221,12,0,1225,0:0:0:0:
256,192,1223,12,0,1227,0:0:0:0:
256,192,1226,12,0,1230,0:0:0:0:
256,192,1228,12,0,1232,0:0:0:0:
256,192,1230,12,0,1234,0:0:0:0:
256,192,1232,12,0,1236,0:0:0:0:
256,192,1234,12,0,1238,0:0:0:0:
256,192,1236,12,0,1240,0:0:0:0:
256,192,1238,12,0,1242,0:0:0:0:
256,192,1240,12,0,1244,0:0:0:0:
256,192,1243,12,0,1247,0:0:0:0:
256,192,1245,12,0,1249,0:0:0:0:
256,192,1247,12,0,1251,0:0:0:0:
256,192,1249,12,0,1253,0:0:0:0:
256,192,1251,12,0,1255,0:0:0:0:
256,192,1253,12,0,1257,0:0:0:0:
256,192,1255,12,0,1259,0:0:0:0:
256,192,1257,12,0,1261,0:0:0:0:
256,192,1260,12,0,1264,0:0:0:0:
256,192,1262,12,0,1266,0:0:0:0:
256,192,1264,12,0,1268,0:0:0:0:
256,192,1266,12,0,1270,0:0:0:0:
256,192,1268,12,0,1272,0:0:0:0:
256,192,1270,12,0,1274,0:0:0:0:
256,192,1272,12,0,1276,0:0:0:0:
256,192,1274,12,0,1278,0:0:0:0:
256,192,1277,12,0,1281,0:0:0:0:
256,192,1279,12,0,1283,0:0:0:0:
256,192,1281,12,0,1285,0:0:0:0:
256,192,1283,12,0,1287,0:0:0:0:
256,192,1285,12,0,1289,0:0:0:0:
256,192,1287,12,0,1291,0:0:0:0:
256,192,1289,12,0,1293,0:0:0:0:
256,192,1291,12,0,1295,0:0:0:0:
256,192,1294,12,0,1298,0:0:0:0:
256,192,1296,12,0,1300,0:0:0:0:
256,192,1298,12,0,1302,0:0:0:0:
256,192,1300,12,0,1304,0:0:0:0:
256,192,1302,12,0,1306,0:0:0:0:
256,192,1304,12,0,1308,0:0:0:0:
256,192,1306,12,0,1310,0:0:0:0:
256,192,1308,12,0,1312,0:0:0:0:
256,192,1311,12,0,1315,0:0:0:0:
256,192,1313,12,0,1317,0:0:0:0:
256,192,1315,12,0,1319,0:0:0:0:
256,192,1317,12,0,1321,0:0:0:0:
256,192,1319,12,0,1323,0:0:0:0:
256,192,1321,12,0,1325,0:0:0:0:
256,192,1323,12,0,1327,0:0:0:0:
256,192,1325,12,0,1329,0:0:0:0:
256,192,1328,12,0,1332,0:0:0:0:
256,192,1330,12,0,1334,0:0:0:0:
256,192,1332,12,0,1336,0:0:0:0:
256,192,1334,12,0,1338,0:0:0:0:
256,192,1336,12,0,1340,0:0:0:0:
256,192,1338,12,0,1342,0:0:0:0:
256,192,1340,12,0,1344,0:0:0:0:
256,192,1342,12,0,1346,0:0:0:0:
256,192,1345,12,0,1349,0:0:0:0:
256,192,1347,12,0,1351,0:0:0:0:
256,192,1349,12,0,1353,0:0:0:0:
256,192,1351,12,0,1355,0:0:0:0:
256,192,1353,12,0,1357,0:0:0:0:
256,192,1355,12,0,1359,0:0:0:0:
256,192,1357,12,0,1361,0:0:0:0:
256,192,1359,12,0,1363,0:0:0:0:
256,192,1362,12,0,1366,0:0:0:0:
256,192,1364,12,0,1368,0:0:0:0:
256,192,1366,12,0,1370,0:0:0:0:
256,192,1368,12,0,1372,0:0:0:0:
256,192,1370,12,0,1374,0:0:0:0:
256,192,1372,12,0,1376,0:0:0:0:
256,192,1374,12,0,1378,0:0:0:0:
256,192,1376,12,0,1380,0:0:0:0:
256,192,1379,12,0,1383,0:0:0:0:
256,192,1381,12,0,1385,0:0:0:0:
256,192,1383,12,0,1387,0:0:0:0:
256,192,1385,12,0,1389,0:0:0:0:
256,192,1387,12,0,1391,0:0:0:0:
256,192,1389,12,0,1393,0:0:0:0:
256,192,1391,12,0,1395,0:0:0:0:
256,192,1393,12,0,1397,0:0:0:0:
256,192,1396,12,0,1400,0:0:0:0:
256,192,1398,12,0,1402,0:0:0:0:
256,192,1400,12,0,1404,0:0:0:0:
256,192,1402,12,0,1406,0:0:0:0:
256,192,1404,12,0,1408,0:0:0:0:
256,192,1406,12,0,1410,0:0:0:0:
256,192,1408,12,0,1412,0:0:0:0:
256,192,1410,12,0,1414,0:0:0:0:
256,192,1413,12,0,1417,0:0:0:0:
256,192,1415,12,0,1419,0:0:0:0:
256,192,1417,12,0,1421,0:0:0:0:
256,192,1419,12,0,1423,0:0:0:0:
256,192,1421,12,0,1425,0:0:0:0:
256,192,1423,12,0,1427,0:0:0:0:
256,192,1425,12,0,1429,0:0:0:0:
256,192,1427,12,0,1431,0:0:0:0:
256,192,1430,12,0,1434,0:0:0:0:
256,192,1432,12,0,1436,0:0:0:0:
256,192,1434,12,0,1438,0:0:0:0:
256,192,1436,12,0,1440,0:0:0:0:
256,192,1438,12,0,1442,0:0:0:0:
256,192,1440,12,0,1444,0:0:0:0:
256,192,1442,12,0,1446,0:0:0:0:
256,192,1444,12,0,1448,0:0:0:0:
256,192,1447,12,0,1451,0:0:0:0:
256,192,1449,12,0,1453,0:0:0:0:
256,192,1451,12,0,1455,0:0:0:0:
256,192,1453,12,0,1457,0:0:0:0:
256,192,1455,12,0,1459,0:0:0:0:
256,192,1457,12,0,1461,0:0:0:0:
256,192,1459,12,0,1463,0:0:0:0:
256,192,1461,12,0,1465,0:0:0:0:
256,192,1464,12,0,1468,0:0:0:0:
256,192,1466,12,0,1470,0:0:0:0:
256,192,1468,12,0,1472,0:0:0:0:
256,192,1470,12,0,1474,0:0:0:0:
256,192,1472,12,0,1476,0:0:0:0:
256,192,1474,12,0,1478,0:0:0:0:
256,192,1476,12,0,1480,0:0:0:0:
256,192,1478,12,0,1482,0:0:0:0:
256,192,1481,12,0,1485,0:0:0:0:
256,192,1483,12,0,1487,0:0:0:0:
256,192,1485,12,0,1489,0:0:0:0:
256,192,1487,12,0,1491,0:0:0:0:
256,192,1489,12,0,1493,0:0:0:0:
256,192,1491,12,0,1495,0:0:0:0:
256,192,1493,12,0,1497,0:0:0:0:
256,192,1495,12,0,1499,0:0:0:0:
256,192,1498,12,0,1502,0:0:0:0:
256,192,1500,12,0,1504,0:0:0:0:
256,192,1502,12,0,1506,0:0:0:0:
256,192,1504,12,0,1508,0:0:0:0:
256,192,1506,12,0,1510,0:0:0:0:
256,192,1508,12,0,1512,0:0:0:0:
256,192,1510,12,0,1514,0:0:0:0:
256,192,1512,12,0,1516,0:0:0:0:
256,192,1515,12,0,1519,0:0:0:0:
256,192,1517,12,0,1521,0:0:0:0:
256,192,1519,12,0,1523,0:0:0:0:
256,192,1521,12,0,1525,0:0:0:0:
256,192,1523,12,0,1527,0:0:0:0:
256,192,1525,12,0,1529,0:0:0:0:
256,192,1527,12,0,1531,0:0:0:0:
256,192,1529,12,0,1533,0:0:0:0:
256,192,1532,12,0,1536,0:0:0:0:
256,192,1534,12,0,1538,0:0:0:0:
256,192,1536,12,0,1540,0:0:0:0:
256,192,1538,12,0,1542,0:0:0:0:
256,192,1540,12,0,1544,0:0:0:0:
256,192,1542,12,0,1546,0:0:0:0:
256,192,1544,12,0,1548,0:0:0:0:
256,192,1546,12,0,1550,0:0:0:0:
256,192,1549,12,0,1553,0:0:0:0:
256,192,1551,12,0,1555,0:0:0:0:
256,192,1553,12,0,1557,0:0:0:0:
256,192,1555,12,0,1559,0:0:0:0:
256,192,1557,12,0,1561,0:0:0:0:
256,192,1559,12,0,1563,0:0:0:0:
256,192,1561,12,0,1565,0:0:0:0:
256,192,1563,12,0,1567,0:0:0:0:
256,192,1566,12,0,1570,0:0:0:0:
256,192,1568,12,0,1572,0:0:0:0:
256,192,1570,12,0,1574,0:0:0:0:
256,192,1572,12,0,1576,0:0:0:0:
256,192,1574,12,0,1578,0:0:0:0:
256,192,1576,12,0,1580,0:0:0:0:
256,192,1578,12,0,1582,0:0:0:0:
256,192,1580,12,0,1584,0:0:0:0:
256,192,1583,12,0,1587,0:0:0:0:
256,192,1585,12,0,1589,0:0:0:0:
256,192,1587,12,0,1591,0:0:0:0:
256,192,1589,12,0,1593,0:0:0:0:
256,192,1591,12,0,1595,0:0:0:0:
256,192,1593,12,0,1597,0:0:0:0:
256,192,1595,12,0,1599,0:0:0:0:
256,192,1597,12,0,1601,0:0:0:0:
256,192,1600,12,0,1604,0:0:0:0:
256,192,1602,12,0,1606,0:0:0:0:
256,192,1604,12,0,1608,0:0:0:0:
256,192,1606,12,0,1610,0:0:0:0:
256,192,1608,12,0,1612,0:0:0:0:
256,192,1610,12,0,1614,0:0:0:0:
256,192,1612,12,0,1616,0:0:0:0:
256,192,1614,12,0,1618,0:0:0:0:
256,192,1617,12,0,1621,0:0:0:0:
256,192,1619,12,0,1623,0:0:0:0:
256,192,1621,12,0,1625,0:0:0:0:
256,192,1623,12,0,1627,0:0:0:0:
256,192,1625,12,0,1629,0:0:0:0:
256,192,1627,12,0,1631,0:0:0:0:
256,192,1629,12,0,1633,0:0:0:0:
256,192,1631,12,0,1635,0:0:0:0:
256,192,1635,12,0,1639,0:0:0:0:
256,192,1637,12,0,1641,0:0:0:0:
256,192,1639,12,0,1643,0:0:0:0:
256,192,1641,12,0,1645,0:0:0:0:
256,192,1643,12,0,1647,0:0:0:0:
256,192,1645,12,0,1649,0:0:0:0:
256,192,1647,12,0,1651,0:0:0:0:
256,192,1649,12,0,1653,0:0:0:0:
256,192,1652,12,0,1656,0:0:0:0:
256,192,1654,12,0,1658,0:0:0:0:
256,192,1656,12,0,1660,0:0:0:0:
256,192,1658,12,0,1662,0:0:0:0:
256,192,1660,12,0,1664,0:0:0:0:
256,192,1662,12,0,1666,0:0:0:0:
256,192,1664,12,0,1668,0:0:0:0:
256,192,1666,12,0,1670,0:0:0:0:
256,192,1669,12,0,1673,0:0:0:0:
256,192,1671,12,0,1675,0:0:0:0:
256,192,1673,12,0,1677,0:0:0:0:
256,192,1675,12,0,1679,0:0:0:0:
256,192,1677,12,0,1681,0:0:0:0:
256,192,1679,12,0,1683,0:0:0:0:
256,192,1681,12,0,1685,0:0:0:0:
256,192,1683,12,0,1687,0:0:0:0:
256,192,1686,12,0,1690,0:0:0:0:
256,192,1688,12,0,1692,0:0:0:0:
256,192,1690,12,0,1694,0:0:0:0:
256,192,1692,12,0,1696,0:0:0:0:
256,192,1694,12,0,1698,0:0:0:0:
256,192,1696,12,0,1700,0:0:0:0:
256,192,1698,12,0,1702,0:0:0:0:
256,192,1700,12,0,1704,0:0:0:0:
256,192,1703,12,0,1707,0:0:0:0:
256,192,1705,12,0,1709,0:0:0:0:
256,192,1707,12,0,1711,0:0:0:0:
256,192,1709,12,0,1713,0:0:0:0:
256,192,1711,12,0,1715,0:0:0:0:
256,192,1713,12,0,1717,0:0:0:0:
256,192,1715,12,0,1719,0:0:0:0:
256,192,1717,12,0,1721,0:0:0:0:
256,192,1720,12,0,1724,0:0:0:0:
256,192,1722,12,0,1726,0:0:0:0:
256,192,1724,12,0,1728,0:0:0:0:
256,192,1726,12,0,1730,0:0:0:0:
256,192,1728,12,0,1732,0:0:0:0:
256,192,1730,12,0,1734,0:0:0:0:
256,192,1732,12,0,1736,0:0:0:0:
256,192,1734,12,0,1738,0:0:0:0:
256,192,1737,12,0,1741,0:0:0:0:
256,192,1739,12,0,1743,0:0:0:0:
256,192,1741,12,0,1745,0:0:0:0:
256,192,1743,12,0,1747,0:0:0:0:
256,192,1745,12,0,1749,0:0:0:0:
256,192,1747,12,0,1751,0:0:0:0:
256,192,1749,12,0,1753,0:0:0:0:
256,192,1751,12,0,1755,0:0:0:0:
256,192,1754,12,0,1758,0:0:0:0:
256,192,1756,12,0,1760,0:0:0:0:
256,192,1758,12,0,1762,0:0:0:0:
256,192,1760,12,0,1764,0:0:0:0:
256,192,1762,12,0,1766,0:0:0:0:
256,192,1764,12,0,1768,0:0:0:0:
256,192,1766,12,0,1770,0:0:0:0:
256,192,1768,12,0,1772,0:0:0:0:
256,192,1771,12,0,1775,0:0:0:0:
256,192,1773,12,0,1777,0:0:0:0:
256,192,1775,12,0,1779,0:0:0:0:
256,192,1777,12,0,1781,0:0:0:0:
256,192,1779,12,0,1783,0:0:0:0:
256,192,1781,12,0,1785,0:0:0:0:
256,192,1783,12,0,1787,0:0:0:0:
256,192,1785,12,0,1789,0:0:0:0:
256,192,1788,12,0,1792,0:0:0:0:
256,192,1790,12,0,1794,0:0:0:0:
256,192,1792,12,0,1796,0:0:0:0:
256,192,1794,12,0,1798,0:0:0:0:
256,192,1796,12,0,1800,0:0:0:0:
256,192,1798,12,0,1802,0:0:0:0:
256,192,1800,12,0,1804,0:0:0:0:
256,192,1802,12,0,1806,0:0:0:0:
256,192,1805,12,0,1809,0:0:0:0:
256,192,1807,12,0,1811,0:0:0:0:
256,192,1809,12,0,1813,0:0:0:0:
256,192,1811,12,0,1815,0:0:0:0:
256,192,1813,12,0,1817,0:0:0:0:
256,192,1815,12,0,1819,0:0:0:0:
256,192,1817,12,0,1821,0:0:0:0:
256,192,1819,12,0,1823,0:0:0:0:
256,192,1822,12,0,1826,0:0:0:0:
256,192,1824,12,0,1828,0:0:0:0:
256,192,1826,12,0,1830,0:0:0:0:
256,192,1828,12,0,1832,0:0:0:0:
256,192,1830,12,0,1834,0:0:0:0:
256,192,1832,12,0,1836,0:0:0:0:
256,192,1834,12,0,1838,0:0:0:0:
256,192,1836,12,0,1840,0:0:0:0:
256,192,1839,12,0,1843,0:0:0:0:
256,192,1841,12,0,1845,0:0:0:0:
256,192,1843,12,0,1847,0:0:0:0:
256,192,1845,12,0,1849,0:0:0:0:
256,192,1847,12,0,1851,0:0:0:0:
256,192,1849,12,0,1853,0:0:0:0:
256,192,1851,12,0,1855,0:0:0:0:
256,192,1853,12,0,1857,0:0:0:0:
256,192,1856,12,0,1860,0:0:0:0:
256,192,1858,12,0,1862,0:0:0:0:
256,192,1860,12,0,1864,0:0:0:0:
256,192,1862,12,0,1866,0:0:0:0:
256,192,1864,12,0,1868,0:0:0:0:
256,192,1866,12,0,1870,0:0:0:0:
256,192,1868,12,0,1872,0:0:0:0:
256,192,1870,12,0,1874,0:0:0:0:
256,192,1873,12,0,1877,0:0:0:0:
256,192,1875,12,0,1879,0:0:0:0:
256,192,1877,12,0,1881,0:0:0:0:
256,192,1879,12,0,1883,0:0:0:0:
256,192,1881,12,0,1885,0:0:0:0:
256,192,1883,12,0,1887,0:0:0:0:
256,192,1885,12,0,1889,0:0:0:0:
256,192,1887,12,0,1891,0:0:0:0:
256,192,1890,12,0,1894,0:0:0:0:
256,192,1892,12,0,1896,0:0:0:0:
256,192,1894,12,0,1898,0:0:0:0:
256,192,1896,12,0,1900,0:0:0:0:
256,192,1898,12,0,1902,0:0:0:0:
256,192,1900,12,0,1904,0:0:0:0:
256,192,1902,12,0,1906,0:0:0:0:
256,192,1904,12,0,1908,0:0:0:0:
256,192,1907,12,0,1911,0:0:0:0:
256,192,1909,12,0,1913,0:0:0:0:
256,192,1911,12,0,1915,0:0:0:0:
256,192,1913,12,0,1917,0:0:0:0:
256,192,1915,12,0,1919,0:0:0:0:
256,192,1917,12,0,1921,0:0:0:0:
256,192,1919,12,0,1923,0:0:0:0:
256,192,1921,12,0,1925,0:0:0:0:
256,192,1924,12,0,1928,0:0:0:0:
256,192,1926,12,0,1930,0:0:0:0:
256,192,1928,12,0,1932,0:0:0:0:
256,192,1930,12,0,1934,0:0:0:0:
256,192,1932,12,0,1936,0:0:0:0:
256,192,1934,12,0,1938,0:0:0:0:
256,192,1936,12,0,1940,0:0:0:0:
256,192,1938,12,0,1942,0:0:0:0:
256,192,1941,12,0,1945,0:0:0:0:
256,192,1943,12,0,1947,0:0:0:0:
256,192,1945,12,0,1949,0:0:0:0:
256,192,1947,12,0,1951,0:0:0:0:
256,192,1949,12,0,1953,0:0:0:0:
256,192,1951,12,0,1955,0:0:0:0:
256,192,1953,12,0,1957,0:0:0:0:
256,192,1955,12,0,1959,0:0:0:0:
256,192,1958,12,0,1962,0:0:0:0:
256,192,1960,12,0,1964,0:0:0:0:
256,192,1962,12,0,1966,0:0:0:0:
256,192,1964,12,0,1968,0:0:0:0:
256,192,1966,12,0,1970,0:0:0:0:
256,192,1968,12,0,1972,0:0:0:0:
256,192,1970,12,0,1974,0:0:0:0:
256,192,1972,12,0,1976,0:0:0:0:
256,192,1975,12,0,1979,0:0:0:0:
256,192,1977,12,0,1981,0:0:0:0:
256,192,1979,12,0,1983,0:0:0:0:
256,192,1981,12,0,1985,0:0:0:0:
256,192,1983,12,0,1987,0:0:0:0:
256,192,1985,12,0,1989,0:0:0:0:
256,192,1987,12,0,1991,0:0:0:0:
256,192,1989,12,0,1993,0:0:0:0:
256,192,1992,12,0,1996,0:0:0:0:
256,192,1994,12,0,1998,0:0:0:0:
256,192,1996,12,0,2000,0:0:0:0:
256,192,1998,12,0,2002,0:0:0:0:
256,192,2000,12,0,2004,0:0:0:0:
256,192,2002,12,0,2006,0:0:0:0:
256,192,2004,12,0,2008,0:0:0:0:
256,192,2006,12,0,2010,0:0:0:0:
256,192,2009,12,0,2013,0:0:0:0:
256,192,2011,12,0,2015,0:0:0:0:
256,192,2013,12,0,2017,0:0:0:0:
256,192,2015,12,0,2019,0:0:0:0:
256,192,2017,12,0,2021,0:0:0:0:
256,192,2019,12,0,2023,0:0:0:0:
256,192,2021,12,0,2025,0:0:0:0:
256,192,2023,12,0,2027,0:0:0:0:
256,192,2026,12,0,2030,0:0:0:0:
256,192,2028,12,0,2032,0:0:0:0:
256,192,2030,12,0,2034,0:0:0:0:
256,192,2032,12,0,2036,0:0:0:0:
256,192,2034,12,0,2038,0:0:0:0:
256,192,2036,12,0,2040,0:0:0:0:
256,192,2038,12,0,2042,0:0:0:0:
256,192,2040,12,0,2044,0:0:0:0:
256,192,2043,12,0,2047,0:0:0:0:
256,192,2045,12,0,2049,0:0:0:0:
256,192,2047,12,0,2051,0:0:0:0:
256,192,2049,12,0,2053,0:0:0:0:
256,192,2051,12,0,2055,0:0:0:0:
256,192,2053,12,0,2057,0:0:0:0:
256,192,2055,12,0,2059,0:0:0:0:
256,192,2057,12,0,2061,0:0:0:0:
256,192,2060,12,0,2064,0:0:0:0:
256,192,2062,12,0,2066,0:0:0:0:
256,192,2064,12,0,2068,0:0:0:0:
256,192,2066,12,0,2070,0:0:0:0:
256,192,2068,12,0,2072,0:0:0:0:
256,192,2070,12,0,2074,0:0:0:0:
256,192,2072,12,0,2076,0:0:0:0:
256,192,2074,12,0,2078,0:0:0:0:
256,192,2077,12,0,2081,0:0:0:0:
256,192,2079,12,0,2083,0:0:0:0:
256,192,2081,12,0,2085,0:0:0:0:
256,192,2083,12,0,2087,0:0:0:0:
256,192,2085,12,0,2089,0:0:0:0:
256,192,2087,12,0,2091,0:0:0:0:
256,192,2089,12,0,2093,0:0:0:0:
256,192,2091,12,0,2095,0:0:0:0:
256,192,2094,12,0,2098,0:0:0:0:
256,192,2096,12,0,2100,0:0:0:0:
256,192,2098,12,0,2102,0:0:0:0:
256,192,2100,12,0,2104,0:0:0:0:
256,192,2102,12,0,2106,0:0:0:0:
256,192,2104,12,0,2108,0:0:0:0:
256,192,2106,12,0,2110,0:0:0:0:
256,192,2108,12,0,2112,0:0:0:0:
256,192,2111,12,0,2115,0:0:0:0:
256,192,2113,12,0,2117,0:0:0:0:
256,192,2115,12,0,2119,0:0:0:0:
256,192,2117,12,0,2121,0:0:0:0:
256,192,2119,12,0,2123,0:0:0:0:
256,192,2121,12,0,2125,0:0:0:0:
256,192,2123,12,0,2127,0:0:0:0:
256,192,2125,12,0,2129,0:0:0:0:
256,192,2128,12,0,2132,0:0:0:0:
256,192,2130,12,0,2134,0:0:0:0:
256,192,2132,12,0,2136,0:0:0:0:
256,192,2134,12,0,2138,0:0:0:0:
256,192,2136,12,0,2140,0:0:0:0:
256,192,2138,12,0,2142,0:0:0:0:
256,192,2140,12,0,2144,0:0:0:0:
256,192,2142,12,0,2146,0:0:0:0:
256,192,2145,12,0,2149,0:0:0:0:
256,192,2147,12,0,2151,0:0:0:0:
256,192,2149,12,0,2153,0:0:0:0:
256,192,2151,12,0,2155,0:0:0:0:
256,192,2153,12,0,2157,0:0:0:0:
256,192,2155,12,0,2159,0:0:0:0:
256,192,2157,12,0,2161,0:0:0:0:
256,192,2159,12,0,2163,0:0:0:0:
256,192,2162,12,0,2166,0:0:0:0:
256,192,2164,12,0,2168,0:0:0:0:
256,192,2166,12,0,2170,0:0:0:0:
256,192,2168,12,0,2172,0:0:0:0:
256,192,2170,12,0,2174,0:0:0:0:
256,192,2172,12,0,2176,0:0:0:0:
256,192,2174,12,0,2178,0:0:0:0:
256,192,2176,12,0,2180,0:0:0:0:
256,192,2181,12,0,2185,0:0:0:0:
256,192,2183,12,0,2187,0:0:0:0:
256,192,2185,12,0,2189,0:0:0:0:
256,192,2187,12,0,2191,0:0:0:0:
256,192,2189,12,0,2193,0:0:0:0:
256,192,2191,12,0,2195,0:0:0:0:
256,192,2193,12,0,2197,0:0:0:0:
256,192,2195,12,0,2199,0:0:0:0:
256,192,2198,12,0,2202,0:0:0:0:
256,192,2200,12,0,2204,0:0:0:0:
256,192,2202,12,0,2206,0:0:0:0:
256,192,2204,12,0,2208,0:0:0:0:
256,192,2206,12,0,2210,0:0:0:0:
256,192,2208,12,0,2212,0:0:0:0:
256,192,2210,12,0,2214,0:0:0:0:
256,192,2212,12,0,2216,0:0:0:0:
256,192,2215,12,0,2219,0:0:0:0:
256,192,2217,12,0,2221,0:0:0:0:
256,192,2219,12,0,2223,0:0:0:0:
256,192,2221,12,0,2225,0:0:0:0:
256,192,2223,12,0,2227,0:0:0:0:
256,192,2225,12,0,2229,0:0:0:0:
256,192,2227,12,0,2231,0:0:0:0:
256,192,2229,12,0,2233,0:0:0:0:
256,192,2232,12,0,2236,0:0:0:0:
256,192,2234,12,0,2238,0:0:0:0:
256,192,2236,12,0,2240,0:0:0:0:
256,192,2238,12,0,2242,0:0:0:0:
256,192,2240,12,0,2244,0:0:0:0:
256,192,2242,12,0,2246,0:0:0:0:
256,192,2244,12,0,2248,0:0:0:0:
256,192,2246,12,0,2250,0:0:0:0:
256,192,2249,12,0,2253,0:0:0:0:
256,192,2251,12,0,2255,0:0:0:0:
256,192,2253,12,0,2257,0:0:0:0:
256,192,2255,12,0,2259,0:0:0:0:
256,192,2257,12,0,2261,0:0:0:0:
256,192,2259,12,0,2263,0:0:0:0:
256,192,2261,12,0,2265,0:0:0:0:
256,192,2263,12,0,2267,0:0:0:0:
256,192,2266,12,0,2270,0:0:0:0:
256,192,2268,12,0,2272,0:0:0:0:
256,192,2270,12,0,2274,0:0:0:0:
256,192,2272,12,0,2276,0:0:0:0:
256,192,2274,12,0,2278,0:0:0:0:
256,192,2276,12,0,2280,0:0:0:0:
256,192,2278,12,0,2282,0:0:0:0:
256,192,2280,12,0,2284,0:0:0:0:
256,192,2283,12,0,2287,0:0:0:0:
256,192,2285,12,0,2289,0:0:0:0:
256,192,2287,12,0,2291,0:0:0:0:
256,192,2289,12,0,2293,0:0:0:0:
256,192,2291,12,0,2295,0:0:0:0:
256,192,2293,12,0,2297,0:0:0:0:
256,192,2295,12,0,2299,0:0:0:0:
256,192,2297,12,0,2301,0:0:0:0:
256,192,2300,12,0,2304,0:0:0:0:
256,192,2302,12,0,2306,0:0:0:0:
256,192,2304,12,0,2308,0:0:0:0:
256,192,2306,12,0,2310,0:0:0:0:
256,192,2308,12,0,2312,0:0:0:0:
256,192,2310,12,0,2314,0:0:0:0:
256,192,2312,12,0,2316,0:0:0:0:
256,192,2314,12,0,2318,0:0:0:0:
256,192,2317,12,0,2321,0:0:0:0:
256,192,2319,12,0,2323,0:0:0:0:
256,192,2321,12,0,2325,0:0:0:0:
256,192,2323,12,0,2327,0:0:0:0:
256,192,2325,12,0,2329,0:0:0:0:
256,192,2327,12,0,2331,0:0:0:0:
256,192,2329,12,0,2333,0:0:0:0:
256,192,2331,12,0,2335,0:0:0:0:
256,192,2334,12,0,2338,0:0:0:0:
256,192,2336,12,0,2340,0:0:0:0:
256,192,2338,12,0,2342,0:0:0:0:
256,192,2340,12,0,2344,0:0:0:0:
256,192,2342,12,0,2346,0:0:0:0:
256,192,2344,12,0,2348,0:0:0:0:
256,192,2346,12,0,2350,0:0:0:0:
256,192,2348,12,0,2352,0:0:0:0:
256,192,2351,12,0,2355,0:0:0:0:
256,192,2353,12,0,2357,0:0:0:0:
256,192,2355,12,0,2359,0:0:0:0:
256,192,2357,12,0,2361,0:0:0:0:
256,192,2359,12,0,2363,0:0:0:0:
256,192,2361,12,0,2365,0:0:0:0:
256,192,2363,12,0,2367,0:0:0:0:
256,192,2365,12,0,2369,0:0:0:0:
256,192,2368,12,0,2372,0:0:0:0:
256,192,2370,12,0,2374,0:0:0:0:
256,192,2372,12,0,2376,0:0:0:0:
256,192,2374,12,0,2378,0:0:0:0:
256,192,2376,12,0,2380,0:0:0:0:
256,192,2378,12,0,2382,0:0:0:0:
256,192,2380,12,0,2384,0:0:0:0:
256,192,2382,12,0,2386,0:0:0:0:
256,192,2385,12,0,2389,0:0:0:0:
256,192,2387,12,0,2391,0:0:0:0:
256,192,2389,12,0,2393,0:0:0:0:
256,192,2391,12,0,2395,0:0:0:0:
256,192,2393,12,0,2397,0:0:0:0:
256,192,2395,12,0,2399,0:0:0:0:
256,192,2397,12,0,2401,0:0:0:0:
256,192,2399,12,0,2403,0:0:0:0:
256,192,2402,12,0,2406,0:0:0:0:
256,192,2404,12,0,2408,0:0:0:0:
256,192,2406,12,0,2410,0:0:0:0:
256,192,2408,12,0,2412,0:0:0:0:
256,192,2410,12,0,2414,0:0:0:0:
256,192,2412,12,0,2416,0:0:0:0:
256,192,2414,12,0,2418,0:0:0:0:
256,192,2416,12,0,2420,0:0:0:0:
256,192,2419,12,0,2423,0:0:0:0:
256,192,2421,12,0,2425,0:0:0:0:
256,192,2423,12,0,2427,0:0:0:0:
256,192,2425,12,0,2429,0:0:0:0:
256,192,2427,12,0,2431,0:0:0:0:
256,192,2429,12,0,2433,0:0:0:0:
256,192,2431,12,0,2435,0:0:0:0:
256,192,2433,12,0,2437,0:0:0:0:
256,192,2436,12,0,2440,0:0:0:0:
256,192,2438,12,0,2442,0:0:0:0:
256,192,2440,12,0,2444,0:0:0:0:
256,192,2442,12,0,2446,0:0:0:0:
256,192,2444,12,0,2448,0:0:0:0:
256,192,2446,12,0,2450,0:0:0:0:
256,192,2448,12,0,2452,0:0:0:0:
256,192,2450,12,0,2454,0:0:0:0:
256,192,2453,12,0,2457,0:0:0:0:
256,192,2455,12,0,2459,0:0:0:0:
256,192,2457,12,0,2461,0:0:0:0:
256,192,2459,12,0,2463,0:0:0:0:
256,192,2461,12,0,2465,0:0:0:0:
256,192,2463,12,0,2467,0:0:0:0:
256,192,2465,12,0,2469,0:0:0:0:
256,192,2467,12,0,2471,0:0:0:0:
256,192,2470,12,0,2474,0:0:0:0:
256,192,2472,12,0,2476,0:0:0:0:
256,192,2474,12,0,2478,0:0:0:0:
256,192,2476,12,0,2480,0:0:0:0:
256,192,2478,12,0,2482,0:0:0:0:
256,192,2480,12,0,2484,0:0:0:0:
256,192,2482,12,0,2486,0:0:0:0:
256,192,2484,12,0,2488,0:0:0:0:
256,192,2487,12,0,2491,0:0:0:0:
256,192,2489,12,0,2493,0:0:0:0:
256,192,2491,12,0,2495,0:0:0:0:
256,192,2493,12,0,2497,0:0:0:0:
256,192,2495,12,0,2499,0:0:0:0:
256,192,2497,12,0,2501,0:0:0:0:
256,192,2499,12,0,2503,0:0:0:0:
256,192,2501,12,0,2505,0:0:0:0:
256,192,2504,12,0,2508,0:0:0:0:
256,192,2506,12,0,2510,0:0:0:0:
256,192,2508,12,0,2512,0:0:0:0:
256,192,2510,12,0,2514,0:0:0:0:
256,192,2512,12,0,2516,0:0:0:0:
256,192,2514,12,0,2518,0:0:0:0:
256,192,2516,12,0,2520,0:0:0:0:
256,192,2518,12,0,2522,0:0:0:0:
256,192,2521,12,0,2525,0:0:0:0:
256,192,2523,12,0,2527,0:0:0:0:
256,192,2525,12,0,2529,0:0:0:0:
256,192,2527,12,0,2531,0:0:0:0:
256,192,2529,12,0,2533,0:0:0:0:
256,192,2531,12,0,2535,0:0:0:0:
256,192,2533,12,0,2537,0:0:0:0:
256,192,2535,12,0,2539,0:0:0:0:
256,192,2538,12,0,2542,0:0:0:0:
256,192,2540,12,0,2544,0:0:0:0:
256,192,2542,12,0,2546,0:0:0:0:
256,192,2544,12,0,2548,0:0:0:0:
256,192,2546,12,0,2550,0:0:0:0:
256,192,2548,12,0,2552,0:0:0:0:
256,192,2550,12,0,2554,0:0:0:0:
256,192,2552,12,0,2556,0:0:0:0:
256,192,2555,12,0,2559,0:0:0:0:
256,192,2557,12,0,2561,0:0:0:0:
256,192,2559,12,0,2563,0:0:0:0:
256,192,2561,12,0,2565,0:0:0:0:
256,192,2563,12,0,2567,0:0:0:0:
256,192,2565,12,0,2569,0:0:0:0:
256,192,2567,12,0,2571,0:0:0:0:
256,192,2569,12,0,2573,0:0:0:0:
256,192,2572,12,0,2576,0:0:0:0:
256,192,2574,12,0,2578,0:0:0:0:
256,192,2576,12,0,2580,0:0:0:0:
256,192,2578,12,0,2582,0:0:0:0:
256,192,2580,12,0,2584,0:0:0:0:
256,192,2582,12,0,2586,0:0:0:0:
256,192,2584,12,0,2588,0:0:0:0:
256,192,2586,12,0,2590,0:0:0:0:
256,192,2589,12,0,2593,0:0:0:0:
256,192,2591,12,0,2595,0:0:0:0:
256,192,2593,12,0,2597,0:0:0:0:
256,192,2595,12,0,2599,0:0:0:0:
256,192,2597,12,0,2601,0:0:0:0:
256,192,2599,12,0,2603,0:0:0:0:
256,192,2601,12,0,2605,0:0:0:0:
256,192,2603,12,0,2607,0:0:0:0:
256,192,2606,12,0,2610,0:0:0:0:
256,192,2608,12,0,2612,0:0:0:0:
256,192,2610,12,0,2614,0:0:0:0:
256,192,2612,12,0,2616,0:0:0:0:
256,192,2614,12,0,2618,0:0:0:0:
256,192,2616,12,0,2620,0:0:0:0:
256,192,2618,12,0,2622,0:0:0:0:
256,192,2620,12,0,2624,0:0:0:0:
256,192,2623,12,0,2627,0:0:0:0:
256,192,2625,12,0,2629,0:0:0:0:
256,192,2627,12,0,2631,0:0:0:0:
256,192,2629,12,0,2633,0:0:0:0:
256,192,2631,12,0,2635,0:0:0:0:
256,192,2633,12,0,2637,0:0:0:0:
256,192,2635,12,0,2639,0:0:0:0:
256,192,2637,12,0,2641,0:0:0:0:
256,192,2640,12,0,2644,0:0:0:0:
256,192,2642,12,0,2646,0:0:0:0:
256,192,2644,12,0,2648,0:0:0:0:
256,192,2646,12,0,2650,0:0:0:0:
256,192,2648,12,0,2652,0:0:0:0:
256,192,2650,12,0,2654,0:0:0:0:
256,192,2652,12,0,2656,0:0:0:0:
256,192,2654,12,0,2658,0:0:0:0:
256,192,2657,12,0,2661,0:0:0:0:
256,192,2659,12,0,2663,0:0:0:0:
256,192,2661,12,0,2665,0:0:0:0:
256,192,2663,12,0,2667,0:0:0:0:
256,192,2665,12,0,2669,0:0:0:0:
256,192,2667,12,0,2671,0:0:0:0:
256,192,2669,12,0,2673,0:0:0:0:
256,192,2671,12,0,2675,0:0:0:0:
256,192,2674,12,0,2678,0:0:0:0:
256,192,2676,12,0,2680,0:0:0:0:
256,192,2678,12,0,2682,0:0:0:0:
256,192,2680,12,0,2684,0:0:0:0:
256,192,2682,12,0,2686,0:0:0:0:
256,192,2684,12,0,2688,0:0:0:0:
256,192,2686,12,0,2690,0:0:0:0:
256,192,2688,12,0,2692,0:0:0:0:
256,192,2691,12,0,2695,0:0:0:0:
256,192,2693,12,0,2697,0:0:0:0:
256,192,2695,12,0,2699,0:0:0:0:
256,192,2697,12,0,2701,0:0:0:0:
256,192,2699,12,0,2703,0:0:0:0:
256,192,2701,12,0,2705,0:0:0:0:
256,192,2703,12,0,2707,0:0:0:0:
256,192,2705,12,0,2709,0:0:0:0:
256,192,2708,12,0,2712,0:0:0:0:
256,192,2710,12,0,2714,0:0:0:0:
256,192,2712,12,0,2716,0:0:0:0:
256,192,2714,12,0,2718,0:0:0:0:
256,192,2716,12,0,2720,0:0:0:0:
256,192,2718,12,0,2722,0:0:0:0:
256,192,2720,12,0,2724,0:0:0:0:
256,192,2722,12,0,2726,0:0:0:0:
256,192,2726,12,0,2730,0:0:0:0:
256,192,2728,12,0,2732,0:0:0:0:
256,192,2730,12,0,2734,0:0:0:0:
256,192,2732,12,0,2736,0:0:0:0:
256,192,2734,12,0,2738,0:0:0:0:
256,192,2736,12,0,2740,0:0:0:0:
256,192,2738,12,0,2742,0:0:0:0:
256,192,2740,12,0,2744,0:0:0:0:
256,192,2743,12,0,2747,0:0:0:0:
256,192,2745,12,0,2749,0:0:0:0:
256,192,2747,12,0,2751,0:0:0:0:
256,192,2749,12,0,2753,0:0:0:0:
256,192,2751,12,0,2755,0:0:0:0:
256,192,2753,12,0,2757,0:0:0:0:
256,192,2755,12,0,2759,0:0:0:0:
256,192,2757,12,0,2761,0:0:0:0:
256,192,2760,12,0,2764,0:0:0:0:
256,192,2762,12,0,2766,0:0:0:0:
256,192,2764,12,0,2768,0:0:0:0:
256,192,2766,12,0,2770,0:0:0:0:
256,192,2768,12,0,2772,0:0:0:0:
256,192,2770,12,0,2774,0:0:0:0:
256,192,2772,12,0,2776,0:0:0:0:
256,192,2774,12,0,2778,0:0:0:0:
256,192,2777,12,0,2781,0:0:0:0:
256,192,2779,12,0,2783,0:0:0:0:
256,192,2781,12,0,2785,0:0:0:0:
256,192,2783,12,0,2787,0:0:0:0:
256,192,2785,12,0,2789,0:0:0:0:
256,192,2787,12,0,2791,0:0:0:0:
256,192,2789,12,0,2793,0:0:0:0:
256,192,2791,12,0,2795,0:0:0:0:
256,192,2794,12,0,2798,0:0:0:0:
256,192,2796,12,0,2800,0:0:0:0:
256,192,2798,12,0,2802,0:0:0:0:
256,192,2800,12,0,2804,0:0:0:0:
256,192,2802,12,0,2806,0:0:0:0:
256,192,2804,12,0,2808,0:0:0:0:
256,192,2806,12,0,2810,0:0:0:0:
256,192,2808,12,0,2812,0:0:0:0:
256,192,2811,12,0,2815,0:0:0:0:
256,192,2813,12,0,2817,0:0:0:0:
256,192,2815,12,0,2819,0:0:0:0:
256,192,2817,12,0,2821,0:0:0:0:
256,192,2819,12,0,2823,0:0:0:0:
256,192,2821,12,0,2825,0:0:0:0:
256,192,2823,12,0,2827,0:0:0:0:
256,192,2825,12,0,2829,0:0:0:0:
256,192,2828,12,0,2832,0:0:0:0:
256,192,2830,12,0,2834,0:0:0:0:
256,192,2832,12,0,2836,0:0:0:0:
256,192,2834,12,0,2838,0:0:0:0:
256,192,2836,12,0,2840,0:0:0:0:
256,192,2838,12,0,2842,0:0:0:0:
256,192,2840,12,0,2844,0:0:0:0:
256,192,2842,12,0,2846,0:0:0:0:
256,192,2845,12,0,2849,0:0:0:0:
256,192,2847,12,0,2851,0:0:0:0:
256,192,2849,12,0,2853,0:0:0:0:
256,192,2851,12,0,2855,0:0:0:0:
256,192,2853,12,0,2857,0:0:0:0:
256,192,2855,12,0,2859,0:0:0:0:
256,192,2857,12,0,2861,0:0:0:0:
256,192,2859,12,0,2863,0:0:0:0:
256,192,2862,12,0,2866,0:0:0:0:
256,192,2864,12,0,2868,0:0:0:0:
256,192,2866,12,0,2870,0:0:0:0:
256,192,2868,12,0,2872,0:0:0:0:
256,192,2870,12,0,2874,0:0:0:0:
256,192,2872,12,0,2876,0:0:0:0:
256,192,2874,12,0,2878,0:0:0:0:
256,192,2876,12,0,2880,0:0:0:0:
256,192,2879,12,0,2883,0:0:0:0:
256,192,2881,12,0,2885,0:0:0:0:
256,192,2883,12,0,2887,0:0:0:0:
256,192,2885,12,0,2889,0:0:0:0:
256,192,2887,12,0,2891,0:0:0:0:
256,192,2889,12,0,2893,0:0:0:0:
256,192,2891,12,0,2895,0:0:0:0:
256,192,2893,12,0,2897,0:0:0:0:
256,192,2896,12,0,2900,0:0:0:0:
256,192,2898,12,0,2902,0:0:0:0:
256,192,2900,12,0,2904,0:0:0:0:
256,192,2902,12,0,2906,0:0:0:0:
256,192,2904,12,0,2908,0:0:0:0:
256,192,2906,12,0,2910,0:0:0:0:
256,192,2908,12,0,2912,0:0:0:0:
256,192,2910,12,0,2914,0:0:0:0:
256,192,2913,12,0,2917,0:0:0:0:
256,192,2915,12,0,2919,0:0:0:0:
256,192,2917,12,0,2921,0:0:0:0:
256,192,2919,12,0,2923,0:0:0:0:
256,192,2921,12,0,2925,0:0:0:0:
256,192,2923,12,0,2927,0:0:0:0:
256,192,2925,12,0,2929,0:0:0:0:
256,192,2927,12,0,2931,0:0:0:0:
256,192,2930,12,0,2934,0:0:0:0:
256,192,2932,12,0,2936,0:0:0:0:
256,192,2934,12,0,2938,0:0:0:0:
256,192,2936,12,0,2940,0:0:0:0:
256,192,2938,12,0,2942,0:0:0:0:
256,192,2940,12,0,2944,0:0:0:0:
256,192,2942,12,0,2946,0:0:0:0:
256,192,2944,12,0,2948,0:0:0:0:
256,192,2947,12,0,2951,0:0:0:0:
256,192,2949,12,0,2953,0:0:0:0:
256,192,2951,12,0,2955,0:0:0:0:
256,192,2953,12,0,2957,0:0:0:0:
256,192,2955,12,0,2959,0:0:0:0:
256,192,2957,12,0,2961,0:0:0:0:
256,192,2959,12,0,2963,0:0:0:0:
256,192,2961,12,0,2965,0:0:0:0:
256,192,2964,12,0,2968,0:0:0:0:
256,192,2966,12,0,2970,0:0:0:0:
256,192,2968,12,0,2972,0:0:0:0:
256,192,2970,12,0,2974,0:0:0:0:
256,192,2972,12,0,2976,0:0:0:0:
256,192,2974,12,0,2978,0:0:0:0:
256,192,2976,12,0,2980,0:0:0:0:
256,192,2978,12,0,2982,0:0:0:0:
256,192,2981,12,0,2985,0:0:0:0:
256,192,2983,12,0,2987,0:0:0:0:
256,192,2985,12,0,2989,0:0:0:0:
256,192,2987,12,0,2991,0:0:0:0:
256,192,2989,12,0,2993,0:0:0:0:
256,192,2991,12,0,2995,0:0:0:0:
256,192,2993,12,0,2997,0:0:0:0:
256,192,2995,12,0,2999,0:0:0:0:
256,192,2998,12,0,3002,0:0:0:0:
256,192,3000,12,0,3004,0:0:0:0:
256,192,3002,12,0,3006,0:0:0:0:
256,192,3004,12,0,3008,0:0:0:0:
256,192,3006,12,0,3010,0:0:0:0:
256,192,3008,12,0,3012,0:0:0:0:
256,192,3010,12,0,3014,0:0:0:0:
256,192,3012,12,0,3016,0:0:0:0:
256,192,3015,12,0,3019,0:0:0:0:
256,192,3017,12,0,3021,0:0:0:0:
256,192,3019,12,0,3023,0:0:0:0:
256,192,3021,12,0,3025,0:0:0:0:
256,192,3023,12,0,3027,0:0:0:0:
256,192,3025,12,0,3029,0:0:0:0:
256,192,3027,12,0,3031,0:0:0:0:
256,192,3029,12,0,3033,0:0:0:0:
256,192,3032,12,0,3036,0:0:0:0:
256,192,3034,12,0,3038,0:0:0:0:
256,192,3036,12,0,3040,0:0:0:0:
256,192,3038,12,0,3042,0:0:0:0:
256,192,3040,12,0,3044,0:0:0:0:
256,192,3042,12,0,3046,0:0:0:0:
256,192,3044,12,0,3048,0:0:0:0:
256,192,3046,12,0,3050,0:0:0:0:
256,192,3049,12,0,3053,0:0:0:0:
256,192,3051,12,0,3055,0:0:0:0:
256,192,3053,12,0,3057,0:0:0:0:
256,192,3055,12,0,3059,0:0:0:0:
256,192,3057,12,0,3061,0:0:0:0:
256,192,3059,12,0,3063,0:0:0:0:
256,192,3061,12,0,3065,0:0:0:0:
256,192,3063,12,0,3067,0:0:0:0:
256,192,3066,12,0,3070,0:0:0:0:
256,192,3068,12,0,3072,0:0:0:0:
256,192,3070,12,0,3074,0:0:0:0:
256,192,3072,12,0,3076,0:0:0:0:
256,192,3074,12,0,3078,0:0:0:0:
256,192,3076,12,0,3080,0:0:0:0:
256,192,3078,12,0,3082,0:0:0:0:
256,192,3080,12,0,3084,0:0:0:0:
256,192,3083,12,0,3087,0:0:0:0:
256,192,3085,12,0,3089,0:0:0:0:
256,192,3087,12,0,3091,0:0:0:0:
256,192,3089,12,0,3093,0:0:0:0:
256,192,3091,12,0,3095,0:0:0:0:
256,192,3093,12,0,3097,0:0:0:0:
256,192,3095,12,0,3099,0:0:0:0:
256,192,3097,12,0,3101,0:0:0:0:
256,192,3100,12,0,3104,0:0:0:0:
256,192,3102,12,0,3106,0:0:0:0:
256,192,3104,12,0,3108,0:0:0:0:
256,192,3106,12,0,3110,0:0:0:0:
256,192,3108,12,0,3112,0:0:0:0:
256,192,3110,12,0,3114,0:0:0:0:
256,192,3112,12,0,3116,0:0:0:0:
256,192,3114,12,0,3118,0:0:0:0:
256,192,3117,12,0,3121,0:0:0:0:
256,192,3119,12,0,3123,0:0:0:0:
256,192,3121,12,0,3125,0:0:0:0:
256,192,3123,12,0,3127,0:0:0:0:
256,192,3125,12,0,3129,0:0:0:0:
256,192,3127,12,0,3131,0:0:0:0:
256,192,3129,12,0,3133,0:0:0:0:
256,192,3131,12,0,3135,0:0:0:0:
256,192,3134,12,0,3138,0:0:0:0:
256,192,3136,12,0,3140,0:0:0:0:
256,192,3138,12,0,3142,0:0:0:0:
256,192,3140,12,0,3144,0:0:0:0:
256,192,3142,12,0,3146,0:0:0:0:
256,192,3144,12,0,3148,0:0:0:0:
256,192,3146,12,0,3150,0:0:0:0:
256,192,3148,12,0,3152,0:0:0:0:
256,192,3151,12,0,3155,0:0:0:0:
256,192,3153,12,0,3157,0:0:0:0:
256,192,3155,12,0,3159,0:0:0:0:
256,192,3157,12,0,3161,0:0:0:0:
256,192,3159,12,0,3163,0:0:0:0:
256,192,3161,12,0,3165,0:0:0:0:
256,192,3163,12,0,3167,0:0:0:0:
256,192,3165,12,0,3169,0:0:0:0:
256,192,3168,12,0,3172,0:0:0:0:
256,192,3170,12,0,3174,0:0:0:0:
256,192,3172,12,0,3176,0:0:0:0:
256,192,3174,12,0,3178,0:0:0:0:
256,192,3176,12,0,3180,0:0:0:0:
256,192,3178,12,0,3182,0:0:0:0:
256,192,3180,12,0,3184,0:0:0:0:
256,192,3182,12,0,3186,0:0:0:0:
256,192,3185,12,0,3189,0:0:0:0:
256,192,3187,12,0,3191,0:0:0:0:
256,192,3189,12,0,3193,0:0:0:0:
256,192,3191,12,0,3195,0:0:0:0:
256,192,3193,12,0,3197,0:0:0:0:
256,192,3195,12,0,3199,0:0:0:0:
256,192,3197,12,0,3201,0:0:0:0:
256,192,3199,12,0,3203,0:0:0:0:
256,192,3202,12,0,3206,0:0:0:0:
256,192,3204,12,0,3208,0:0:0:0:
256,192,3206,12,0,3210,0:0:0:0:
256,192,3208,12,0,3212,0:0:0:0:
256,192,3210,12,0,3214,0:0:0:0:
256,192,3212,12,0,3216,0:0:0:0:
256,192,3214,12,0,3218,0:0:0:0:
256,192,3216,12,0,3220,0:0:0:0:
256,192,3219,12,0,3223,0:0:0:0:
256,192,3221,12,0,3225,0:0:0:0:
256,192,3223,12,0,3227,0:0:0:0:
256,192,3225,12,0,3229,0:0:0:0:
256,192,3227,12,0,3231,0:0:0:0:
256,192,3229,12,0,3233,0:0:0:0:
256,192,3231,12,0,3235,0:0:0:0:
256,192,3233,12,0,3237,0:0:0:0:
256,192,3236,12,0,3240,0:0:0:0:
256,192,3238,12,0,3242,0:0:0:0:
256,192,3240,12,0,3244,0:0:0:0:
256,192,3242,12,0,3246,0:0:0:0:
256,192,3244,12,0,3248,0:0:0:0:
256,192,3246,12,0,3250,0:0:0:0:
256,192,3248,12,0,3252,0:0:0:0:
256,192,3250,12,0,3254,0:0:0:0:
256,192,3253,12,0,3257,0:0:0:0:
256,192,3255,12,0,3259,0:0:0:0:
256,192,3257,12,0,3261,0:0:0:0:
256,192,3259,12,0,3263,0:0:0:0:
256,192,3261,12,0,3265,0:0:0:0:
256,192,3263,12,0,3267,0:0:0:0:
256,192,3265,12,0,3269,0:0:0:0:
256,192,3267,12,0,3271,0:0:0:0:
256,192,3272,12,0,3276,0:0:0:0:
256,192,3274,12,0,3278,0:0:0:0:
256,192,3276,12,0,3280,0:0:0:0:
256,192,3278,12,0,3282,0:0:0:0:
256,192,3280,12,0,3284,0:0:0:0:
256,192,3282,12,0,3286,0:0:0:0:
256,192,3284,12,0,3288,0:0:0:0:
256,192,3286,12,0,3290,0:0:0:0:
256,192,3289,12,0,3293,0:0:0:0:
256,192,3291,12,0,3295,0:0:0:0:
256,192,3293,12,0,3297,0:0:0:0:
256,192,3295,12,0,3299,0:0:0:0:
256,192,3297,12,0,3301,0:0:0:0:
256,192,3299,12,0,3303,0:0:0:0:
256,192,3301,12,0,3305,0:0:0:0:
256,192,3303,12,0,3307,0:0:0:0:
256,192,3306,12,0,3310,0:0:0:0:
256,192,3308,12,0,3312,0:0:0:0:
256,192,3310,12,0,3314,0:0:0:0:
256,192,3312,12,0,3316,0:0:0:0:
256,192,3314,12,0,3318,0:0:0:0:
256,192,3316,12,0,3320,0:0:0:0:
256,192,3318,12,0,3322,0:0:0:0:
256,192,3320,12,0,3324,0:0:0:0:
256,192,3323,12,0,3327,0:0:0:0:
256,192,3325,12,0,3329,0:0:0:0:
256,192,3327,12,0,3331,0:0:0:0:
256,192,3329,12,0,3333,0:0:0:0:
256,192,3331,12,0,3335,0:0:0:0:
256,192,3333,12,0,3337,0:0:0:0:
256,192,3335,12,0,3339,0:0:0:0:
256,192,3337,12,0,3341,0:0:0:0:
256,192,3340,12,0,3344,0:0:0:0:
256,192,3342,12,0,3346,0:0:0:0:
256,192,3344,12,0,3348,0:0:0:0:
256,192,3346,12,0,3350,0:0:0:0:
256,192,3348,12,0,3352,0:0:0:0:
256,192,3350,12,0,3354,0:0:0:0:
256,192,3352,12,0,3356,0:0:0:0:
256,192,3354,12,0,3358,0:0:0:0:
256,192,3357,12,0,3361,0:0:0:0:
256,192,3359,12,0,3363,0:0:0:0:
256,192,3361,12,0,3365,0:0:0:0:
256,192,3363,12,0,3367,0:0:0:0:
256,192,3365,12,0,3369,0:0:0:0:
256,192,3367,12,0,3371,0:0:0:0:
256,192,3369,12,0,3373,0:0:0:0:
256,192,3371,12,0,3375,0:0:0:0:
256,192,3374,12,0,3378,0:0:0:0:
256,192,3376,12,0,3380,0:0:0:0:
256,192,3378,12,0,3382,0:0:0:0:
256,192,3380,12,0,3384,0:0:0:0:
256,192,3382,12,0,3386,0:0:0:0:
256,192,3384,12,0,3388,0:0:0:0:
256,192,3386,12,0,3390,0:0:0:0:
256,192,3388,12,0,3392,0:0:0:0:
256,192,3391,12,0,3395,0:0:0:0:
256,192,3393,12,0,3397,0:0:0:0:
256,192,3395,12,0,3399,0:0:0:0:
256,192,3397,12,0,3401,0:0:0:0:
256,192,3399,12,0,3403,0:0:0:0:
256,192,3401,12,0,3405,0:0:0:0:
256,192,3403,12,0,3407,0:0:0:0:
256,192,3405,12,0,3409,0:0:0:0:
256,192,3408,12,0,3412,0:0:0:0:
256,192,3410,12,0,3414,0:0:0:0:
256,192,3412,12,0,3416,0:0:0:0:
256,192,3414,12,0,3418,0:0:0:0:
256,192,3416,12,0,3420,0:0:0:0:
256,192,3418,12,0,3422,0:0:0:0:
256,192,3420,12,0,3424,0:0:0:0:
256,192,3422,12,0,3426,0:0:0:0:
256,192,3425,12,0,3429,0:0:0:0:
256,192,3427,12,0,3431,0:0:0:0:
256,192,3429,12,0,3433,0:0:0:0:
256,192,3431,12,0,3435,0:0:0:0:
256,192,3433,12,0,3437,0:0:0:0:
256,192,3435,12,0,3439,0:0:0:0:
256,192,3437,12,0,3441,0:0:0:0:
256,192,3439,12,0,3443,0:0:0:0:
256,192,3442,12,0,3446,0:0:0:0:
256,192,3444,12,0,3448,0:0:0:0:
256,192,3446,12,0,3450,0:0:0:0:
256,192,3448,12,0,3452,0:0:0:0:
256,192,3450,12,0,3454,0:0:0:0:
256,192,3452,12,0,3456,0:0:0:0:
256,192,3454,12,0,3458,0:0:0:0:
256,192,3456,12,0,3460,0:0:0:0:
256,192,3459,12,0,3463,0:0:0:0:
256,192,3461,12,0,3465,0:0:0:0:
256,192,3463,12,0,3467,0:0:0:0:
256,192,3465,12,0,3469,0:0:0:0:
256,192,3467,12,0,3471,0:0:0:0:
256,192,3469,12,0,3473,0:0:0:0:
256,192,3471,12,0,3475,0:0:0:0:
256,192,3473,12,0,3477,0:0:0:0:
256,192,3476,12,0,3480,0:0:0:0:
256,192,3478,12,0,3482,0:0:0:0:
256,192,3480,12,0,3484,0:0:0:0:
256,192,3482,12,0,3486,0:0:0:0:
256,192,3484,12,0,3488,0:0:0:0:
256,192,3486,12,0,3490,0:0:0:0:
256,192,3488,12,0,3492,0:0:0:0:
256,192,3490,12,0,3494,0:0:0:0:
256,192,3493,12,0,3497,0:0:0:0:
256,192,3495,12,0,3499,0:0:0:0:
256,192,3497,12,0,3501,0:0:0:0:
256,192,3499,12,0,3503,0:0:0:0:
256,192,3501,12,0,3505,0:0:0:0:
256,192,3503,12,0,3507,0:0:0:0:
256,192,3505,12,0,3509,0:0:0:0:
256,192,3507,12,0,3511,0:0:0:0:
256,192,3510,12,0,3514,0:0:0:0:
256,192,3512,12,0,3516,0:0:0:0:
256,192,3514,12,0,3518,0:0:0:0:
256,192,3516,12,0,3520,0:0:0:0:
256,192,3518,12,0,3522,0:0:0:0:
256,192,3520,12,0,3524,0:0:0:0:
256,192,3522,12,0,3526,0:0:0:0:
256,192,3524,12,0,3528,0:0:0:0:
256,192,3527,12,0,3531,0:0:0:0:
256,192,3529,12,0,3533,0:0:0:0:
256,192,3531,12,0,3535,0:0:0:0:
256,192,3533,12,0,3537,0:0:0:0:
256,192,3535,12,0,3539,0:0:0:0:
256,192,3537,12,0,3541,0:0:0:0:
256,192,3539,12,0,3543,0:0:0:0:
256,192,3541,12,0,3545,0:0:0:0:
256,192,3544,12,0,3548,0:0:0:0:
256,192,3546,12,0,3550,0:0:0:0:
256,192,3548,12,0,3552,0:0:0:0:
256,192,3550,12,0,3554,0:0:0:0:
256,192,3552,12,0,3556,0:0:0:0:
256,192,3554,12,0,3558,0:0:0:0:
256,192,3556,12,0,3560,0:0:0:0:
256,192,3558,12,0,3562,0:0:0:0:
256,192,3561,12,0,3565,0:0:0:0:
256,192,3563,12,0,3567,0:0:0:0:
256,192,3565,12,0,3569,0:0:0:0:
256,192,3567,12,0,3571,0:0:0:0:
256,192,3569,12,0,3573,0:0:0:0:
256,192,3571,12,0,3575,0:0:0:0:
256,192,3573,12,0,3577,0:0:0:0:
256,192,3575,12,0,3579,0:0:0:0:
256,192,3578,12,0,3582,0:0:0:0:
256,192,3580,12,0,3584,0:0:0:0:
256,192,3582,12,0,3586,0:0:0:0:
256,192,3584,12,0,3588,0:0:0:0:
256,192,3586,12,0,3590,0:0:0:0:
256,192,3588,12,0,3592,0:0:0:0:
256,192,3590,12,0,3594,0:0:0:0:
256,192,3592,12,0,3596,0:0:0:0:
256,192,3595,12,0,3599,0:0:0:0:
256,192,3597,12,0,3601,0:0:0:0:
256,192,3599,12,0,3603,0:0:0:0:
256,192,3601,12,0,3605,0:0:0:0:
256,192,3603,12,0,3607,0:0:0:0:
256,192,3605,12,0,3609,0:0:0:0:
256,192,3607,12,0,3611,0:0:0:0:
256,192,3609,12,0,3613,0:0:0:0:
256,192,3612,12,0,3616,0:0:0:0:
256,192,3614,12,0,3618,0:0:0:0:
256,192,3616,12,0,3620,0:0:0:0:
256,192,3618,12,0,3622,0:0:0:0:
256,192,3620,12,0,3624,0:0:0:0:
256,192,3622,12,0,3626,0:0:0:0:
256,192,3624,12,0,3628,0:0:0:0:
256,192,3626,12,0,3630,0:0:0:0:
256,192,3629,12,0,3633,0:0:0:0:
256,192,3631,12,0,3635,0:0:0:0:
256,192,3633,12,0,3637,0:0:0:0:
256,192,3635,12,0,3639,0:0:0:0:
256,192,3637,12,0,3641,0:0:0:0:
256,192,3639,12,0,3643,0:0:0:0:
256,192,3641,12,0,3645,0:0:0:0:
256,192,3643,12,0,3647,0:0:0:0:
256,192,3646,12,0,3650,0:0:0:0:
256,192,3648,12,0,3652,0:0:0:0:
256,192,3650,12,0,3654,0:0:0:0:
256,192,3652,12,0,3656,0:0:0:0:
256,192,3654,12,0,3658,0:0:0:0:
256,192,3656,12,0,3660,0:0:0:0:
256,192,3658,12,0,3662,0:0:0:0:
256,192,3660,12,0,3664,0:0:0:0:
256,192,3663,12,0,3667,0:0:0:0:
256,192,3665,12,0,3669,0:0:0:0:
256,192,3667,12,0,3671,0:0:0:0:
256,192,3669,12,0,3673,0:0:0:0:
256,192,3671,12,0,3675,0:0:0:0:
256,192,3673,12,0,3677,0:0:0:0:
256,192,3675,12,0,3679,0:0:0:0:
256,192,3677,12,0,3681,0:0:0:0:
256,192,3680,12,0,3684,0:0:0:0:
256,192,3682,12,0,3686,0:0:0:0:
256,192,3684,12,0,3688,0:0:0:0:
256,192,3686,12,0,3690,0:0:0:0:
256,192,3688,12,0,3692,0:0:0:0:
256,192,3690,12,0,3694,0:0:0:0:
256,192,3692,12,0,3696,0:0:0:0:
256,192,3694,12,0,3698,0:0:0:0:
256,192,3697,12,0,3701,0:0:0:0:
256,192,3699,12,0,3703,0:0:0:0:
256,192,3701,12,0,3705,0:0:0:0:
256,192,3703,12,0,3707,0:0:0:0:
256,192,3705,12,0,3709,0:0:0:0:
256,192,3707,12,0,3711,0:0:0:0:
256,192,3709,12,0,3713,0:0:0:0:
256,192,3711,12,0,3715,0:0:0:0:
256,192,3714,12,0,3718,0:0:0:0:
256,192,3716,12,0,3720,0:0:0:0:
256,192,3718,12,0,3722,0:0:0:0:
256,192,3720,12,0,3724,0:0:0:0:
256,192,3722,12,0,3726,0:0:0:0:
256,192,3724,12,0,3728,0:0:0:0:
256,192,3726,12,0,3730,0:0:0:0:
256,192,3728,12,0,3732,0:0:0:0:
256,192,3731,12,0,3735,0:0:0:0:
256,192,3733,12,0,3737,0:0:0:0:
256,192,3735,12,0,3739,0:0:0:0:
256,192,3737,12,0,3741,0:0:0:0:
256,192,3739,12,0,3743,0:0:0:0:
256,192,3741,12,0,3745,0:0:0:0:
256,192,3743,12,0,3747,0:0:0:0:
256,192,3745,12,0,3749,0:0:0:0:
256,192,3748,12,0,3752,0:0:0:0:
256,192,3750,12,0,3754,0:0:0:0:
256,192,3752,12,0,3756,0:0:0:0:
256,192,3754,12,0,3758,0:0:0:0:
256,192,3756,12,0,3760,0:0:0:0:
256,192,3758,12,0,3762,0:0:0:0:
256,192,3760,12,0,3764,0:0:0:0:
256,192,3762,12,0,3766,0:0:0:0:
256,192,3765,12,0,3769,0:0:0:0:
256,192,3767,12,0,3771,0:0:0:0:
256,192,3769,12,0,3773,0:0:0:0:
256,192,3771,12,0,3775,0:0:0:0:
256,192,3773,12,0,3777,0:0:0:0:
256,192,3775,12,0,3779,0:0:0:0:
256,192,3777,12,0,3781,0:0:0:0:
256,192,3779,12,0,3783,0:0:0:0:
256,192,3782,12,0,3786,0:0:0:0:
256,192,3784,12,0,3788,0:0:0:0:
256,192,3786,12,0,3790,0:0:0:0:
256,192,3788,12,0,3792,0:0:0:0:
256,192,3790,12,0,3794,0:0:0:0:
256,192,3792,12,0,3796,0:0:0:0:
256,192,3794,12,0,3798,0:0:0:0:
256,192,3796,12,0,3800,0:0:0:0:
256,192,3799,12,0,3803,0:0:0:0:
256,192,3801,12,0,3805,0:0:0:0:
256,192,3803,12,0,3807,0:0:0:0:
256,192,3805,12,0,3809,0:0:0:0:
256,192,3807,12,0,3811,0:0:0:0:
256,192,3809,12,0,3813,0:0:0:0:
256,192,3811,12,0,3815,0:0:0:0:
256,192,3813,12,0,3817,0:0:0:0:
256,192,3817,12,0,3821,0:0:0:0:
256,192,3819,12,0,3823,0:0:0:0:
256,192,3821,12,0,3825,0:0:0:0:
256,192,3823,12,0,3827,0:0:0:0:
256,192,3825,12,0,3829,0:0:0:0:
256,192,3827,12,0,3831,0:0:0:0:
256,192,3829,12,0,3833,0:0:0:0:
256,192,3831,12,0,3835,0:0:0:0:
256,192,3834,12,0,3838,0:0:0:0:
256,192,3836,12,0,3840,0:0:0:0:
256,192,3838,12,0,3842,0:0:0:0:
256,192,3840,12,0,3844,0:0:0:0:
256,192,3842,12,0,3846,0:0:0:0:
256,192,3844,12,0,3848,0:0:0:0:
256,192,3846,12,0,3850,0:0:0:0:
256,192,3848,12,0,3852,0:0:0:0:
256,192,3851,12,0,3855,0:0:0:0:
256,192,3853,12,0,3857,0:0:0:0:
256,192,3855,12,0,3859,0:0:0:0:
256,192,3857,12,0,3861,0:0:0:0:
256,192,3859,12,0,3863,0:0:0:0:
256,192,3861,12,0,3865,0:0:0:0:
256,192,3863,12,0,3867,0:0:0:0:
256,192,3865,12,0,3869,0:0:0:0:
256,192,3868,12,0,3872,0:0:0:0:
256,192,3870,12,0,3874,0:0:0:0:
256,192,3872,12,0,3876,0:0:0:0:
256,192,3874,12,0,3878,0:0:0:0:
256,192,3876,12,0,3880,0:0:0:0:
256,192,3878,12,0,3882,0:0:0:0:
256,192,3880,12,0,3884,0:0:0:0:
256,192,3882,12,0,3886,0:0:0:0:
256,192,3885,12,0,3889,0:0:0:0:
256,192,3887,12,0,3891,0:0:0:0:
256,192,3889,12,0,3893,0:0:0:0:
256,192,3891,12,0,3895,0:0:0:0:
256,192,3893,12,0,3897,0:0:0:0:
256,192,3895,12,0,3899,0:0:0:0:
256,192,3897,12,0,3901,0:0:0:0:
256,192,3899,12,0,3903,0:0:0:0:
256,192,3902,12,0,3906,0:0:0:0:
256,192,3904,12,0,3908,0:0:0:0:
256,192,3906,12,0,3910,0:0:0:0:
256,192,3908,12,0,3912,0:0:0:0:
256,192,3910,12,0,3914,0:0:0:0:
256,192,3912,12,0,3916,0:0:0:0:
256,192,3914,12,0,3918,0:0:0:0:
256,192,3916,12,0,3920,0:0:0:0:
256,192,3919,12,0,3923,0:0:0:0:
256,192,3921,12,0,3925,0:0:0:0:
256,192,3923,12,0,3927,0:0:0:0:
256,192,3925,12,0,3929,0:0:0:0:
256,192,3927,12,0,3931,0:0:0:0:
256,192,3929,12,0,3933,0:0:0:0:
256,192,3931,12,0,3935,0:0:0:0:
256,192,3933,12,0,3937,0:0:0:0:
256,192,3936,12,0,3940,0:0:0:0:
256,192,3938,12,0,3942,0:0:0:0:
256,192,3940,12,0,3944,0:0:0:0:
256,192,3942,12,0,3946,0:0:0:0:
256,192,3944,12,0,3948,0:0:0:0:
256,192,3946,12,0,3950,0:0:0:0:
256,192,3948,12,0,3952,0:0:0:0:
256,192,3950,12,0,3954,0:0:0:0:
256,192,3953,12,0,3957,0:0:0:0:
256,192,3955,12,0,3959,0:0:0:0:
256,192,3957,12,0,3961,0:0:0:0:
256,192,3959,12,0,3963,0:0:0:0:
256,192,3961,12,0,3965,0:0:0:0:
256,192,3963,12,0,3967,0:0:0:0:
256,192,3965,12,0,3969,0:0:0:0:
256,192,3967,12,0,3971,0:0:0:0:
256,192,3970,12,0,3974,0:0:0:0:
256,192,3972,12,0,3976,0:0:0:0:
256,192,3974,12,0,3978,0:0:0:0:
256,192,3976,12,0,3980,0:0:0:0:
256,192,3978,12,0,3982,0:0:0:0:
256,192,3980,12,0,3984,0:0:0:0:
256,192,3982,12,0,3986,0:0:0:0:
256,192,3984,12,0,3988,0:0:0:0:
256,192,3987,12,0,3991,0:0:0:0:
256,192,3989,12,0,3993,0:0:0:0:
256,192,3991,12,0,3995,0:0:0:0:
256,192,3993,12,0,3997,0:0:0:0:
256,192,3995,12,0,3999,0:0:0:0:
256,192,3997,12,0,4001,0:0:0:0:
256,192,3999,12,0,4003,0:0:0:0:
256,192,4001,12,0,4005,0:0:0:0:
256,192,4004,12,0,4008,0:0:0:0:
256,192,4006,12,0,4010,0:0:0:0:
256,192,4008,12,0,4012,0:0:0:0:
256,192,4010,12,0,4014,0:0:0:0:
256,192,4012,12,0,4016,0:0:0:0:
256,192,4014,12,0,4018,0:0:0:0:
256,192,4016,12,0,4020,0:0:0:0:
256,192,4018,12,0,4022,0:0:0:0:
256,192,4021,12,0,4025,0:0:0:0:
256,192,4023,12,0,4027,0:0:0:0:
256,192,4025,12,0,4029,0:0:0:0:
256,192,4027,12,0,4031,0:0:0:0:
256,192,4029,12,0,4033,0:0:0:0:
256,192,4031,12,0,4035,0:0:0:0:
256,192,4033,12,0,4037,0:0:0:0:
256,192,4035,12,0,4039,0:0:0:0:
256,192,4038,12,0,4042,0:0:0:0:
256,192,4040,12,0,4044,0:0:0:0:
256,192,4042,12,0,4046,0:0:0:0:
256,192,4044,12,0,4048,0:0:0:0:
256,192,4046,12,0,4050,0:0:0:0:
256,192,4048,12,0,4052,0:0:0:0:
256,192,4050,12,0,4054,0:0:0:0:
256,192,4052,12,0,4056,0:0:0:0:
256,192,4055,12,0,4059,0:0:0:0:
256,192,4057,12,0,4061,0:0:0:0:
256,192,4059,12,0,4063,0:0:0:0:
256,192,4061,12,0,4065,0:0:0:0:
256,192,4063,12,0,4067,0:0:0:0:
256,192,4065,12,0,4069,0:0:0:0:
256,192,4067,12,0,4071,0:0:0:0:
256,192,4069,12,0,4073,0:0:0:0:
256,192,4072,12,0,4076,0:0:0:0:
256,192,4074,12,0,4078,0:0:0:0:
256,192,4076,12,0,4080,0:0:0:0:
256,192,4078,12,0,4082,0:0:0:0:
256,192,4080,12,0,4084,0:0:0:0:
256,192,4082,12,0,4086,0:0:0:0:
256,192,4084,12,0,4088,0:0:0:0:
256,192,4086,12,0,4090,0:0:0:0:
256,192,4089,12,0,4093,0:0:0:0:
256,192,4091,12,0,4095,0:0:0:0:
256,192,4093,12,0,4097,0:0:0:0:
256,192,4095,12,0,4099,0:0:0:0:
256,192,4097,12,0,4101,0:0:0:0:
256,192,4099,12,0,4103,0:0:0:0:
256,192,4101,12,0,4105,0:0:0:0:
256,192,4103,12,0,4107,0:0:0:0:
256,192,4106,12,0,4110,0:0:0:0:
256,192,4108,12,0,4112,0:0:0:0:
256,192,4110,12,0,4114,0:0:0:0:
256,192,4112,12,0,4116,0:0:0:0:
256,192,4114,12,0,4118,0:0:0:0:
256,192,4116,12,0,4120,0:0:0:0:
256,192,4118,12,0,4122,0:0:0:0:
256,192,4120,12,0,4124,0:0:0:0:
256,192,4123,12,0,4127,0:0:0:0:
256,192,4125,12,0,4129,0:0:0:0:
256,192,4127,12,0,4131,0:0:0:0:
256,192,4129,12,0,4133,0:0:0:0:
256,192,4131,12,0,4135,0:0:0:0:
256,192,4133,12,0,4137,0:0:0:0:
256,192,4135,12,0,4139,0:0:0:0:
256,192,4137,12,0,4141,0:0:0:0:
256,192,4140,12,0,4144,0:0:0:0:
256,192,4142,12,0,4146,0:0:0:0:
256,192,4144,12,0,4148,0:0:0:0:
256,192,4146,12,0,4150,0:0:0:0:
256,192,4148,12,0,4152,0:0:0:0:
256,192,4150,12,0,4154,0:0:0:0:
256,192,4152,12,0,4156,0:0:0:0:
256,192,4154,12,0,4158,0:0:0:0:
256,192,4157,12,0,4161,0:0:0:0:
256,192,4159,12,0,4163,0:0:0:0:
256,192,4161,12,0,4165,0:0:0:0:
256,192,4163,12,0,4167,0:0:0:0:
256,192,4165,12,0,4169,0:0:0:0:
256,192,4167,12,0,4171,0:0:0:0:
256,192,4169,12,0,4173,0:0:0:0:
256,192,4171,12,0,4175,0:0:0:0:
256,192,4174,12,0,4178,0:0:0:0:
256,192,4176,12,0,4180,0:0:0:0:
256,192,4178,12,0,4182,0:0:0:0:
256,192,4180,12,0,4184,0:0:0:0:
256,192,4182,12,0,4186,0:0:0:0:
256,192,4184,12,0,4188,0:0:0:0:
256,192,4186,12,0,4190,0:0:0:0:
256,192,4188,12,0,4192,0:0:0:0:
256,192,4191,12,0,4195,0:0:0:0:
256,192,4193,12,0,4197,0:0:0:0:
256,192,4195,12,0,4199,0:0:0:0:
256,192,4197,12,0,4201,0:0:0:0:
256,192,4199,12,0,4203,0:0:0:0:
256,192,4201,12,0,4205,0:0:0:0:
256,192,4203,12,0,4207,0:0:0:0:
256,192,4205,12,0,4209,0:0:0:0:
256,192,4208,12,0,4212,0:0:0:0:
256,192,4210,12,0,4214,0:0:0:0:
256,192,4212,12,0,4216,0:0:0:0:
256,192,4214,12,0,4218,0:0:0:0:
256,192,4216,12,0,4220,0:0:0:0:
256,192,4218,12,0,4222,0:0:0:0:
256,192,4220,12,0,4224,0:0:0:0:
256,192,4222,12,0,4226,0:0:0:0:
256,192,4225,12,0,4229,0:0:0:0:
256,192,4227,12,0,4231,0:0:0:0:
256,192,4229,12,0,4233,0:0:0:0:
256,192,4231,12,0,4235,0:0:0:0:
256,192,4233,12,0,4237,0:0:0:0:
256,192,4235,12,0,4239,0:0:0:0:
256,192,4237,12,0,4241,0:0:0:0:
256,192,4239,12,0,4243,0:0:0:0:
256,192,4242,12,0,4246,0:0:0:0:
256,192,4244,12,0,4248,0:0:0:0:
256,192,4246,12,0,4250,0:0:0:0:
256,192,4248,12,0,4252,0:0:0:0:
256,192,4250,12,0,4254,0:0:0:0:
256,192,4252,12,0,4256,0:0:0:0:
256,192,4254,12,0,4258,0:0:0:0:
256,192,4256,12,0,4260,0:0:0:0:
256,192,4259,12,0,4263,0:0:0:0:
256,192,4261,12,0,4265,0:0:0:0:
256,192,4263,12,0,4267,0:0:0:0:
256,192,4265,12,0,4269,0:0:0:0:
256,192,4267,12,0,4271,0:0:0:0:
256,192,4269,12,0,4273,0:0:0:0:
256,192,4271,12,0,4275,0:0:0:0:
256,192,4273,12,0,4277,0:0:0:0:
256,192,4276,12,0,4280,0:0:0:0:
256,192,4278,12,0,4282,0:0:0:0:
256,192,4280,12,0,4284,0:0:0:0:
256,192,4282,12,0,4286,0:0:0:0:
256,192,4284,12,0,4288,0:0:0:0:
256,192,4286,12,0,4290,0:0:0:0:
256,192,4288,12,0,4292,0:0:0:0:
256,192,4290,12,0,4294,0:0:0:0:
256,192,4293,12,0,4297,0:0:0:0:
256,192,4295,12,0,4299,0:0:0:0:
256,192,4297,12,0,4301,0:0:0:0:
256,192,4299,12,0,4303,0:0:0:0:
256,192,4301,12,0,4305,0:0:0:0:
256,192,4303,12,0,4307,0:0:0:0:
256,192,4305,12,0,4309,0:0:0:0:
256,192,4307,12,0,4311,0:0:0:0:
256,192,4310,12,0,4314,0:0:0:0:
256,192,4312,12,0,4316,0:0:0:0:
256,192,4314,12,0,4318,0:0:0:0:
256,192,4316,12,0,4320,0:0:0:0:
256,192,4318,12,0,4322,0:0:0:0:
256,192,4320,12,0,4324,0:0:0:0:
256,192,4322,12,0,4326,0:0:0:0:
256,192,4324,12,0,4328,0:0:0:0:
256,192,4327,12,0,4331,0:0:0:0:
256,192,4329,12,0,4333,0:0:0:0:
256,192,4331,12,0,4335,0:0:0:0:
256,192,4333,12,0,4337,0:0:0:0:
256,192,4335,12,0,4339,0:0:0:0:
256,192,4337,12,0,4341,0:0:0:0:
256,192,4339,12,0,4343,0:0:0:0:
256,192,4341,12,0,4345,0:0:0:0:
256,192,4344,12,0,4348,0:0:0:0:
256,192,4346,12,0,4350,0:0:0:0:
256,192,4348,12,0,4352,0:0:0:0:
256,192,4350,12,0,4354,0:0:0:0:
256,192,4352,12,0,4356,0:0:0:0:
256,192,4354,12,0,4358,0:0:0:0:
256,192,4356,12,0,4360,0:0:0:0:
256,192,4358,12,0,4362,0:0:0:0:
256,192,4363,12,0,4367,0:0:0:0:
256,192,4365,12,0,4369,0:0:0:0:
256,192,4367,12,0,4371,0:0:0:0:
256,192,4369,12,0,4373,0:0:0:0:
256,192,4371,12,0,4375,0:0:0:0:
256,192,4373,12,0,4377,0:0:0:0:
256,192,4375,12,0,4379,0:0:0:0:
256,192,4377,12,0,4381,0:0:0:0:
256,192,4380,12,0,4384,0:0:0:0:
256,192,4382,12,0,4386,0:0:0:0:
256,192,4384,12,0,4388,0:0:0:0:
256,192,4386,12,0,4390,0:0:0:0:
256,192,4388,12,0,4392,0:0:0:0:
256,192,4390,12,0,4394,0:0:0:0:
256,192,4392,12,0,4396,0:0:0:0:
256,192,4394,12,0,4398,0:0:0:0:
256,192,4397,12,0,4401,0:0:0:0:
256,192,4399,12,0,4403,0:0:0:0:
256,192,4401,12,0,4405,0:0:0:0:
256,192,4403,12,0,4407,0:0:0:0:
256,192,4405,12,0,4409,0:0:0:0:
256,192,4407,12,0,4411,0:0:0:0:
256,192,4409,12,0,4413,0:0:0:0:
256,192,4411,12,0,4415,0:0:0:0:
256,192,4414,12,0,4418,0:0:0:0:
256,192,4416,12,0,4420,0:0:0:0:
256,192,4418,12,0,4422,0:0:0:0:
256,192,4420,12,0,4424,0:0:0:0:
256,192,4422,12,0,4426,0:0:0:0:
256,192,4424,12,0,4428,0:0:0:0:
256,192,4426,12,0,4430,0:0:0:0:
256,192,4428,12,0,4432,0:0:0:0:
256,192,4431,12,0,4435,0:0:0:0:
256,192,4433,12,0,4437,0:0:0:0:
256,192,4435,12,0,4439,0:0:0:0:
256,192,4437,12,0,4441,0:0:0:0:
256,192,4439,12,0,4443,0:0:0:0:
256,192,4441,12,0,4445,0:0:0:0:
256,192,4443,12,0,4447,0:0:0:0:
256,192,4445,12,0,4449,0:0:0:0:
256,192,4448,12,0,4452,0:0:0:0:
256,192,4450,12,0,4454,0:0:0:0:
256,192,4452,12,0,4456,0:0:0:0:
256,192,4454,12,0,4458,0:0:0:0:
256,192,4456,12,0,4460,0:0:0:0:
256,192,4458,12,0,4462,0:0:0:0:
256,192,4460,12,0,4464,0:0:0:0:
256,192,4462,12,0,4466,0:0:0:0:
256,192,4465,12,0,4469,0:0:0:0:
256,192,4467,12,0,4471,0:0:0:0:
256,192,4469,12,0,4473,0:0:0:0:
256,192,4471,12,0,4475,0:0:0:0:
256,192,4473,12,0,4477,0:0:0:0:
256,192,4475,12,0,4479,0:0:0:0:
256,192,4477,12,0,4481,0:0:0:0:
256,192,4479,12,0,4483,0:0:0:0:
256,192,4482,12,0,4486,0:0:0:0:
256,192,4484,12,0,4488,0:0:0:0:
256,192,4486,12,0,4490,0:0:0:0:
256,192,4488,12,0,4492,0:0:0:0:
256,192,4490,12,0,4494,0:0:0:0:
256,192,4492,12,0,4496,0:0:0:0:
256,192,4494,12,0,4498,0:0:0:0:
256,192,4496,12,0,4500,0:0:0:0:
256,192,4499,12,0,4503,0:0:0:0:
256,192,4501,12,0,4505,0:0:0:0:
256,192,4503,12,0,4507,0:0:0:0:
256,192,4505,12,0,4509,0:0:0:0:
256,192,4507,12,0,4511,0:0:0:0:
256,192,4509,12,0,4513,0:0:0:0:
256,192,4511,12,0,4515,0:0:0:0:
256,192,4513,12,0,4517,0:0:0:0:
256,192,4516,12,0,4520,0:0:0:0:
256,192,4518,12,0,4522,0:0:0:0:
256,192,4520,12,0,4524,0:0:0:0:
256,192,4522,12,0,4526,0:0:0:0:
256,192,4524,12,0,4528,0:0:0:0:
256,192,4526,12,0,4530,0:0:0:0:
256,192,4528,12,0,4532,0:0:0:0:
256,192,4530,12,0,4534,0:0:0:0:
256,192,4533,12,0,4537,0:0:0:0:
256,192,4535,12,0,4539,0:0:0:0:
256,192,4537,12,0,4541,0:0:0:0:
256,192,4539,12,0,4543,0:0:0:0:
256,192,4541,12,0,4545,0:0:0:0:
256,192,4543,12,0,4547,0:0:0:0:
256,192,4545,12,0,4549,0:0:0:0:
256,192,4547,12,0,4551,0:0:0:0:
256,192,4550,12,0,4554,0:0:0:0:
256,192,4552,12,0,4556,0:0:0:0:
256,192,4554,12,0,4558,0:0:0:0:
256,192,4556,12,0,4560,0:0:0:0:
256,192,4558,12,0,4562,0:0:0:0:
256,192,4560,12,0,4564,0:0:0:0:
256,192,4562,12,0,4566,0:0:0:0:
256,192,4564,12,0,4568,0:0:0:0:
256,192,4567,12,0,4571,0:0:0:0:
256,192,4569,12,0,4573,0:0:0:0:
256,192,4571,12,0,4575,0:0:0:0:
256,192,4573,12,0,4577,0:0:0:0:
256,192,4575,12,0,4579,0:0:0:0:
256,192,4577,12,0,4581,0:0:0:0:
256,192,4579,12,0,4583,0:0:0:0:
256,192,4581,12,0,4585,0:0:0:0:
256,192,4584,12,0,4588,0:0:0:0:
256,192,4586,12,0,4590,0:0:0:0:
256,192,4588,12,0,4592,0:0:0:0:
256,192,4590,12,0,4594,0:0:0:0:
256,192,4592,12,0,4596,0:0:0:0:
256,192,4594,12,0,4598,0:0:0:0:
256,192,4596,12,0,4600,0:0:0:0:
256,192,4598,12,0,4602,0:0:0:0:
256,192,4601,12,0,4605,0:0:0:0:
256,192,4603,12,0,4607,0:0:0:0:
256,192,4605,12,0,4609,0:0:0:0:
256,192,4607,12,0,4611,0:0:0:0:
256,192,4609,12,0,4613,0:0:0:0:
256,192,4611,12,0,4615,0:0:0:0:
256,192,4613,12,0,4617,0:0:0:0:
256,192,4615,12,0,4619,0:0:0:0:
256,192,4618,12,0,4622,0:0:0:0:
256,192,4620,12,0,4624,0:0:0:0:
256,192,4622,12,0,4626,0:0:0:0:
256,192,4624,12,0,4628,0:0:0:0:
256,192,4626,12,0,4630,0:0:0:0:
256,192,4628,12,0,4632,0:0:0:0:
256,192,4630,12,0,4634,0:0:0:0:
256,192,4632,12,0,4636,0:0:0:0:
256,192,4635,12,0,4639,0:0:0:0:
256,192,4637,12,0,4641,0:0:0:0:
256,192,4639,12,0,4643,0:0:0:0:
256,192,4641,12,0,4645,0:0:0:0:
256,192,4643,12,0,4647,0:0:0:0:
256,192,4645,12,0,4649,0:0:0:0:
256,192,4647,12,0,4651,0:0:0:0:
256,192,4649,12,0,4653,0:0:0:0:
256,192,4652,12,0,4656,0:0:0:0:
256,192,4654,12,0,4658,0:0:0:0:
256,192,4656,12,0,4660,0:0:0:0:
256,192,4658,12,0,4662,0:0:0:0:
256,192,4660,12,0,4664,0:0:0:0:
256,192,4662,12,0,4666,0:0:0:0:
256,192,4664,12,0,4668,0:0:0:0:
256,192,4666,12,0,4670,0:0:0:0:
256,192,4669,12,0,4673,0:0:0:0:
256,192,4671,12,0,4675,0:0:0:0:
256,192,4673,12,0,4677,0:0:0:0:
256,192,4675,12,0,4679,0:0:0:0:
256,192,4677,12,0,4681,0:0:0:0:
256,192,4679,12,0,4683,0:0:0:0:
256,192,4681,12,0,4685,0:0:0:0:
256,192,4683,12,0,4687,0:0:0:0:
256,192,4686,12,0,4690,0:0:0:0:
256,192,4688,12,0,4692,0:0:0:0:
256,192,4690,12,0,4694,0:0:0:0:
256,192,4692,12,0,4696,0:0:0:0:
256,192,4694,12,0,4698,0:0:0:0:
256,192,4696,12,0,4700,0:0:0:0:
256,192,4698,12,0,4702,0:0:0:0:
256,192,4700,12,0,4704,0:0:0:0:
256,192,4703,12,0,4707,0:0:0:0:
256,192,4705,12,0,4709,0:0:0:0:
256,192,4707,12,0,4711,0:0:0:0:
256,192,4709,12,0,4713,0:0:0:0:
256,192,4711,12,0,4715,0:0:0:0:
256,192,4713,12,0,4717,0:0:0:0:
256,192,4715,12,0,4719,0:0:0:0:
256,192,4717,12,0,4721,0:0:0:0:
256,192,4720,12,0,4724,0:0:0:0:
256,192,4722,12,0,4726,0:0:0:0:
256,192,4724,12,0,4728,0:0:0:0:
256,192,4726,12,0,4730,0:0:0:0:
256,192,4728,12,0,4732,0:0:0:0:
256,192,4730,12,0,4734,0:0:0:0:
256,192,4732,12,0,4736,0:0:0:0:
256,192,4734,12,0,4738,0:0:0:0:
256,192,4737,12,0,4741,0:0:0:0:
256,192,4739,12,0,4743,0:0:0:0:
256,192,4741,12,0,4745,0:0:0:0:
256,192,4743,12,0,4747,0:0:0:0:
256,192,4745,12,0,4749,0:0:0:0:
256,192,4747,12,0,4751,0:0:0:0:
256,192,4749,12,0,4753,0:0:0:0:
256,192,4751,12,0,4755,0:0:0:0:
256,192,4754,12,0,4758,0:0:0:0:
256,192,4756,12,0,4760,0:0:0:0:
256,192,4758,12,0,4762,0:0:0:0:
256,192,4760,12,0,4764,0:0:0:0:
256,192,4762,12,0,4766,0:0:0:0:
256,192,4764,12,0,4768,0:0:0:0:
256,192,4766,12,0,4770,0:0:0:0:
256,192,4768,12,0,4772,0:0:0:0:
256,192,4771,12,0,4775,0:0:0:0:
256,192,4773,12,0,4777,0:0:0:0:
256,192,4775,12,0,4779,0:0:0:0:
256,192,4777,12,0,4781,0:0:0:0:
256,192,4779,12,0,4783,0:0:0:0:
256,192,4781,12,0,4785,0:0:0:0:
256,192,4783,12,0,4787,0:0:0:0:
256,192,4785,12,0,4789,0:0:0:0:
256,192,4788,12,0,4792,0:0:0:0:
256,192,4790,12,0,4794,0:0:0:0:
256,192,4792,12,0,4796,0:0:0:0:
256,192,4794,12,0,4798,0:0:0:0:
256,192,4796,12,0,4800,0:0:0:0:
256,192,4798,12,0,4802,0:0:0:0:
256,192,4800,12,0,4804,0:0:0:0:
256,192,4802,12,0,4806,0:0:0:0:
256,192,4805,12,0,4809,0:0:0:0:
256,192,4807,12,0,4811,0:0:0:0:
256,192,4809,12,0,4813,0:0:0:0:
256,192,4811,12,0,4815,0:0:0:0:
256,192,4813,12,0,4817,0:0:0:0:
256,192,4815,12,0,4819,0:0:0:0:
256,192,4817,12,0,4821,0:0:0:0:
256,192,4819,12,0,4823,0:0:0:0:
256,192,4822,12,0,4826,0:0:0:0:
256,192,4824,12,0,4828,0:0:0:0:
256,192,4826,12,0,4830,0:0:0:0:
256,192,4828,12,0,4832,0:0:0:0:
256,192,4830,12,0,4834,0:0:0:0:
256,192,4832,12,0,4836,0:0:0:0:
256,192,4834,12,0,4838,0:0:0:0:
256,192,4836,12,0,4840,0:0:0:0:
256,192,4839,12,0,4843,0:0:0:0:
256,192,4841,12,0,4845,0:0:0:0:
256,192,4843,12,0,4847,0:0:0:0:
256,192,4845,12,0,4849,0:0:0:0:
256,192,4847,12,0,4851,0:0:0:0:
256,192,4849,12,0,4853,0:0:0:0:
256,192,4851,12,0,4855,0:0:0:0:
256,192,4853,12,0,4857,0:0:0:0:
256,192,4856,12,0,4860,0:0:0:0:
256,192,4858,12,0,4862,0:0:0:0:
256,192,4860,12,0,4864,0:0:0:0:
256,192,4862,12,0,4866,0:0:0:0:
256,192,4864,12,0,4868,0:0:0:0:
256,192,4866,12,0,4870,0:0:0:0:
256,192,4868,12,0,4872,0:0:0:0:
256,192,4870,12,0,4874,0:0:0:0:
256,192,4873,12,0,4877,0:0:0:0:
256,192,4875,12,0,4879,0:0:0:0:
256,192,4877,12,0,4881,0:0:0:0:
256,192,4879,12,0,4883,0:0:0:0:
256,192,4881,12,0,4885,0:0:0:0:
256,192,4883,12,0,4887,0:0:0:0:
256,192,4885,12,0,4889,0:0:0:0:
256,192,4887,12,0,4891,0:0:0:0:
256,192,4890,12,0,4894,0:0:0:0:
256,192,4892,12,0,4896,0:0:0:0:
256,192,4894,12,0,4898,0:0:0:0:
256,192,4896,12,0,4900,0:0:0:0:
256,192,4898,12,0,4902,0:0:0:0:
256,192,4900,12,0,4904,0:0:0:0:
256,192,4902,12,0,4906,0:0:0:0:
256,192,4904,12,0,4908,0:0:0:0:
256,192,4908,12,0,4912,0:0:0:0:
256,192,4910,12,0,4914,0:0:0:0:
256,192,4912,12,0,4916,0:0:0:0:
256,192,4914,12,0,4918,0:0:0:0:
256,192,4916,12,0,4920,0:0:0:0:
256,192,4918,12,0,4922,0:0:0:0:
256,192,4920,12,0,4924,0:0:0:0:
256,192,4922,12,0,4926,0:0:0:0:
256,192,4925,12,0,4929,0:0:0:0:
256,192,4927,12,0,4931,0:0:0:0:
256,192,4929,12,0,4933,0:0:0:0:
256,192,4931,12,0,4935,0:0:0:0:
256,192,4933,12,0,4937,0:0:0:0:
256,192,4935,12,0,4939,0:0:0:0:
256,192,4937,12,0,4941,0:0:0:0:
256,192,4939,12,0,4943,0:0:0:0:
256,192,4942,12,0,4946,0:0:0:0:
256,192,4944,12,0,4948,0:0:0:0:
256,192,4946,12,0,4950,0:0:0:0:
256,192,4948,12,0,4952,0:0:0:0:
256,192,4950,12,0,4954,0:0:0:0:
256,192,4952,12,0,4956,0:0:0:0:
256,192,4954,12,0,4958,0:0:0:0:
256,192,4956,12,0,4960,0:0:0:0:
256,192,4959,12,0,4963,0:0:0:0:
256,192,4961,12,0,4965,0:0:0:0:
256,192,4963,12,0,4967,0:0:0:0:
256,192,4965,12,0,4969,0:0:0:0:
256,192,4967,12,0,4971,0:0:0:0:
256,192,4969,12,0,4973,0:0:0:0:
256,192,4971,12,0,4975,0:0:0:0:
256,192,4973,12,0,4977,0:0:0:0:
256,192,4976,12,0,4980,0:0:0:0:
256,192,4978,12,0,4982,0:0:0:0:
256,192,4980,12,0,4984,0:0:0:0:
256,192,4982,12,0,4986,0:0:0:0:
256,192,4984,12,0,4988,0:0:0:0:
256,192,4986,12,0,4990,0:0:0:0:
256,192,4988,12,0,4992,0:0:0:0:
256,192,4990,12,0,4994,0:0:0:0:
256,192,4993,12,0,4997,0:0:0:0:
256,192,4995,12,0,4999,0:0:0:0:
256,192,4997,12,0,5001,0:0:0:0:
256,192,4999,12,0,5003,0:0:0:0:
256,192,5001,12,0,5005,0:0:0:0:
256,192,5003,12,0,5007,0:0:0:0:
256,192,5005,12,0,5009,0:0:0:0:
256,192,5007,12,0,5011,0:0:0:0:
256,192,5010,12,0,5014,0:0:0:0:
256,192,5012,12,0,5016,0:0:0:0:
256,192,5014,12,0,5018,0:0:0:0:
256,192,5016,12,0,5020,0:0:0:0:
256,192,5018,12,0,5022,0:0:0:0:
256,192,5020,12,0,5024,0:0:0:0:
256,192,5022,12,0,5026,0:0:0:0:
256,192,5024,12,0,5028,0:0:0:0:
256,192,5027,12,0,5031,0:0:0:0:
256,192,5029,12,0,5033,0:0:0:0:
256,192,5031,12,0,5035,0:0:0:0:
256,192,5033,12,0,5037,0:0:0:0:
256,192,5035,12,0,5039,0:0:0:0:
256,192,5037,12,0,5041,0:0:0:0:
256,192,5039,12,0,5043,0:0:0:0:
256,192,5041,12,0,5045,0:0:0:0:
256,192,5044,12,0,5048,0:0:0:0:
256,192,5046,12,0,5050,0:0:0:0:
256,192,5048,12,0,5052,0:0:0:0:
256,192,5050,12,0,5054,0:0:0:0:
256,192,5052,12,0,5056,0:0:0:0:
256,192,5054,12,0,5058,0:0:0:0:
256,192,5056,12,0,5060,0:0:0:0:
256,192,5058,12,0,5062,0:0:0:0:
256,192,5061,12,0,5065,0:0:0:0:
256,192,5063,12,0,5067,0:0:0:0:
256,192,5065,12,0,5069,0:0:0:0:
256,192,5067,12,0,5071,0:0:0:0:
256,192,5069,12,0,5073,0:0:0:0:
256,192,5071,12,0,5075,0:0:0:0:
256,192,5073,12,0,5077,0:0:0:0:
256,192,5075,12,0,5079,0:0:0:0:
256,192,5078,12,0,5082,0:0:0:0:
256,192,5080,12,0,5084,0:0:0:0:
256,192,5082,12,0,5086,0:0:0:0:
256,192,5084,12,0,5088,0:0:0:0:
256,192,5086,12,0,5090,0:0:0:0:
256,192,5088,12,0,5092,0:0:0:0:
256,192,5090,12,0,5094,0:0:0:0:
256,192,5092,12,0,5096,0:0:0:0:
256,192,5095,12,0,5099,0:0:0:0:
256,192,5097,12,0,5101,0:0:0:0:
256,192,5099,12,0,5103,0:0:0:0:
256,192,5101,12,0,5105,0:0:0:0:
256,192,5103,12,0,5107,0:0:0:0:
256,192,5105,12,0,5109,0:0:0:0:
256,192,5107,12,0,5111,0:0:0:0:
256,192,5109,12,0,5113,0:0:0:0:
256,192,5112,12,0,5116,0:0:0:0:
256,192,5114,12,0,5118,0:0:0:0:
256,192,5116,12,0,5120,0:0:0:0:
256,192,5118,12,0,5122,0:0:0:0:
256,192,5120,12,0,5124,0:0:0:0:
256,192,5122,12,0,5126,0:0:0:0:
256,192,5124,12,0,5128,0:0:0:0:
256,192,5126,12,0,5130,0:0:0:0:
256,192,5129,12,0,5133,0:0:0:0:
256,192,5131,12,0,5135,0:0:0:0:
256,192,5133,12,0,5137,0:0:0:0:
256,192,5135,12,0,5139,0:0:0:0:
256,192,5137,12,0,5141,0:0:0:0:
256,192,5139,12,0,5143,0:0:0:0:
256,192,5141,12,0,5145,0:0:0:0:
256,192,5143,12,0,5147,0:0:0:0:
256,192,5146,12,0,5150,0:0:0:0:
256,192,5148,12,0,5152,0:0:0:0:
256,192,5150,12,0,5154,0:0:0:0:
256,192,5152,12,0,5156,0:0:0:0:
256,192,5154,12,0,5158,0:0:0:0:
256,192,5156,12,0,5160,0:0:0:0:
256,192,5158,12,0,5162,0:0:0:0:
256,192,5160,12,0,5164,0:0:0:0:
256,192,5163,12,0,5167,0:0:0:0:
256,192,5165,12,0,5169,0:0:0:0:
256,192,5167,12,0,5171,0:0:0:0:
256,192,5169,12,0,5173,0:0:0:0:
256,192,5171,12,0,5175,0:0:0:0:
256,192,5173,12,0,5177,0:0:0:0:
256,192,5175,12,0,5179,0:0:0:0:
256,192,5177,12,0,5181,0:0:0:0:
256,192,5180,12,0,5184,0:0:0:0:
256,192,5182,12,0,5186,0:0:0:0:
256,192,5184,12,0,5188,0:0:0:0:
256,192,5186,12,0,5190,0:0:0:0:
256,192,5188,12,0,5192,0:0:0:0:
256,192,5190,12,0,5194,0:0:0:0:
256,192,5192,12,0,5196,0:0:0:0:
256,192,5194,12,0,5198,0:0:0:0:
256,192,5197,12,0,5201,0:0:0:0:
256,192,5199,12,0,5203,0:0:0:0:
256,192,5201,12,0,5205,0:0:0:0:
256,192,5203,12,0,5207,0:0:0:0:
256,192,5205,12,0,5209,0:0:0:0:
256,192,5207,12,0,5211,0:0:0:0:
256,192,5209,12,0,5213,0:0:0:0:
256,192,5211,12,0,5215,0:0:0:0:
256,192,5214,12,0,5218,0:0:0:0:
256,192,5216,12,0,5220,0:0:0:0:
256,192,5218,12,0,5222,0:0:0:0:
256,192,5220,12,0,5224,0:0:0:0:
256,192,5222,12,0,5226,0:0:0:0:
256,192,5224,12,0,5228,0:0:0:0:
256,192,5226,12,0,5230,0:0:0:0:
256,192,5228,12,0,5232,0:0:0:0:
256,192,5231,12,0,5235,0:0:0:0:
256,192,5233,12,0,5237,0:0:0:0:
256,192,5235,12,0,5239,0:0:0:0:
256,192,5237,12,0,5241,0:0:0:0:
256,192,5239,12,0,5243,0:0:0:0:
256,192,5241,12,0,5245,0:0:0:0:
256,192,5243,12,0,5247,0:0:0:0:
256,192,5245,12,0,5249,0:0:0:0:
256,192,5248,12,0,5252,0:0:0:0:
256,192,5250,12,0,5254,0:0:0:0:
256,192,5252,12,0,5256,0:0:0:0:
256,192,5254,12,0,5258,0:0:0:0:
256,192,5256,12,0,5260,0:0:0:0:
256,192,5258,12,0,5262,0:0:0:0:
256,192,5260,12,0,5264,0:0:0:0:
256,192,5262,12,0,5266,0:0:0:0:
256,192,5265,12,0,5269,0:0:0:0:
256,192,5267,12,0,5271,0:0:0:0:
256,192,5269,12,0,5273,0:0:0:0:
256,192,5271,12,0,5275,0:0:0:0:
256,192,5273,12,0,5277,0:0:0:0:
256,192,5275,12,0,5279,0:0:0:0:
256,192,5277,12,0,5281,0:0:0:0:
256,192,5279,12,0,5283,0:0:0:0:
256,192,5282,12,0,5286,0:0:0:0:
256,192,5284,12,0,5288,0:0:0:0:
256,192,5286,12,0,5290,0:0:0:0:
256,192,5288,12,0,5292,0:0:0:0:
256,192,5290,12,0,5294,0:0:0:0:
256,192,5292,12,0,5296,0:0:0:0:
256,192,5294,12,0,5298,0:0:0:0:
256,192,5296,12,0,5300,0:0:0:0:
256,192,5299,12,0,5303,0:0:0:0:
256,192,5301,12,0,5305,0:0:0:0:
256,192,5303,12,0,5307,0:0:0:0:
256,192,5305,12,0,5309,0:0:0:0:
256,192,5307,12,0,5311,0:0:0:0:
256,192,5309,12,0,5313,0:0:0:0:
256,192,5311,12,0,5315,0:0:0:0:
256,192,5313,12,0,5317,0:0:0:0:
256,192,5316,12,0,5320,0:0:0:0:
256,192,5318,12,0,5322,0:0:0:0:
256,192,5320,12,0,5324,0:0:0:0:
256,192,5322,12,0,5326,0:0:0:0:
256,192,5324,12,0,5328,0:0:0:0:
256,192,5326,12,0,5330,0:0:0:0:
256,192,5328,12,0,5332,0:0:0:0:
256,192,5330,12,0,5334,0:0:0:0:
256,192,5333,12,0,5337,0:0:0:0:
256,192,5335,12,0,5339,0:0:0:0:
256,192,5337,12,0,5341,0:0:0:0:
256,192,5339,12,0,5343,0:0:0:0:
256,192,5341,12,0,5345,0:0:0:0:
256,192,5343,12,0,5347,0:0:0:0:
256,192,5345,12,0,5349,0:0:0:0:
256,192,5347,12,0,5351,0:0:0:0:
256,192,5350,12,0,5354,0:0:0:0:
256,192,5352,12,0,5356,0:0:0:0:
256,192,5354,12,0,5358,0:0:0:0:
256,192,5356,12,0,5360,0:0:0:0:
256,192,5358,12,0,5362,0:0:0:0:
256,192,5360,12,0,5364,0:0:0:0:
256,192,5362,12,0,5366,0:0:0:0:
256,192,5364,12,0,5368,0:0:0:0:
256,192,5367,12,0,5371,0:0:0:0:
256,192,5369,12,0,5373,0:0:0:0:
256,192,5371,12,0,5375,0:0:0:0:
256,192,5373,12,0,5377,0:0:0:0:
256,192,5375,12,0,5379,0:0:0:0:
256,192,5377,12,0,5381,0:0:0:0:
256,192,5379,12,0,5383,0:0:0:0:
256,192,5381,12,0,5385,0:0:0:0:
256,192,5384,12,0,5388,0:0:0:0:
256,192,5386,12,0,5390,0:0:0:0:
256,192,5388,12,0,5392,0:0:0:0:
256,192,5390,12,0,5394,0:0:0:0:
256,192,5392,12,0,5396,0:0:0:0:
256,192,5394,12,0,5398,0:0:0:0:
256,192,5396,12,0,5400,0:0:0:0:
256,192,5398,12,0,5402,0:0:0:0:
256,192,5401,12,0,5405,0:0:0:0:
256,192,5403,12,0,5407,0:0:0:0:
256,192,5405,12,0,5409,0:0:0:0:
256,192,5407,12,0,5411,0:0:0:0:
256,192,5409,12,0,5413,0:0:0:0:
256,192,5411,12,0,5415,0:0:0:0:
256,192,5413,12,0,5417,0:0:0:0:
256,192,5415,12,0,5419,0:0:0:0:
256,192,5418,12,0,5422,0:0:0:0:
256,192,5418,12,0,5422,0:0:0:0:
256,192,5420,12,0,5424,0:0:0:0:
256,192,5420,12,0,5424,0:0:0:0:
256,192,5422,12,0,5426,0:0:0:0:
256,192,5422,12,0,5426,0:0:0:0:
256,192,5424,12,0,5428,0:0:0:0:
256,192,5424,12,0,5428,0:0:0:0:
256,192,5426,12,0,5430,0:0:0:0:
256,192,5426,12,0,5430,0:0:0:0:
256,192,5428,12,0,5432,0:0:0:0:
256,192,5428,12,0,5432,0:0:0:0:
256,192,5430,12,0,5434,0:0:0:0:
256,192,5430,12,0,5434,0:0:0:0:
256,192,5432,12,0,5436,0:0:0:0:
256,192,5432,12,0,5436,0:0:0:0:
256,192,5435,12,0,5439,0:0:0:0:
256,192,5435,12,0,5439,0:0:0:0:
256,192,5437,12,0,5441,0:0:0:0:
256,192,5437,12,0,5441,0:0:0:0:
256,192,5439,12,0,5443,0:0:0:0:
256,192,5439,12,0,5443,0:0:0:0:
256,192,5441,12,0,5445,0:0:0:0:
256,192,5441,12,0,5445,0:0:0:0:
256,192,5443,12,0,5447,0:0:0:0:
256,192,5443,12,0,5447,0:0:0:0:
256,192,5445,12,0,5449,0:0:0:0:
256,192,5445,12,0,5449,0:0:0:0:
256,192,5447,12,0,5451,0:0:0:0:
256,192,5447,12,0,5451,0:0:0:0:
256,192,5449,12,0,5453,0:0:0:0:
256,192,5449,12,0,5453,0:0:0:0:
256,192,5453,12,0,5457,0:0:0:0:
256,192,5453,12,0,5457,0:0:0:0:
256,192,5455,12,0,5459,0:0:0:0:
256,192,5455,12,0,5459,0:0:0:0:
256,192,5457,12,0,5461,0:0:0:0:
256,192,5457,12,0,5461,0:0:0:0:
256,192,5459,12,0,5463,0:0:0:0:
256,192,5459,12,0,5463,0:0:0:0:
256,192,5461,12,0,5465,0:0:0:0:
256,192,5461,12,0,5465,0:0:0:0:
256,192,5463,12,0,5467,0:0:0:0:
256,192,5463,12,0,5467,0:0:0:0:
256,192,5465,12,0,5469,0:0:0:0:
256,192,5465,12,0,5469,0:0:0:0:
256,192,5467,12,0,5471,0:0:0:0:
256,192,5467,12,0,5471,0:0:0:0:
256,192,5470,12,0,5474,0:0:0:0:
256,192,5470,12,0,5474,0:0:0:0:
256,192,5472,12,0,5476,0:0:0:0:
256,192,5472,12,0,5476,0:0:0:0:
256,192,5474,12,0,5478,0:0:0:0:
256,192,5474,12,0,5478,0:0:0:0:
256,192,5476,12,0,5480,0:0:0:0:
256,192,5476,12,0,5480,0:0:0:0:
256,192,5478,12,0,5482,0:0:0:0:
256,192,5478,12,0,5482,0:0:0:0:
256,192,5480,12,0,5484,0:0:0:0:
256,192,5480,12,0,5484,0:0:0:0:
256,192,5482,12,0,5486,0:0:0:0:
256,192,5482,12,0,5486,0:0:0:0:
256,192,5484,12,0,5488,0:0:0:0:
256,192,5484,12,0,5488,0:0:0:0:
256,192,5487,12,0,5491,0:0:0:0:
256,192,5487,12,0,5491,0:0:0:0:
256,192,5489,12,0,5493,0:0:0:0:
256,192,5489,12,0,5493,0:0:0:0:
256,192,5491,12,0,5495,0:0:0:0:
256,192,5491,12,0,5495,0:0:0:0:
256,192,5493,12,0,5497,0:0:0:0:
256,192,5493,12,0,5497,0:0:0:0:
256,192,5495,12,0,5499,0:0:0:0:
256,192,5495,12,0,5499,0:0:0:0:
256,192,5497,12,0,5501,0:0:0:0:
256,192,5497,12,0,5501,0:0:0:0:
256,192,5499,12,0,5503,0:0:0:0:
256,192,5499,12,0,5503,0:0:0:0:
256,192,5501,12,0,5505,0:0:0:0:
256,192,5501,12,0,5505,0:0:0:0:
256,192,5504,12,0,5508,0:0:0:0:
256,192,5504,12,0,5508,0:0:0:0:
256,192,5506,12,0,5510,0:0:0:0:
256,192,5506,12,0,5510,0:0:0:0:
256,192,5508,12,0,5512,0:0:0:0:
256,192,5508,12,0,5512,0:0:0:0:
256,192,5510,12,0,5514,0:0:0:0:
256,192,5510,12,0,5514,0:0:0:0:
256,192,5512,12,0,5516,0:0:0:0:
256,192,5512,12,0,5516,0:0:0:0:
256,192,5514,12,0,5518,0:0:0:0:
256,192,5514,12,0,5518,0:0:0:0:
256,192,5516,12,0,5520,0:0:0:0:
256,192,5516,12,0,5520,0:0:0:0:
256,192,5518,12,0,5522,0:0:0:0:
256,192,5518,12,0,5522,0:0:0:0:
256,192,5521,12,0,5525,0:0:0:0:
256,192,5521,12,0,5525,0:0:0:0:
256,192,5523,12,0,5527,0:0:0:0:
256,192,5523,12,0,5527,0:0:0:0:
256,192,5525,12,0,5529,0:0:0:0:
256,192,5525,12,0,5529,0:0:0:0:
256,192,5527,12,0,5531,0:0:0:0:
256,192,5527,12,0,5531,0:0:0:0:
256,192,5529,12,0,5533,0:0:0:0:
256,192,5529,12,0,5533,0:0:0:0:
256,192,5531,12,0,5535,0:0:0:0:
256,192,5531,12,0,5535,0:0:0:0:
256,192,5533,12,0,5537,0:0:0:0:
256,192,5533,12,0,5537,0:0:0:0:
256,192,5535,12,0,5539,0:0:0:0:
256,192,5535,12,0,5539,0:0:0:0:
256,192,5538,12,0,5542,0:0:0:0:
256,192,5538,12,0,5542,0:0:0:0:
256,192,5540,12,0,5544,0:0:0:0:
256,192,5540,12,0,5544,0:0:0:0:
256,192,5542,12,0,5546,0:0:0:0:
256,192,5542,12,0,5546,0:0:0:0:
256,192,5544,12,0,5548,0:0:0:0:
256,192,5544,12,0,5548,0:0:0:0:
256,192,5546,12,0,5550,0:0:0:0:
256,192,5546,12,0,5550,0:0:0:0:
256,192,5548,12,0,5552,0:0:0:0:
256,192,5548,12,0,5552,0:0:0:0:
256,192,5550,12,0,5554,0:0:0:0:
256,192,5550,12,0,5554,0:0:0:0:
256,192,5552,12,0,5556,0:0:0:0:
256,192,5552,12,0,5556,0:0:0:0:
256,192,5555,12,0,5559,0:0:0:0:
256,192,5555,12,0,5559,0:0:0:0:
256,192,5557,12,0,5561,0:0:0:0:
256,192,5557,12,0,5561,0:0:0:0:
256,192,5559,12,0,5563,0:0:0:0:
256,192,5559,12,0,5563,0:0:0:0:
256,192,5561,12,0,5565,0:0:0:0:
256,192,5561,12,0,5565,0:0:0:0:
256,192,5563,12,0,5567,0:0:0:0:
256,192,5563,12,0,5567,0:0:0:0:
256,192,5565,12,0,5569,0:0:0:0:
256,192,5565,12,0,5569,0:0:0:0:
256,192,5567,12,0,5571,0:0:0:0:
256,192,5567,12,0,5571,0:0:0:0:
256,192,5569,12,0,5573,0:0:0:0:
256,192,5569,12,0,5573,0:0:0:0:
256,192,5572,12,0,5576,0:0:0:0:
256,192,5572,12,0,5576,0:0:0:0:
256,192,5574,12,0,5578,0:0:0:0:
256,192,5574,12,0,5578,0:0:0:0:
256,192,5576,12,0,5580,0:0:0:0:
256,192,5576,12,0,5580,0:0:0:0:
256,192,5578,12,0,5582,0:0:0:0:
256,192,5578,12,0,5582,0:0:0:0:
256,192,5580,12,0,5584,0:0:0:0:
256,192,5580,12,0,5584,0:0:0:0:
256,192,5582,12,0,5586,0:0:0:0:
256,192,5582,12,0,5586,0:0:0:0:
256,192,5584,12,0,5588,0:0:0:0:
256,192,5584,12,0,5588,0:0:0:0:
256,192,5586,12,0,5590,0:0:0:0:
256,192,5586,12,0,5590,0:0:0:0:
256,192,5589,12,0,5593,0:0:0:0:
256,192,5589,12,0,5593,0:0:0:0:
256,192,5591,12,0,5595,0:0:0:0:
256,192,5591,12,0,5595,0:0:0:0:
256,192,5593,12,0,5597,0:0:0:0:
256,192,5593,12,0,5597,0:0:0:0:
256,192,5595,12,0,5599,0:0:0:0:
256,192,5595,12,0,5599,0:0:0:0:
256,192,5597,12,0,5601,0:0:0:0:
256,192,5597,12,0,5601,0:0:0:0:
256,192,5599,12,0,5603,0:0:0:0:
256,192,5599,12,0,5603,0:0:0:0:
256,192,5601,12,0,5605,0:0:0:0:
256,192,5601,12,0,5605,0:0:0:0:
256,192,5603,12,0,5607,0:0:0:0:
256,192,5603,12,0,5607,0:0:0:0:
256,192,5606,12,0,5610,0:0:0:0:
256,192,5606,12,0,5610,0:0:0:0:
256,192,5608,12,0,5612,0:0:0:0:
256,192,5608,12,0,5612,0:0:0:0:
256,192,5610,12,0,5614,0:0:0:0:
256,192,5610,12,0,5614,0:0:0:0:
256,192,5612,12,0,5616,0:0:0:0:
256,192,5612,12,0,5616,0:0:0:0:
256,192,5614,12,0,5618,0:0:0:0:
256,192,5614,12,0,5618,0:0:0:0:
256,192,5616,12,0,5620,0:0:0:0:
256,192,5616,12,0,5620,0:0:0:0:
256,192,5618,12,0,5622,0:0:0:0:
256,192,5618,12,0,5622,0:0:0:0:
256,192,5620,12,0,5624,0:0:0:0:
256,192,5620,12,0,5624,0:0:0:0:
256,192,5623,12,0,5627,0:0:0:0:
256,192,5623,12,0,5627,0:0:0:0:
256,192,5625,12,0,5629,0:0:0:0:
256,192,5625,12,0,5629,0:0:0:0:
256,192,5627,12,0,5631,0:0:0:0:
256,192,5627,12,0,5631,0:0:0:0:
256,192,5629,12,0,5633,0:0:0:0:
256,192,5629,12,0,5633,0:0:0:0:
256,192,5631,12,0,5635,0:0:0:0:
256,192,5631,12,0,5635,0:0:0:0:
256,192,5633,12,0,5637,0:0:0:0:
256,192,5633,12,0,5637,0:0:0:0:
256,192,5635,12,0,5639,0:0:0:0:
256,192,5635,12,0,5639,0:0:0:0:
256,192,5637,12,0,5641,0:0:0:0:
256,192,5637,12,0,5641,0:0:0:0:
256,192,5640,12,0,5644,0:0:0:0:
256,192,5640,12,0,5644,0:0:0:0:
256,192,5642,12,0,5646,0:0:0:0:
256,192,5642,12,0,5646,0:0:0:0:
256,192,5644,12,0,5648,0:0:0:0:
256,192,5644,12,0,5648,0:0:0:0:
256,192,5646,12,0,5650,0:0:0:0:
256,192,5646,12,0,5650,0:0:0:0:
256,192,5648,12,0,5652,0:0:0:0:
256,192,5648,12,0,5652,0:0:0:0:
256,192,5650,12,0,5654,0:0:0:0:
256,192,5650,12,0,5654,0:0:0:0:
256,192,5652,12,0,5656,0:0:0:0:
256,192,5652,12,0,5656,0:0:0:0:
256,192,5654,12,0,5658,0:0:0:0:
256,192,5654,12,0,5658,0:0:0:0:
256,192,5657,12,0,5661,0:0:0:0:
256,192,5657,12,0,5661,0:0:0:0:
256,192,5659,12,0,5663,0:0:0:0:
256,192,5659,12,0,5663,0:0:0:0:
256,192,5661,12,0,5665,0:0:0:0:
256,192,5661,12,0,5665,0:0:0:0:
256,192,5663,12,0,5667,0:0:0:0:
256,192,5663,12,0,5667,0:0:0:0:
256,192,5665,12,0,5669,0:0:0:0:
256,192,5665,12,0,5669,0:0:0:0:
256,192,5667,12,0,5671,0:0:0:0:
256,192,5667,12,0,5671,0:0:0:0:
256,192,5669,12,0,5673,0:0:0:0:
256,192,5669,12,0,5673,0:0:0:0:
256,192,5671,12,0,5675,0:0:0:0:
256,192,5671,12,0,5675,0:0:0:0:
256,192,5674,12,0,5678,0:0:0:0:
256,192,5674,12,0,5678,0:0:0:0:
256,192,5676,12,0,5680,0:0:0:0:
256,192,5676,12,0,5680,0:0:0:0:
256,192,5678,12,0,5682,0:0:0:0:
256,192,5678,12,0,5682,0:0:0:0:
256,192,5680,12,0,5684,0:0:0:0:
256,192,5680,12,0,5684,0:0:0:0:
256,192,5682,12,0,5686,0:0:0:0:
256,192,5682,12,0,5686,0:0:0:0:
256,192,5684,12,0,5688,0:0:0:0:
256,192,5684,12,0,5688,0:0:0:0:
256,192,5686,12,0,5690,0:0:0:0:
256,192,5686,12,0,5690,0:0:0:0:
256,192,5688,12,0,5692,0:0:0:0:
256,192,5688,12,0,5692,0:0:0:0:
256,192,5691,12,0,5695,0:0:0:0:
256,192,5691,12,0,5695,0:0:0:0:
256,192,5693,12,0,5697,0:0:0:0:
256,192,5693,12,0,5697,0:0:0:0:
256,192,5695,12,0,5699,0:0:0:0:
256,192,5695,12,0,5699,0:0:0:0:
256,192,5697,12,0,5701,0:0:0:0:
256,192,5697,12,0,5701,0:0:0:0:
256,192,5699,12,0,5703,0:0:0:0:
256,192,5699,12,0,5703,0:0:0:0:
256,192,5701,12,0,5705,0:0:0:0:
256,192,5701,12,0,5705,0:0:0:0:
256,192,5703,12,0,5707,0:0:0:0:
256,192,5703,12,0,5707,0:0:0:0:
256,192,5705,12,0,5709,0:0:0:0:
256,192,5705,12,0,5709,0:0:0:0:
256,192,5708,12,0,5712,0:0:0:0:
256,192,5708,12,0,5712,0:0:0:0:
256,192,5710,12,0,5714,0:0:0:0:
256,192,5710,12,0,5714,0:0:0:0:
256,192,5712,12,0,5716,0:0:0:0:
256,192,5712,12,0,5716,0:0:0:0:
256,192,5714,12,0,5718,0:0:0:0:
256,192,5714,12,0,5718,0:0:0:0:
256,192,5716,12,0,5720,0:0:0:0:
256,192,5716,12,0,5720,0:0:0:0:
256,192,5718,12,0,5722,0:0:0:0:
256,192,5718,12,0,5722,0:0:0:0:
256,192,5720,12,0,5724,0:0:0:0:
256,192,5720,12,0,5724,0:0:0:0:
256,192,5722,12,0,5726,0:0:0:0:
256,192,5722,12,0,5726,0:0:0:0:
256,192,5725,12,0,5729,0:0:0:0:
256,192,5725,12,0,5729,0:0:0:0:
256,192,5727,12,0,5731,0:0:0:0:
256,192,5727,12,0,5731,0:0:0:0:
256,192,5729,12,0,5733,0:0:0:0:
256,192,5729,12,0,5733,0:0:0:0:
256,192,5731,12,0,5735,0:0:0:0:
256,192,5731,12,0,5735,0:0:0:0:
256,192,5733,12,0,5737,0:0:0:0:
256,192,5733,12,0,5737,0:0:0:0:
256,192,5735,12,0,5739,0:0:0:0:
256,192,5735,12,0,5739,0:0:0:0:
256,192,5737,12,0,5741,0:0:0:0:
256,192,5737,12,0,5741,0:0:0:0:
256,192,5739,12,0,5743,0:0:0:0:
256,192,5739,12,0,5743,0:0:0:0:
256,192,5742,12,0,5746,0:0:0:0:
256,192,5742,12,0,5746,0:0:0:0:
256,192,5744,12,0,5748,0:0:0:0:
256,192,5744,12,0,5748,0:0:0:0:
256,192,5746,12,0,5750,0:0:0:0:
256,192,5746,12,0,5750,0:0:0:0:
256,192,5748,12,0,5752,0:0:0:0:
256,192,5748,12,0,5752,0:0:0:0:
256,192,5750,12,0,5754,0:0:0:0:
256,192,5750,12,0,5754,0:0:0:0:
256,192,5752,12,0,5756,0:0:0:0:
256,192,5752,12,0,5756,0:0:0:0:
256,192,5754,12,0,5758,0:0:0:0:
256,192,5754,12,0,5758,0:0:0:0:
256,192,5756,12,0,5760,0:0:0:0:
256,192,5756,12,0,5760,0:0:0:0:
256,192,5759,12,0,5763,0:0:0:0:
256,192,5759,12,0,5763,0:0:0:0:
256,192,5761,12,0,5765,0:0:0:0:
256,192,5761,12,0,5765,0:0:0:0:
256,192,5763,12,0,5767,0:0:0:0:
256,192,5763,12,0,5767,0:0:0:0:
256,192,5765,12,0,5769,0:0:0:0:
256,192,5765,12,0,5769,0:0:0:0:
256,192,5767,12,0,5771,0:0:0:0:
256,192,5767,12,0,5771,0:0:0:0:
256,192,5769,12,0,5773,0:0:0:0:
256,192,5769,12,0,5773,0:0:0:0:
256,192,5771,12,0,5775,0:0:0:0:
256,192,5771,12,0,5775,0:0:0:0:
256,192,5773,12,0,5777,0:0:0:0:
256,192,5773,12,0,5777,0:0:0:0:
256,192,5776,12,0,5780,0:0:0:0:
256,192,5776,12,0,5780,0:0:0:0:
256,192,5778,12,0,5782,0:0:0:0:
256,192,5778,12,0,5782,0:0:0:0:
256,192,5780,12,0,5784,0:0:0:0:
256,192,5780,12,0,5784,0:0:0:0:
256,192,5782,12,0,5786,0:0:0:0:
256,192,5782,12,0,5786,0:0:0:0:
256,192,5784,12,0,5788,0:0:0:0:
256,192,5784,12,0,5788,0:0:0:0:
256,192,5786,12,0,5790,0:0:0:0:
256,192,5786,12,0,5790,0:0:0:0:
256,192,5788,12,0,5792,0:0:0:0:
256,192,5788,12,0,5792,0:0:0:0:
256,192,5790,12,0,5794,0:0:0:0:
256,192,5790,12,0,5794,0:0:0:0:
256,192,5793,12,0,5797,0:0:0:0:
256,192,5793,12,0,5797,0:0:0:0:
256,192,5795,12,0,5799,0:0:0:0:
256,192,5795,12,0,5799,0:0:0:0:
256,192,5797,12,0,5801,0:0:0:0:
256,192,5797,12,0,5801,0:0:0:0:
256,192,5799,12,0,5803,0:0:0:0:
256,192,5799,12,0,5803,0:0:0:0:
256,192,5801,12,0,5805,0:0:0:0:
256,192,5801,12,0,5805,0:0:0:0:
256,192,5803,12,0,5807,0:0:0:0:
256,192,5803,12,0,5807,0:0:0:0:
256,192,5805,12,0,5809,0:0:0:0:
256,192,5805,12,0,5809,0:0:0:0:
256,192,5807,12,0,5811,0:0:0:0:
256,192,5807,12,0,5811,0:0:0:0:
256,192,5810,12,0,5814,0:0:0:0:
256,192,5810,12,0,5814,0:0:0:0:
256,192,5812,12,0,5816,0:0:0:0:
256,192,5812,12,0,5816,0:0:0:0:
256,192,5814,12,0,5818,0:0:0:0:
256,192,5814,12,0,5818,0:0:0:0:
256,192,5816,12,0,5820,0:0:0:0:
256,192,5816,12,0,5820,0:0:0:0:
256,192,5818,12,0,5822,0:0:0:0:
256,192,5818,12,0,5822,0:0:0:0:
256,192,5820,12,0,5824,0:0:0:0:
256,192,5820,12,0,5824,0:0:0:0:
256,192,5822,12,0,5826,0:0:0:0:
256,192,5822,12,0,5826,0:0:0:0:
256,192,5824,12,0,5828,0:0:0:0:
256,192,5824,12,0,5828,0:0:0:0:
256,192,5827,12,0,5831,0:0:0:0:
256,192,5827,12,0,5831,0:0:0:0:
256,192,5829,12,0,5833,0:0:0:0:
256,192,5829,12,0,5833,0:0:0:0:
256,192,5831,12,0,5835,0:0:0:0:
256,192,5831,12,0,5835,0:0:0:0:
256,192,5833,12,0,5837,0:0:0:0:
256,192,5833,12,0,5837,0:0:0:0:
256,192,5835,12,0,5839,0:0:0:0:
256,192,5835,12,0,5839,0:0:0:0:
256,192,5837,12,0,5841,0:0:0:0:
256,192,5837,12,0,5841,0:0:0:0:
256,192,5839,12,0,5843,0:0:0:0:
256,192,5839,12,0,5843,0:0:0:0:
256,192,5841,12,0,5845,0:0:0:0:
256,192,5841,12,0,5845,0:0:0:0:
256,192,5844,12,0,5848,0:0:0:0:
256,192,5844,12,0,5848,0:0:0:0:
256,192,5846,12,0,5850,0:0:0:0:
256,192,5846,12,0,5850,0:0:0:0:
256,192,5848,12,0,5852,0:0:0:0:
256,192,5848,12,0,5852,0:0:0:0:
256,192,5850,12,0,5854,0:0:0:0:
256,192,5850,12,0,5854,0:0:0:0:
256,192,5852,12,0,5856,0:0:0:0:
256,192,5852,12,0,5856,0:0:0:0:
256,192,5854,12,0,5858,0:0:0:0:
256,192,5854,12,0,5858,0:0:0:0:
256,192,5856,12,0,5860,0:0:0:0:
256,192,5856,12,0,5860,0:0:0:0:
256,192,5858,12,0,5862,0:0:0:0:
256,192,5858,12,0,5862,0:0:0:0:
256,192,5861,12,0,5865,0:0:0:0:
256,192,5861,12,0,5865,0:0:0:0:
256,192,5863,12,0,5867,0:0:0:0:
256,192,5863,12,0,5867,0:0:0:0:
256,192,5865,12,0,5869,0:0:0:0:
256,192,5865,12,0,5869,0:0:0:0:
256,192,5867,12,0,5871,0:0:0:0:
256,192,5867,12,0,5871,0:0:0:0:
256,192,5869,12,0,5873,0:0:0:0:
256,192,5869,12,0,5873,0:0:0:0:
256,192,5871,12,0,5875,0:0:0:0:
256,192,5871,12,0,5875,0:0:0:0:
256,192,5873,12,0,5877,0:0:0:0:
256,192,5873,12,0,5877,0:0:0:0:
256,192,5875,12,0,5879,0:0:0:0:
256,192,5875,12,0,5879,0:0:0:0:
256,192,5878,12,0,5882,0:0:0:0:
256,192,5878,12,0,5882,0:0:0:0:
256,192,5880,12,0,5884,0:0:0:0:
256,192,5880,12,0,5884,0:0:0:0:
256,192,5882,12,0,5886,0:0:0:0:
256,192,5882,12,0,5886,0:0:0:0:
256,192,5884,12,0,5888,0:0:0:0:
256,192,5884,12,0,5888,0:0:0:0:
256,192,5886,12,0,5890,0:0:0:0:
256,192,5886,12,0,5890,0:0:0:0:
256,192,5888,12,0,5892,0:0:0:0:
256,192,5888,12,0,5892,0:0:0:0:
256,192,5890,12,0,5894,0:0:0:0:
256,192,5890,12,0,5894,0:0:0:0:
256,192,5892,12,0,5896,0:0:0:0:
256,192,5892,12,0,5896,0:0:0:0:
256,192,5895,12,0,5899,0:0:0:0:
256,192,5895,12,0,5899,0:0:0:0:
256,192,5897,12,0,5901,0:0:0:0:
256,192,5897,12,0,5901,0:0:0:0:
256,192,5899,12,0,5903,0:0:0:0:
256,192,5899,12,0,5903,0:0:0:0:
256,192,5901,12,0,5905,0:0:0:0:
256,192,5901,12,0,5905,0:0:0:0:
256,192,5903,12,0,5907,0:0:0:0:
256,192,5903,12,0,5907,0:0:0:0:
256,192,5905,12,0,5909,0:0:0:0:
256,192,5905,12,0,5909,0:0:0:0:
256,192,5907,12,0,5911,0:0:0:0:
256,192,5907,12,0,5911,0:0:0:0:
256,192,5909,12,0,5913,0:0:0:0:
256,192,5909,12,0,5913,0:0:0:0:
256,192,5912,12,0,5916,0:0:0:0:
256,192,5912,12,0,5916,0:0:0:0:
256,192,5914,12,0,5918,0:0:0:0:
256,192,5914,12,0,5918,0:0:0:0:
256,192,5916,12,0,5920,0:0:0:0:
256,192,5916,12,0,5920,0:0:0:0:
256,192,5918,12,0,5922,0:0:0:0:
256,192,5918,12,0,5922,0:0:0:0:
256,192,5920,12,0,5924,0:0:0:0:
256,192,5920,12,0,5924,0:0:0:0:
256,192,5922,12,0,5926,0:0:0:0:
256,192,5922,12,0,5926,0:0:0:0:
256,192,5924,12,0,5928,0:0:0:0:
256,192,5924,12,0,5928,0:0:0:0:
256,192,5926,12,0,5930,0:0:0:0:
256,192,5926,12,0,5930,0:0:0:0:
256,192,5929,12,0,5933,0:0:0:0:
256,192,5929,12,0,5933,0:0:0:0:
256,192,5931,12,0,5935,0:0:0:0:
256,192,5931,12,0,5935,0:0:0:0:
256,192,5933,12,0,5937,0:0:0:0:
256,192,5933,12,0,5937,0:0:0:0:
256,192,5935,12,0,5939,0:0:0:0:
256,192,5935,12,0,5939,0:0:0:0:
256,192,5937,12,0,5941,0:0:0:0:
256,192,5937,12,0,5941,0:0:0:0:
256,192,5939,12,0,5943,0:0:0:0:
256,192,5939,12,0,5943,0:0:0:0:
256,192,5941,12,0,5945,0:0:0:0:
256,192,5941,12,0,5945,0:0:0:0:
256,192,5943,12,0,5947,0:0:0:0:
256,192,5943,12,0,5947,0:0:0:0:
256,192,5946,12,0,5950,0:0:0:0:
256,192,5946,12,0,5950,0:0:0:0:
256,192,5948,12,0,5952,0:0:0:0:
256,192,5948,12,0,5952,0:0:0:0:
256,192,5950,12,0,5954,0:0:0:0:
256,192,5950,12,0,5954,0:0:0:0:
256,192,5952,12,0,5956,0:0:0:0:
256,192,5952,12,0,5956,0:0:0:0:
256,192,5954,12,0,5958,0:0:0:0:
256,192,5954,12,0,5958,0:0:0:0:
256,192,5956,12,0,5960,0:0:0:0:
256,192,5956,12,0,5960,0:0:0:0:
256,192,5958,12,0,5962,0:0:0:0:
256,192,5958,12,0,5962,0:0:0:0:
256,192,5960,12,0,5964,0:0:0:0:
256,192,5960,12,0,5964,0:0:0:0:
256,192,5963,12,0,5967,0:0:0:0:
256,192,5963,12,0,5967,0:0:0:0:
256,192,5965,12,0,5969,0:0:0:0:
256,192,5965,12,0,5969,0:0:0:0:
256,192,5967,12,0,5971,0:0:0:0:
256,192,5967,12,0,5971,0:0:0:0:
256,192,5969,12,0,5973,0:0:0:0:
256,192,5969,12,0,5973,0:0:0:0:
256,192,5971,12,0,5975,0:0:0:0:
256,192,5971,12,0,5975,0:0:0:0:
256,192,5973,12,0,5977,0:0:0:0:
256,192,5973,12,0,5977,0:0:0:0:
256,192,5975,12,0,5979,0:0:0:0:
256,192,5975,12,0,5979,0:0:0:0:
256,192,5977,12,0,5981,0:0:0:0:
256,192,5977,12,0,5981,0:0:0:0:
256,192,5980,12,0,5984,0:0:0:0:
256,192,5980,12,0,5984,0:0:0:0:
256,192,5982,12,0,5986,0:0:0:0:
256,192,5982,12,0,5986,0:0:0:0:
256,192,5984,12,0,5988,0:0:0:0:
256,192,5984,12,0,5988,0:0:0:0:
256,192,5986,12,0,5990,0:0:0:0:
256,192,5986,12,0,5990,0:0:0:0:
256,192,5988,12,0,5992,0:0:0:0:
256,192,5988,12,0,5992,0:0:0:0:
256,192,5990,12,0,5994,0:0:0:0:
256,192,5990,12,0,5994,0:0:0:0:
256,192,5992,12,0,5996,0:0:0:0:
256,192,5992,12,0,5996,0:0:0:0:
256,192,5994,12,0,5998,0:0:0:0:
256,192,5994,12,0,5998,0:0:0:0:
256,192,5998,12,0,6002,0:0:0:0:
256,192,5999,12,0,6003,0:0:0:0:
256,192,6000,12,0,6004,0:0:0:0:
256,192,6001,12,0,6005,0:0:0:0:
256,192,6002,12,0,6006,0:0:0:0:
256,192,6003,12,0,6007,0:0:0:0:
256,192,6004,12,0,6008,0:0:0:0:
256,192,6005,12,0,6009,0:0:0:0:
256,192,6006,12,0,6010,0:0:0:0:
256,192,6007,12,0,6011,0:0:0:0:
256,192,6008,12,0,6012,0:0:0:0:
256,192,6009,12,0,6013,0:0:0:0:
256,192,6010,12,0,6014,0:0:0:0:
256,192,6011,12,0,6015,0:0:0:0:
256,192,6012,12,0,6016,0:0:0:0:
256,192,6013,12,0,6017,0:0:0:0:
256,192,6015,12,0,6019,0:0:0:0:
256,192,6016,12,0,6020,0:0:0:0:
256,192,6017,12,0,6021,0:0:0:0:
256,192,6018,12,0,6022,0:0:0:0:
256,192,6019,12,0,6023,0:0:0:0:
256,192,6020,12,0,6024,0:0:0:0:
256,192,6021,12,0,6025,0:0:0:0:
256,192,6022,12,0,6026,0:0:0:0:
256,192,6023,12,0,6027,0:0:0:0:
256,192,6024,12,0,6028,0:0:0:0:
256,192,6025,12,0,6029,0:0:0:0:
256,192,6026,12,0,6030,0:0:0:0:
256,192,6027,12,0,6031,0:0:0:0:
256,192,6028,12,0,6032,0:0:0:0:
256,192,6029,12,0,6033,0:0:0:0:
256,192,6030,12,0,6034,0:0:0:0:
256,192,6032,12,0,6036,0:0:0:0:
256,192,6033,12,0,6037,0:0:0:0:
256,192,6034,12,0,6038,0:0:0:0:
256,192,6035,12,0,6039,0:0:0:0:
256,192,6036,12,0,6040,0:0:0:0:
256,192,6037,12,0,6041,0:0:0:0:
256,192,6038,12,0,6042,0:0:0:0:
256,192,6039,12,0,6043,0:0:0:0:
256,192,6040,12,0,6044,0:0:0:0:
256,192,6041,12,0,6045,0:0:0:0:
256,192,6042,12,0,6046,0:0:0:0:
256,192,6043,12,0,6047,0:0:0:0:
256,192,6044,12,0,6048,0:0:0:0:
256,192,6045,12,0,6049,0:0:0:0:
256,192,6046,12,0,6050,0:0:0:0:
256,192,6047,12,0,6051,0:0:0:0:
256,192,6049,12,0,6053,0:0:0:0:
256,192,6050,12,0,6054,0:0:0:0:
256,192,6051,12,0,6055,0:0:0:0:
256,192,6052,12,0,6056,0:0:0:0:
256,192,6053,12,0,6057,0:0:0:0:
256,192,6054,12,0,6058,0:0:0:0:
256,192,6055,12,0,6059,0:0:0:0:
256,192,6056,12,0,6060,0:0:0:0:
256,192,6057,12,0,6061,0:0:0:0:
256,192,6058,12,0,6062,0:0:0:0:
256,192,6059,12,0,6063,0:0:0:0:
256,192,6060,12,0,6064,0:0:0:0:
256,192,6061,12,0,6065,0:0:0:0:
256,192,6062,12,0,6066,0:0:0:0:
256,192,6063,12,0,6067,0:0:0:0:
256,192,6064,12,0,6068,0:0:0:0:
256,192,6066,12,0,6070,0:0:0:0:
256,192,6067,12,0,6071,0:0:0:0:
256,192,6068,12,0,6072,0:0:0:0:
256,192,6069,12,0,6073,0:0:0:0:
256,192,6070,12,0,6074,0:0:0:0:
256,192,6071,12,0,6075,0:0:0:0:
256,192,6072,12,0,6076,0:0:0:0:
256,192,6073,12,0,6077,0:0:0:0:
256,192,6074,12,0,6078,0:0:0:0:
256,192,6075,12,0,6079,0:0:0:0:
256,192,6076,12,0,6080,0:0:0:0:
256,192,6077,12,0,6081,0:0:0:0:
256,192,6078,12,0,6082,0:0:0:0:
256,192,6079,12,0,6083,0:0:0:0:
256,192,6080,12,0,6084,0:0:0:0:
256,192,6081,12,0,6085,0:0:0:0:
256,192,6083,12,0,6087,0:0:0:0:
256,192,6084,12,0,6088,0:0:0:0:
256,192,6085,12,0,6089,0:0:0:0:
256,192,6086,12,0,6090,0:0:0:0:
256,192,6087,12,0,6091,0:0:0:0:
256,192,6088,12,0,6092,0:0:0:0:
256,192,6089,12,0,6093,0:0:0:0:
256,192,6090,12,0,6094,0:0:0:0:
256,192,6091,12,0,6095,0:0:0:0:
256,192,6092,12,0,6096,0:0:0:0:
256,192,6093,12,0,6097,0:0:0:0:
256,192,6094,12,0,6098,0:0:0:0:
256,192,6095,12,0,6099,0:0:0:0:
256,192,6096,12,0,6100,0:0:0:0:
256,192,6097,12,0,6101,0:0:0:0:
256,192,6098,12,0,6102,0:0:0:0:
256,192,6100,12,0,6104,0:0:0:0:
256,192,6101,12,0,6105,0:0:0:0:
256,192,6102,12,0,6106,0:0:0:0:
256,192,6103,12,0,6107,0:0:0:0:
256,192,6104,12,0,6108,0:0:0:0:
256,192,6105,12,0,6109,0:0:0:0:
256,192,6106,12,0,6110,0:0:0:0:
256,192,6107,12,0,6111,0:0:0:0:
256,192,6108,12,0,6112,0:0:0:0:
256,192,6109,12,0,6113,0:0:0:0:
256,192,6110,12,0,6114,0:0:0:0:
256,192,6111,12,0,6115,0:0:0:0:
256,192,6112,12,0,6116,0:0:0:0:
256,192,6113,12,0,6117,0:0:0:0:
256,192,6114,12,0,6118,0:0:0:0:
256,192,6115,12,0,6119,0:0:0:0:
256,192,6117,12,0,6121,0:0:0:0:
256,192,6118,12,0,6122,0:0:0:0:
256,192,6119,12,0,6123,0:0:0:0:
256,192,6120,12,0,6124,0:0:0:0:
256,192,6121,12,0,6125,0:0:0:0:
256,192,6122,12,0,6126,0:0:0:0:
256,192,6123,12,0,6127,0:0:0:0:
256,192,6124,12,0,6128,0:0:0:0:
256,192,6125,12,0,6129,0:0:0:0:
256,192,6126,12,0,6130,0:0:0:0:
256,192,6127,12,0,6131,0:0:0:0:
256,192,6128,12,0,6132,0:0:0:0:
256,192,6129,12,0,6133,0:0:0:0:
256,192,6130,12,0,6134,0:0:0:0:
256,192,6131,12,0,6135,0:0:0:0:
256,192,6132,12,0,6136,0:0:0:0:
256,192,6134,12,0,6138,0:0:0:0:
256,192,6135,12,0,6139,0:0:0:0:
256,192,6136,12,0,6140,0:0:0:0:
256,192,6137,12,0,6141,0:0:0:0:
256,192,6138,12,0,6142,0:0:0:0:
256,192,6139,12,0,6143,0:0:0:0:
256,192,6140,12,0,6144,0:0:0:0:
256,192,6141,12,0,6145,0:0:0:0:
256,192,6142,12,0,6146,0:0:0:0:
256,192,6143,12,0,6147,0:0:0:0:
256,192,6144,12,0,6148,0:0:0:0:
256,192,6145,12,0,6149,0:0:0:0:
256,192,6146,12,0,6150,0:0:0:0:
256,192,6147,12,0,6151,0:0:0:0:
256,192,6148,12,0,6152,0:0:0:0:
256,192,6149,12,0,6153,0:0:0:0:
256,192,6151,12,0,6155,0:0:0:0:
256,192,6152,12,0,6156,0:0:0:0:
256,192,6153,12,0,6157,0:0:0:0:
256,192,6154,12,0,6158,0:0:0:0:
256,192,6155,12,0,6159,0:0:0:0:
256,192,6156,12,0,6160,0:0:0:0:
256,192,6157,12,0,6161,0:0:0:0:
256,192,6158,12,0,6162,0:0:0:0:
256,192,6159,12,0,6163,0:0:0:0:
256,192,6160,12,0,6164,0:0:0:0:
256,192,6161,12,0,6165,0:0:0:0:
256,192,6162,12,0,6166,0:0:0:0:
256,192,6163,12,0,6167,0:0:0:0:
256,192,6164,12,0,6168,0:0:0:0:
256,192,6165,12,0,6169,0:0:0:0:
256,192,6166,12,0,6170,0:0:0:0:
256,192,6168,12,0,6172,0:0:0:0:
256,192,6169,12,0,6173,0:0:0:0:
256,192,6170,12,0,6174,0:0:0:0:
256,192,6171,12,0,6175,0:0:0:0:
256,192,6172,12,0,6176,0:0:0:0:
256,192,6173,12,0,6177,0:0:0:0:
256,192,6174,12,0,6178,0:0:0:0:
256,192,6175,12,0,6179,0:0:0:0:
256,192,6176,12,0,6180,0:0:0:0:
256,192,6177,12,0,6181,0:0:0:0:
256,192,6178,12,0,6182,0:0:0:0:
256,192,6179,12,0,6183,0:0:0:0:
256,192,6180,12,0,6184,0:0:0:0:
256,192,6181,12,0,6185,0:0:0:0:
256,192,6182,12,0,6186,0:0:0:0:
256,192,6183,12,0,6187,0:0:0:0:
256,192,6185,12,0,6189,0:0:0:0:
256,192,6186,12,0,6190,0:0:0:0:
256,192,6187,12,0,6191,0:0:0:0:
256,192,6188,12,0,6192,0:0:0:0:
256,192,6189,12,0,6193,0:0:0:0:
256,192,6190,12,0,6194,0:0:0:0:
256,192,6191,12,0,6195,0:0:0:0:
256,192,6192,12,0,6196,0:0:0:0:
256,192,6193,12,0,6197,0:0:0:0:
256,192,6194,12,0,6198,0:0:0:0:
256,192,6195,12,0,6199,0:0:0:0:
256,192,6196,12,0,6200,0:0:0:0:
256,192,6197,12,0,6201,0:0:0:0:
256,192,6198,12,0,6202,0:0:0:0:
256,192,6199,12,0,6203,0:0:0:0:
256,192,6200,12,0,6204,0:0:0:0:
256,192,6202,12,0,6206,0:0:0:0:
256,192,6203,12,0,6207,0:0:0:0:
256,192,6204,12,0,6208,0:0:0:0:
256,192,6205,12,0,6209,0:0:0:0:
256,192,6206,12,0,6210,0:0:0:0:
256,192,6207,12,0,6211,0:0:0:0:
256,192,6208,12,0,6212,0:0:0:0:
256,192,6209,12,0,6213,0:0:0:0:
256,192,6210,12,0,6214,0:0:0:0:
256,192,6211,12,0,6215,0:0:0:0:
256,192,6212,12,0,6216,0:0:0:0:
256,192,6213,12,0,6217,0:0:0:0:
256,192,6214,12,0,6218,0:0:0:0:
256,192,6215,12,0,6219,0:0:0:0:
256,192,6216,12,0,6220,0:0:0:0:
256,192,6217,12,0,6221,0:0:0:0:
256,192,6219,12,0,6223,0:0:0:0:
256,192,6220,12,0,6224,0:0:0:0:
256,192,6221,12,0,6225,0:0:0:0:
256,192,6222,12,0,6226,0:0:0:0:
256,192,6223,12,0,6227,0:0:0:0:
256,192,6224,12,0,6228,0:0:0:0:
256,192,6225,12,0,6229,0:0:0:0:
256,192,6226,12,0,6230,0:0:0:0:
256,192,6227,12,0,6231,0:0:0:0:
256,192,6228,12,0,6232,0:0:0:0:
256,192,6229,12,0,6233,0:0:0:0:
256,192,6230,12,0,6234,0:0:0:0:
256,192,6231,12,0,6235,0:0:0:0:
256,192,6232,12,0,6236,0:0:0:0:
256,192,6233,12,0,6237,0:0:0:0:
256,192,6234,12,0,6238,0:0:0:0:
256,192,6236,12,0,6240,0:0:0:0:
256,192,6237,12,0,6241,0:0:0:0:
256,192,6238,12,0,6242,0:0:0:0:
256,192,6239,12,0,6243,0:0:0:0:
256,192,6240,12,0,6244,0:0:0:0:
256,192,6241,12,0,6245,0:0:0:0:
256,192,6242,12,0,6246,0:0:0:0:
256,192,6243,12,0,6247,0:0:0:0:
256,192,6244,12,0,6248,0:0:0:0:
256,192,6245,12,0,6249,0:0:0:0:
256,192,6246,12,0,6250,0:0:0:0:
256,192,6247,12,0,6251,0:0:0:0:
256,192,6248,12,0,6252,0:0:0:0:
256,192,6249,12,0,6253,0:0:0:0:
256,192,6250,12,0,6254,0:0:0:0:
256,192,6251,12,0,6255,0:0:0:0:
256,192,6253,12,0,6257,0:0:0:0:
256,192,6254,12,0,6258,0:0:0:0:
256,192,6255,12,0,6259,0:0:0:0:
256,192,6256,12,0,6260,0:0:0:0:
256,192,6257,12,0,6261,0:0:0:0:
256,192,6258,12,0,6262,0:0:0:0:
256,192,6259,12,0,6263,0:0:0:0:
256,192,6260,12,0,6264,0:0:0:0:
256,192,6261,12,0,6265,0:0:0:0:
256,192,6262,12,0,6266,0:0:0:0:
256,192,6263,12,0,6267,0:0:0:0:
256,192,6264,12,0,6268,0:0:0:0:
256,192,6265,12,0,6269,0:0:0:0:
256,192,6266,12,0,6270,0:0:0:0:
256,192,6267,12,0,6271,0:0:0:0:
256,192,6268,12,0,6272,0:0:0:0:
256,192,6270,12,0,6274,0:0:0:0:
256,192,6271,12,0,6275,0:0:0:0:
256,192,6272,12,0,6276,0:0:0:0:
256,192,6273,12,0,6277,0:0:0:0:
256,192,6274,12,0,6278,0:0:0:0:
256,192,6275,12,0,6279,0:0:0:0:
256,192,6276,12,0,6280,0:0:0:0:
256,192,6277,12,0,6281,0:0:0:0:
256,192,6278,12,0,6282,0:0:0:0:
256,192,6279,12,0,6283,0:0:0:0:
256,192,6280,12,0,6284,0:0:0:0:
256,192,6281,12,0,6285,0:0:0:0:
256,192,6282,12,0,6286,0:0:0:0:
256,192,6283,12,0,6287,0:0:0:0:
256,192,6284,12,0,6288,0:0:0:0:
256,192,6285,12,0,6289,0:0:0:0:
256,192,6287,12,0,6291,0:0:0:0:
256,192,6288,12,0,6292,0:0:0:0:
256,192,6289,12,0,6293,0:0:0:0:
256,192,6290,12,0,6294,0:0:0:0:
256,192,6291,12,0,6295,0:0:0:0:
256,192,6292,12,0,6296,0:0:0:0:
256,192,6293,12,0,6297,0:0:0:0:
256,192,6294,12,0,6298,0:0:0:0:
256,192,6295,12,0,6299,0:0:0:0:
256,192,6296,12,0,6300,0:0:0:0:
256,192,6297,12,0,6301,0:0:0:0:
256,192,6298,12,0,6302,0:0:0:0:
256,192,6299,12,0,6303,0:0:0:0:
256,192,6300,12,0,6304,0:0:0:0:
256,192,6301,12,0,6305,0:0:0:0:
256,192,6302,12,0,6306,0:0:0:0:
256,192,6304,12,0,6308,0:0:0:0:
256,192,6305,12,0,6309,0:0:0:0:
256,192,6306,12,0,6310,0:0:0:0:
256,192,6307,12,0,6311,0:0:0:0:
256,192,6308,12,0,6312,0:0:0:0:
256,192,6309,12,0,6313,0:0:0:0:
256,192,6310,12,0,6314,0:0:0:0:
256,192,6311,12,0,6315,0:0:0:0:
256,192,6312,12,0,6316,0:0:0:0:
256,192,6313,12,0,6317,0:0:0:0:
256,192,6314,12,0,6318,0:0:0:0:
256,192,6315,12,0,6319,0:0:0:0:
256,192,6316,12,0,6320,0:0:0:0:
256,192,6317,12,0,6321,0:0:0:0:
256,192,6318,12,0,6322,0:0:0:0:
256,192,6319,12,0,6323,0:0:0:0:
256,192,6321,12,0,6325,0:0:0:0:
256,192,6322,12,0,6326,0:0:0:0:
256,192,6323,12,0,6327,0:0:0:0:
256,192,6324,12,0,6328,0:0:0:0:
256,192,6325,12,0,6329,0:0:0:0:
256,192,6326,12,0,6330,0:0:0:0:
256,192,6327,12,0,6331,0:0:0:0:
256,192,6328,12,0,6332,0:0:0:0:
256,192,6329,12,0,6333,0:0:0:0:
256,192,6330,12,0,6334,0:0:0:0:
256,192,6331,12,0,6335,0:0:0:0:
256,192,6332,12,0,6336,0:0:0:0:
256,192,6333,12,0,6337,0:0:0:0:
256,192,6334,12,0,6338,0:0:0:0:
256,192,6335,12,0,6339,0:0:0:0:
256,192,6336,12,0,6340,0:0:0:0:
256,192,6338,12,0,6342,0:0:0:0:
256,192,6339,12,0,6343,0:0:0:0:
256,192,6340,12,0,6344,0:0:0:0:
256,192,6341,12,0,6345,0:0:0:0:
256,192,6342,12,0,6346,0:0:0:0:
256,192,6343,12,0,6347,0:0:0:0:
256,192,6344,12,0,6348,0:0:0:0:
256,192,6345,12,0,6349,0:0:0:0:
256,192,6346,12,0,6350,0:0:0:0:
256,192,6347,12,0,6351,0:0:0:0:
256,192,6348,12,0,6352,0:0:0:0:
256,192,6349,12,0,6353,0:0:0:0:
256,192,6350,12,0,6354,0:0:0:0:
256,192,6351,12,0,6355,0:0:0:0:
256,192,6352,12,0,6356,0:0:0:0:
256,192,6353,12,0,6357,0:0:0:0:
256,192,6355,12,0,6359,0:0:0:0:
256,192,6356,12,0,6360,0:0:0:0:
256,192,6357,12,0,6361,0:0:0:0:
256,192,6358,12,0,6362,0:0:0:0:
256,192,6359,12,0,6363,0:0:0:0:
256,192,6360,12,0,6364,0:0:0:0:
256,192,6361,12,0,6365,0:0:0:0:
256,192,6362,12,0,6366,0:0:0:0:
256,192,6363,12,0,6367,0:0:0:0:
256,192,6364,12,0,6368,0:0:0:0:
256,192,6365,12,0,6369,0:0:0:0:
256,192,6366,12,0,6370,0:0:0:0:
256,192,6367,12,0,6371,0:0:0:0:
256,192,6368,12,0,6372,0:0:0:0:
256,192,6369,12,0,6373,0:0:0:0:
256,192,6370,12,0,6374,0:0:0:0:
256,192,6372,12,0,6376,0:0:0:0:
256,192,6373,12,0,6377,0:0:0:0:
256,192,6374,12,0,6378,0:0:0:0:
256,192,6375,12,0,6379,0:0:0:0:
256,192,6376,12,0,6380,0:0:0:0:
256,192,6377,12,0,6381,0:0:0:0:
256,192,6378,12,0,6382,0:0:0:0:
256,192,6379,12,0,6383,0:0:0:0:
256,192,6380,12,0,6384,0:0:0:0:
256,192,6381,12,0,6385,0:0:0:0:
256,192,6382,12,0,6386,0:0:0:0:
256,192,6383,12,0,6387,0:0:0:0:
256,192,6384,12,0,6388,0:0:0:0:
256,192,6385,12,0,6389,0:0:0:0:
256,192,6386,12,0,6390,0:0:0:0:
256,192,6387,12,0,6391,0:0:0:0:
256,192,6389,12,0,6393,0:0:0:0:
256,192,6390,12,0,6394,0:0:0:0:
256,192,6391,12,0,6395,0:0:0:0:
256,192,6392,12,0,6396,0:0:0:0:
256,192,6393,12,0,6397,0:0:0:0:
256,192,6394,12,0,6398,0:0:0:0:
256,192,6395,12,0,6399,0:0:0:0:
256,192,6396,12,0,6400,0:0:0:0:
256,192,6397,12,0,6401,0:0:0:0:
256,192,6398,12,0,6402,0:0:0:0:
256,192,6399,12,0,6403,0:0:0:0:
256,192,6400,12,0,6404,0:0:0:0:
256,192,6401,12,0,6405,0:0:0:0:
256,192,6402,12,0,6406,0:0:0:0:
256,192,6403,12,0,6407,0:0:0:0:
256,192,6404,12,0,6408,0:0:0:0:
256,192,6406,12,0,6410,0:0:0:0:
256,192,6407,12,0,6411,0:0:0:0:
256,192,6408,12,0,6412,0:0:0:0:
256,192,6409,12,0,6413,0:0:0:0:
256,192,6410,12,0,6414,0:0:0:0:
256,192,6411,12,0,6415,0:0:0:0:
256,192,6412,12,0,6416,0:0:0:0:
256,192,6413,12,0,6417,0:0:0:0:
256,192,6414,12,0,6418,0:0:0:0:
256,192,6415,12,0,6419,0:0:0:0:
256,192,6416,12,0,6420,0:0:0:0:
256,192,6417,12,0,6421,0:0:0:0:
256,192,6418,12,0,6422,0:0:0:0:
256,192,6419,12,0,6423,0:0:0:0:
256,192,6420,12,0,6424,0:0:0:0:
256,192,6421,12,0,6425,0:0:0:0:
256,192,6423,12,0,6427,0:0:0:0:
256,192,6424,12,0,6428,0:0:0:0:
256,192,6425,12,0,6429,0:0:0:0:
256,192,6426,12,0,6430,0:0:0:0:
256,192,6427,12,0,6431,0:0:0:0:
256,192,6428,12,0,6432,0:0:0:0:
256,192,6429,12,0,6433,0:0:0:0:
256,192,6430,12,0,6434,0:0:0:0:
256,192,6431,12,0,6435,0:0:0:0:
256,192,6432,12,0,6436,0:0:0:0:
256,192,6433,12,0,6437,0:0:0:0:
256,192,6434,12,0,6438,0:0:0:0:
256,192,6435,12,0,6439,0:0:0:0:
256,192,6436,12,0,6440,0:0:0:0:
256,192,6437,12,0,6441,0:0:0:0:
256,192,6438,12,0,6442,0:0:0:0:
256,192,6440,12,0,6444,0:0:0:0:
256,192,6441,12,0,6445,0:0:0:0:
256,192,6442,12,0,6446,0:0:0:0:
256,192,6443,12,0,6447,0:0:0:0:
256,192,6444,12,0,6448,0:0:0:0:
256,192,6445,12,0,6449,0:0:0:0:
256,192,6446,12,0,6450,0:0:0:0:
256,192,6447,12,0,6451,0:0:0:0:
256,192,6448,12,0,6452,0:0:0:0:
256,192,6449,12,0,6453,0:0:0:0:
256,192,6450,12,0,6454,0:0:0:0:
256,192,6451,12,0,6455,0:0:0:0:
256,192,6452,12,0,6456,0:0:0:0:
256,192,6453,12,0,6457,0:0:0:0:
256,192,6454,12,0,6458,0:0:0:0:
256,192,6455,12,0,6459,0:0:0:0:
256,192,6457,12,0,6461,0:0:0:0:
256,192,6458,12,0,6462,0:0:0:0:
256,192,6459,12,0,6463,0:0:0:0:
256,192,6460,12,0,6464,0:0:0:0:
256,192,6461,12,0,6465,0:0:0:0:
256,192,6462,12,0,6466,0:0:0:0:
256,192,6463,12,0,6467,0:0:0:0:
256,192,6464,12,0,6468,0:0:0:0:
256,192,6465,12,0,6469,0:0:0:0:
256,192,6466,12,0,6470,0:0:0:0:
256,192,6467,12,0,6471,0:0:0:0:
256,192,6468,12,0,6472,0:0:0:0:
256,192,6469,12,0,6473,0:0:0:0:
256,192,6470,12,0,6474,0:0:0:0:
256,192,6471,12,0,6475,0:0:0:0:
256,192,6472,12,0,6476,0:0:0:0:
256,192,6474,12,0,6478,0:0:0:0:
256,192,6475,12,0,6479,0:0:0:0:
256,192,6476,12,0,6480,0:0:0:0:
256,192,6477,12,0,6481,0:0:0:0:
256,192,6478,12,0,6482,0:0:0:0:
256,192,6479,12,0,6483,0:0:0:0:
256,192,6480,12,0,6484,0:0:0:0:
256,192,6481,12,0,6485,0:0:0:0:
256,192,6482,12,0,6486,0:0:0:0:
256,192,6483,12,0,6487,0:0:0:0:
256,192,6484,12,0,6488,0:0:0:0:
256,192,6485,12,0,6489,0:0:0:0:
256,192,6486,12,0,6490,0:0:0:0:
256,192,6487,12,0,6491,0:0:0:0:
256,192,6488,12,0,6492,0:0:0:0:
256,192,6489,12,0,6493,0:0:0:0:
256,192,6491,12,0,6495,0:0:0:0:
256,192,6492,12,0,6496,0:0:0:0:
256,192,6493,12,0,6497,0:0:0:0:
256,192,6494,12,0,6498,0:0:0:0:
256,192,6495,12,0,6499,0:0:0:0:
256,192,6496,12,0,6500,0:0:0:0:
256,192,6497,12,0,6501,0:0:0:0:
256,192,6498,12,0,6502,0:0:0:0:
256,192,6499,12,0,6503,0:0:0:0:
256,192,6500,12,0,6504,0:0:0:0:
256,192,6501,12,0,6505,0:0:0:0:
256,192,6502,12,0,6506,0:0:0:0:
256,192,6503,12,0,6507,0:0:0:0:
256,192,6504,12,0,6508,0:0:0:0:
256,192,6505,12,0,6509,0:0:0:0:
256,192,6506,12,0,6510,0:0:0:0:
256,192,6508,12,0,6512,0:0:0:0:
256,192,6509,12,0,6513,0:0:0:0:
256,192,6510,12,0,6514,0:0:0:0:
256,192,6511,12,0,6515,0:0:0:0:
256,192,6512,12,0,6516,0:0:0:0:
256,192,6513,12,0,6517,0:0:0:0:
256,192,6514,12,0,6518,0:0:0:0:
256,192,6515,12,0,6519,0:0:0:0:
256,192,6516,12,0,6520,0:0:0:0:
256,192,6517,12,0,6521,0:0:0:0:
256,192,6518,12,0,6522,0:0:0:0:
256,192,6519,12,0,6523,0:0:0:0:
256,192,6520,12,0,6524,0:0:0:0:
256,192,6521,12,0,6525,0:0:0:0:
256,192,6522,12,0,6526,0:0:0:0:
256,192,6523,12,0,6527,0:0:0:0:
256,192,6525,12,0,6529,0:0:0:0:
256,192,6526,12,0,6530,0:0:0:0:
256,192,6527,12,0,6531,0:0:0:0:
256,192,6528,12,0,6532,0:0:0:0:
256,192,6529,12,0,6533,0:0:0:0:
256,192,6530,12,0,6534,0:0:0:0:
256,192,6531,12,0,6535,0:0:0:0:
256,192,6532,12,0,6536,0:0:0:0:
256,192,6533,12,0,6537,0:0:0:0:
256,192,6534,12,0,6538,0:0:0:0:
256,192,6535,12,0,6539,0:0:0:0:
256,192,6536,12,0,6540,0:0:0:0:
256,192,6537,12,0,6541,0:0:0:0:
256,192,6538,12,0,6542,0:0:0:0:
256,192,6539,12,0,6543,0:0:0:0:
256,192,6540,12,0,6544,0:0:0:0:
256,192,6544,12,0,6548,0:0:0:0:
256,192,6544,12,0,6548,0:0:0:0:
256,192,6546,12,0,6550,0:0:0:0:
256,192,6546,12,0,6550,0:0:0:0:
256,192,6548,12,0,6552,0:0:0:0:
256,192,6548,12,0,6552,0:0:0:0:
256,192,6550,12,0,6554,0:0:0:0:
256,192,6550,12,0,6554,0:0:0:0:
256,192,6552,12,0,6556,0:0:0:0:
256,192,6552,12,0,6556,0:0:0:0:
256,192,6554,12,0,6558,0:0:0:0:
256,192,6554,12,0,6558,0:0:0:0:
256,192,6556,12,0,6560,0:0:0:0:
256,192,6556,12,0,6560,0:0:0:0:
256,192,6558,12,0,6562,0:0:0:0:
256,192,6558,12,0,6562,0:0:0:0:
256,192,6561,12,0,6565,0:0:0:0:
256,192,6561,12,0,6565,0:0:0:0:
256,192,6563,12,0,6567,0:0:0:0:
256,192,6563,12,0,6567,0:0:0:0:
256,192,6565,12,0,6569,0:0:0:0:
256,192,6565,12,0,6569,0:0:0:0:
256,192,6567,12,0,6571,0:0:0:0:
256,192,6567,12,0,6571,0:0:0:0:
256,192,6569,12,0,6573,0:0:0:0:
256,192,6569,12,0,6573,0:0:0:0:
256,192,6571,12,0,6575,0:0:0:0:
256,192,6571,12,0,6575,0:0:0:0:
256,192,6573,12,0,6577,0:0:0:0:
256,192,6573,12,0,6577,0:0:0:0:
256,192,6575,12,0,6579,0:0:0:0:
256,192,6575,12,0,6579,0:0:0:0:
256,192,6578,12,0,6582,0:0:0:0:
256,192,6578,12,0,6582,0:0:0:0:
256,192,6580,12,0,6584,0:0:0:0:
256,192,6580,12,0,6584,0:0:0:0:
256,192,6582,12,0,6586,0:0:0:0:
256,192,6582,12,0,6586,0:0:0:0:
256,192,6584,12,0,6588,0:0:0:0:
256,192,6584,12,0,6588,0:0:0:0:
256,192,6586,12,0,6590,0:0:0:0:
256,192,6586,12,0,6590,0:0:0:0:
256,192,6588,12,0,6592,0:0:0:0:
256,192,6588,12,0,6592,0:0:0:0:
256,192,6590,12,0,6594,0:0:0:0:
256,192,6590,12,0,6594,0:0:0:0:
256,192,6592,12,0,6596,0:0:0:0:
256,192,6592,12,0,6596,0:0:0:0:
256,192,6595,12,0,6599,0:0:0:0:
256,192,6595,12,0,6599,0:0:0:0:
256,192,6597,12,0,6601,0:0:0:0:
256,192,6597,12,0,6601,0:0:0:0:
256,192,6599,12,0,6603,0:0:0:0:
256,192,6599,12,0,6603,0:0:0:0:
256,192,6601,12,0,6605,0:0:0:0:
256,192,6601,12,0,6605,0:0:0:0:
256,192,6603,12,0,6607,0:0:0:0:
256,192,6603,12,0,6607,0:0:0:0:
256,192,6605,12,0,6609,0:0:0:0:
256,192,6605,12,0,6609,0:0:0:0:
256,192,6607,12,0,6611,0:0:0:0:
256,192,6607,12,0,6611,0:0:0:0:
256,192,6609,12,0,6613,0:0:0:0:
256,192,6609,12,0,6613,0:0:0:0:
256,192,6612,12,0,6616,0:0:0:0:
256,192,6612,12,0,6616,0:0:0:0:
256,192,6614,12,0,6618,0:0:0:0:
256,192,6614,12,0,6618,0:0:0:0:
256,192,6616,12,0,6620,0:0:0:0:
256,192,6616,12,0,6620,0:0:0:0:
256,192,6618,12,0,6622,0:0:0:0:
256,192,6618,12,0,6622,0:0:0:0:
256,192,6620,12,0,6624,0:0:0:0:
256,192,6620,12,0,6624,0:0:0:0:
256,192,6622,12,0,6626,0:0:0:0:
256,192,6622,12,0,6626,0:0:0:0:
256,192,6624,12,0,6628,0:0:0:0:
256,192,6624,12,0,6628,0:0:0:0:
256,192,6626,12,0,6630,0:0:0:0:
256,192,6626,12,0,6630,0:0:0:0:
256,192,6629,12,0,6633,0:0:0:0:
256,192,6629,12,0,6633,0:0:0:0:
256,192,6631,12,0,6635,0:0:0:0:
256,192,6631,12,0,6635,0:0:0:0:
256,192,6633,12,0,6637,0:0:0:0:
256,192,6633,12,0,6637,0:0:0:0:
256,192,6635,12,0,6639,0:0:0:0:
256,192,6635,12,0,6639,0:0:0:0:
256,192,6637,12,0,6641,0:0:0:0:
256,192,6637,12,0,6641,0:0:0:0:
256,192,6639,12,0,6643,0:0:0:0:
256,192,6639,12,0,6643,0:0:0:0:
256,192,6641,12,0,6645,0:0:0:0:
256,192,6641,12,0,6645,0:0:0:0:
256,192,6643,12,0,6647,0:0:0:0:
256,192,6643,12,0,6647,0:0:0:0:
256,192,6646,12,0,6650,0:0:0:0:
256,192,6646,12,0,6650,0:0:0:0:
256,192,6648,12,0,6652,0:0:0:0:
256,192,6648,12,0,6652,0:0:0:0:
256,192,6650,12,0,6654,0:0:0:0:
256,192,6650,12,0,6654,0:0:0:0:
256,192,6652,12,0,6656,0:0:0:0:
256,192,6652,12,0,6656,0:0:0:0:
256,192,6654,12,0,6658,0:0:0:0:
256,192,6654,12,0,6658,0:0:0:0:
256,192,6656,12,0,6660,0:0:0:0:
256,192,6656,12,0,6660,0:0:0:0:
256,192,6658,12,0,6662,0:0:0:0:
256,192,6658,12,0,6662,0:0:0:0:
256,192,6660,12,0,6664,0:0:0:0:
256,192,6660,12,0,6664,0:0:0:0:
256,192,6663,12,0,6667,0:0:0:0:
256,192,6663,12,0,6667,0:0:0:0:
256,192,6665,12,0,6669,0:0:0:0:
256,192,6665,12,0,6669,0:0:0:0:
256,192,6667,12,0,6671,0:0:0:0:
256,192,6667,12,0,6671,0:0:0:0:
256,192,6669,12,0,6673,0:0:0:0:
256,192,6669,12,0,6673,0:0:0:0:
256,192,6671,12,0,6675,0:0:0:0:
256,192,6671,12,0,6675,0:0:0:0:
256,192,6673,12,0,6677,0:0:0:0:
256,192,6673,12,0,6677,0:0:0:0:
256,192,6675,12,0,6679,0:0:0:0:
256,192,6675,12,0,6679,0:0:0:0:
256,192,6677,12,0,6681,0:0:0:0:
256,192,6677,12,0,6681,0:0:0:0:
256,192,6680,12,0,6684,0:0:0:0:
256,192,6680,12,0,6684,0:0:0:0:
256,192,6682,12,0,6686,0:0:0:0:
256,192,6682,12,0,6686,0:0:0:0:
256,192,6684,12,0,6688,0:0:0:0:
256,192,6684,12,0,6688,0:0:0:0:
256,192,6686,12,0,6690,0:0:0:0:
256,192,6686,12,0,6690,0:0:0:0:
256,192,6688,12,0,6692,0:0:0:0:
256,192,6688,12,0,6692,0:0:0:0:
256,192,6690,12,0,6694,0:0:0:0:
256,192,6690,12,0,6694,0:0:0:0:
256,192,6692,12,0,6696,0:0:0:0:
256,192,6692,12,0,6696,0:0:0:0:
256,192,6694,12,0,6698,0:0:0:0:
256,192,6694,12,0,6698,0:0:0:0:
256,192,6697,12,0,6701,0:0:0:0:
256,192,6697,12,0,6701,0:0:0:0:
256,192,6699,12,0,6703,0:0:0:0:
256,192,6699,12,0,6703,0:0:0:0:
256,192,6701,12,0,6705,0:0:0:0:
256,192,6701,12,0,6705,0:0:0:0:
256,192,6703,12,0,6707,0:0:0:0:
256,192,6703,12,0,6707,0:0:0:0:
256,192,6705,12,0,6709,0:0:0:0:
256,192,6705,12,0,6709,0:0:0:0:
256,192,6707,12,0,6711,0:0:0:0:
256,192,6707,12,0,6711,0:0:0:0:
256,192,6709,12,0,6713,0:0:0:0:
256,192,6709,12,0,6713,0:0:0:0:
256,192,6711,12,0,6715,0:0:0:0:
256,192,6711,12,0,6715,0:0:0:0:
256,192,6714,12,0,6718,0:0:0:0:
256,192,6714,12,0,6718,0:0:0:0:
256,192,6716,12,0,6720,0:0:0:0:
256,192,6716,12,0,6720,0:0:0:0:
256,192,6718,12,0,6722,0:0:0:0:
256,192,6718,12,0,6722,0:0:0:0:
256,192,6720,12,0,6724,0:0:0:0:
256,192,6720,12,0,6724,0:0:0:0:
256,192,6722,12,0,6726,0:0:0:0:
256,192,6722,12,0,6726,0:0:0:0:
256,192,6724,12,0,6728,0:0:0:0:
256,192,6724,12,0,6728,0:0:0:0:
256,192,6726,12,0,6730,0:0:0:0:
256,192,6726,12,0,6730,0:0:0:0:
256,192,6728,12,0,6732,0:0:0:0:
256,192,6728,12,0,6732,0:0:0:0:
256,192,6731,12,0,6735,0:0:0:0:
256,192,6731,12,0,6735,0:0:0:0:
256,192,6733,12,0,6737,0:0:0:0:
256,192,6733,12,0,6737,0:0:0:0:
256,192,6735,12,0,6739,0:0:0:0:
256,192,6735,12,0,6739,0:0:0:0:
256,192,6737,12,0,6741,0:0:0:0:
256,192,6737,12,0,6741,0:0:0:0:
256,192,6739,12,0,6743,0:0:0:0:
256,192,6739,12,0,6743,0:0:0:0:
256,192,6741,12,0,6745,0:0:0:0:
256,192,6741,12,0,6745,0:0:0:0:
256,192,6743,12,0,6747,0:0:0:0:
256,192,6743,12,0,6747,0:0:0:0:
256,192,6745,12,0,6749,0:0:0:0:
256,192,6745,12,0,6749,0:0:0:0:
256,192,6748,12,0,6752,0:0:0:0:
256,192,6748,12,0,6752,0:0:0:0:
256,192,6750,12,0,6754,0:0:0:0:
256,192,6750,12,0,6754,0:0:0:0:
256,192,6752,12,0,6756,0:0:0:0:
256,192,6752,12,0,6756,0:0:0:0:
256,192,6754,12,0,6758,0:0:0:0:
256,192,6754,12,0,6758,0:0:0:0:
256,192,6756,12,0,6760,0:0:0:0:
256,192,6756,12,0,6760,0:0:0:0:
256,192,6758,12,0,6762,0:0:0:0:
256,192,6758,12,0,6762,0:0:0:0:
256,192,6760,12,0,6764,0:0:0:0:
256,192,6760,12,0,6764,0:0:0:0:
256,192,6762,12,0,6766,0:0:0:0:
256,192,6762,12,0,6766,0:0:0:0:
256,192,6765,12,0,6769,0:0:0:0:
256,192,6765,12,0,6769,0:0:0:0:
256,192,6767,12,0,6771,0:0:0:0:
256,192,6767,12,0,6771,0:0:0:0:
256,192,6769,12,0,6773,0:0:0:0:
256,192,6769,12,0,6773,0:0:0:0:
256,192,6771,12,0,6775,0:0:0:0:
256,192,6771,12,0,6775,0:0:0:0:
256,192,6773,12,0,6777,0:0:0:0:
256,192,6773,12,0,6777,0:0:0:0:
256,192,6775,12,0,6779,0:0:0:0:
256,192,6775,12,0,6779,0:0:0:0:
256,192,6777,12,0,6781,0:0:0:0:
256,192,6777,12,0,6781,0:0:0:0:
256,192,6779,12,0,6783,0:0:0:0:
256,192,6779,12,0,6783,0:0:0:0:
256,192,6782,12,0,6786,0:0:0:0:
256,192,6782,12,0,6786,0:0:0:0:
256,192,6784,12,0,6788,0:0:0:0:
256,192,6784,12,0,6788,0:0:0:0:
256,192,6786,12,0,6790,0:0:0:0:
256,192,6786,12,0,6790,0:0:0:0:
256,192,6788,12,0,6792,0:0:0:0:
256,192,6788,12,0,6792,0:0:0:0:
256,192,6790,12,0,6794,0:0:0:0:
256,192,6790,12,0,6794,0:0:0:0:
256,192,6792,12,0,6796,0:0:0:0:
256,192,6792,12,0,6796,0:0:0:0:
256,192,6794,12,0,6798,0:0:0:0:
256,192,6794,12,0,6798,0:0:0:0:
256,192,6796,12,0,6800,0:0:0:0:
256,192,6796,12,0,6800,0:0:0:0:
256,192,6799,12,0,6803,0:0:0:0:
256,192,6799,12,0,6803,0:0:0:0:
256,192,6801,12,0,6805,0:0:0:0:
256,192,6801,12,0,6805,0:0:0:0:
256,192,6803,12,0,6807,0:0:0:0:
256,192,6803,12,0,6807,0:0:0:0:
256,192,6805,12,0,6809,0:0:0:0:
256,192,6805,12,0,6809,0:0:0:0:
256,192,6807,12,0,6811,0:0:0:0:
256,192,6807,12,0,6811,0:0:0:0:
256,192,6809,12,0,6813,0:0:0:0:
256,192,6809,12,0,6813,0:0:0:0:
256,192,6811,12,0,6815,0:0:0:0:
256,192,6811,12,0,6815,0:0:0:0:
256,192,6813,12,0,6817,0:0:0:0:
256,192,6813,12,0,6817,0:0:0:0:
256,192,6816,12,0,6820,0:0:0:0:
256,192,6816,12,0,6820,0:0:0:0:
256,192,6818,12,0,6822,0:0:0:0:
256,192,6818,12,0,6822,0:0:0:0:
256,192,6820,12,0,6824,0:0:0:0:
256,192,6820,12,0,6824,0:0:0:0:
256,192,6822,12,0,6826,0:0:0:0:
256,192,6822,12,0,6826,0:0:0:0:
256,192,6824,12,0,6828,0:0:0:0:
256,192,6824,12,0,6828,0:0:0:0:
256,192,6826,12,0,6830,0:0:0:0:
256,192,6826,12,0,6830,0:0:0:0:
256,192,6828,12,0,6832,0:0:0:0:
256,192,6828,12,0,6832,0:0:0:0:
256,192,6830,12,0,6834,0:0:0:0:
256,192,6830,12,0,6834,0:0:0:0:
256,192,6833,12,0,6837,0:0:0:0:
256,192,6833,12,0,6837,0:0:0:0:
256,192,6835,12,0,6839,0:0:0:0:
256,192,6835,12,0,6839,0:0:0:0:
256,192,6837,12,0,6841,0:0:0:0:
256,192,6837,12,0,6841,0:0:0:0:
256,192,6839,12,0,6843,0:0:0:0:
256,192,6839,12,0,6843,0:0:0:0:
256,192,6841,12,0,6845,0:0:0:0:
256,192,6841,12,0,6845,0:0:0:0:
256,192,6843,12,0,6847,0:0:0:0:
256,192,6843,12,0,6847,0:0:0:0:
256,192,6845,12,0,6849,0:0:0:0:
256,192,6845,12,0,6849,0:0:0:0:
256,192,6847,12,0,6851,0:0:0:0:
256,192,6847,12,0,6851,0:0:0:0:
256,192,6850,12,0,6854,0:0:0:0:
256,192,6850,12,0,6854,0:0:0:0:
256,192,6852,12,0,6856,0:0:0:0:
256,192,6852,12,0,6856,0:0:0:0:
256,192,6854,12,0,6858,0:0:0:0:
256,192,6854,12,0,6858,0:0:0:0:
256,192,6856,12,0,6860,0:0:0:0:
256,192,6856,12,0,6860,0:0:0:0:
256,192,6858,12,0,6862,0:0:0:0:
256,192,6858,12,0,6862,0:0:0:0:
256,192,6860,12,0,6864,0:0:0:0:
256,192,6860,12,0,6864,0:0:0:0:
256,192,6862,12,0,6866,0:0:0:0:
256,192,6862,12,0,6866,0:0:0:0:
256,192,6864,12,0,6868,0:0:0:0:
256,192,6864,12,0,6868,0:0:0:0:
256,192,6867,12,0,6871,0:0:0:0:
256,192,6867,12,0,6871,0:0:0:0:
256,192,6869,12,0,6873,0:0:0:0:
256,192,6869,12,0,6873,0:0:0:0:
256,192,6871,12,0,6875,0:0:0:0:
256,192,6871,12,0,6875,0:0:0:0:
256,192,6873,12,0,6877,0:0:0:0:
256,192,6873,12,0,6877,0:0:0:0:
256,192,6875,12,0,6879,0:0:0:0:
256,192,6875,12,0,6879,0:0:0:0:
256,192,6877,12,0,6881,0:0:0:0:
256,192,6877,12,0,6881,0:0:0:0:
256,192,6879,12,0,6883,0:0:0:0:
256,192,6879,12,0,6883,0:0:0:0:
256,192,6881,12,0,6885,0:0:0:0:
256,192,6881,12,0,6885,0:0:0:0:
256,192,6884,12,0,6888,0:0:0:0:
256,192,6884,12,0,6888,0:0:0:0:
256,192,6886,12,0,6890,0:0:0:0:
256,192,6886,12,0,6890,0:0:0:0:
256,192,6888,12,0,6892,0:0:0:0:
256,192,6888,12,0,6892,0:0:0:0:
256,192,6890,12,0,6894,0:0:0:0:
256,192,6890,12,0,6894,0:0:0:0:
256,192,6892,12,0,6896,0:0:0:0:
256,192,6892,12,0,6896,0:0:0:0:
256,192,6894,12,0,6898,0:0:0:0:
256,192,6894,12,0,6898,0:0:0:0:
256,192,6896,12,0,6900,0:0:0:0:
256,192,6896,12,0,6900,0:0:0:0:
256,192,6898,12,0,6902,0:0:0:0:
256,192,6898,12,0,6902,0:0:0:0:
256,192,6901,12,0,6905,0:0:0:0:
256,192,6901,12,0,6905,0:0:0:0:
256,192,6903,12,0,6907,0:0:0:0:
256,192,6903,12,0,6907,0:0:0:0:
256,192,6905,12,0,6909,0:0:0:0:
256,192,6905,12,0,6909,0:0:0:0:
256,192,6907,12,0,6911,0:0:0:0:
256,192,6907,12,0,6911,0:0:0:0:
256,192,6909,12,0,6913,0:0:0:0:
256,192,6909,12,0,6913,0:0:0:0:
256,192,6911,12,0,6915,0:0:0:0:
256,192,6911,12,0,6915,0:0:0:0:
256,192,6913,12,0,6917,0:0:0:0:
256,192,6913,12,0,6917,0:0:0:0:
256,192,6915,12,0,6919,0:0:0:0:
256,192,6915,12,0,6919,0:0:0:0:
256,192,6918,12,0,6922,0:0:0:0:
256,192,6918,12,0,6922,0:0:0:0:
256,192,6920,12,0,6924,0:0:0:0:
256,192,6920,12,0,6924,0:0:0:0:
256,192,6922,12,0,6926,0:0:0:0:
256,192,6922,12,0,6926,0:0:0:0:
256,192,6924,12,0,6928,0:0:0:0:
256,192,6924,12,0,6928,0:0:0:0:
256,192,6926,12,0,6930,0:0:0:0:
256,192,6926,12,0,6930,0:0:0:0:
256,192,6928,12,0,6932,0:0:0:0:
256,192,6928,12,0,6932,0:0:0:0:
256,192,6930,12,0,6934,0:0:0:0:
256,192,6930,12,0,6934,0:0:0:0:
256,192,6932,12,0,6936,0:0:0:0:
256,192,6932,12,0,6936,0:0:0:0:
256,192,6935,12,0,6939,0:0:0:0:
256,192,6935,12,0,6939,0:0:0:0:
256,192,6937,12,0,6941,0:0:0:0:
256,192,6937,12,0,6941,0:0:0:0:
256,192,6939,12,0,6943,0:0:0:0:
256,192,6939,12,0,6943,0:0:0:0:
256,192,6941,12,0,6945,0:0:0:0:
256,192,6941,12,0,6945,0:0:0:0:
256,192,6943,12,0,6947,0:0:0:0:
256,192,6943,12,0,6947,0:0:0:0:
256,192,6945,12,0,6949,0:0:0:0:
256,192,6945,12,0,6949,0:0:0:0:
256,192,6947,12,0,6951,0:0:0:0:
256,192,6947,12,0,6951,0:0:0:0:
256,192,6949,12,0,6953,0:0:0:0:
256,192,6949,12,0,6953,0:0:0:0:
256,192,6952,12,0,6956,0:0:0:0:
256,192,6952,12,0,6956,0:0:0:0:
256,192,6954,12,0,6958,0:0:0:0:
256,192,6954,12,0,6958,0:0:0:0:
256,192,6956,12,0,6960,0:0:0:0:
256,192,6956,12,0,6960,0:0:0:0:
256,192,6958,12,0,6962,0:0:0:0:
256,192,6958,12,0,6962,0:0:0:0:
256,192,6960,12,0,6964,0:0:0:0:
256,192,6960,12,0,6964,0:0:0:0:
256,192,6962,12,0,6966,0:0:0:0:
256,192,6962,12,0,6966,0:0:0:0:
256,192,6964,12,0,6968,0:0:0:0:
256,192,6964,12,0,6968,0:0:0:0:
256,192,6966,12,0,6970,0:0:0:0:
256,192,6966,12,0,6970,0:0:0:0:
256,192,6969,12,0,6973,0:0:0:0:
256,192,6969,12,0,6973,0:0:0:0:
256,192,6971,12,0,6975,0:0:0:0:
256,192,6971,12,0,6975,0:0:0:0:
256,192,6973,12,0,6977,0:0:0:0:
256,192,6973,12,0,6977,0:0:0:0:
256,192,6975,12,0,6979,0:0:0:0:
256,192,6975,12,0,6979,0:0:0:0:
256,192,6977,12,0,6981,0:0:0:0:
256,192,6977,12,0,6981,0:0:0:0:
256,192,6979,12,0,6983,0:0:0:0:
256,192,6979,12,0,6983,0:0:0:0:
256,192,6981,12,0,6985,0:0:0:0:
256,192,6981,12,0,6985,0:0:0:0:
256,192,6983,12,0,6987,0:0:0:0:
256,192,6983,12,0,6987,0:0:0:0:
256,192,6986,12,0,6990,0:0:0:0:
256,192,6986,12,0,6990,0:0:0:0:
256,192,6988,12,0,6992,0:0:0:0:
256,192,6988,12,0,6992,0:0:0:0:
256,192,6990,12,0,6994,0:0:0:0:
256,192,6990,12,0,6994,0:0:0:0:
256,192,6992,12,0,6996,0:0:0:0:
256,192,6992,12,0,6996,0:0:0:0:
256,192,6994,12,0,6998,0:0:0:0:
256,192,6994,12,0,6998,0:0:0:0:
256,192,6996,12,0,7000,0:0:0:0:
256,192,6996,12,0,7000,0:0:0:0:
256,192,6998,12,0,7002,0:0:0:0:
256,192,6998,12,0,7002,0:0:0:0:
256,192,7000,12,0,7004,0:0:0:0:
256,192,7000,12,0,7004,0:0:0:0:
256,192,7003,12,0,7007,0:0:0:0:
256,192,7003,12,0,7007,0:0:0:0:
256,192,7005,12,0,7009,0:0:0:0:
256,192,7005,12,0,7009,0:0:0:0:
256,192,7007,12,0,7011,0:0:0:0:
256,192,7007,12,0,7011,0:0:0:0:
256,192,7009,12,0,7013,0:0:0:0:
256,192,7009,12,0,7013,0:0:0:0:
256,192,7011,12,0,7015,0:0:0:0:
256,192,7011,12,0,7015,0:0:0:0:
256,192,7013,12,0,7017,0:0:0:0:
256,192,7013,12,0,7017,0:0:0:0:
256,192,7015,12,0,7019,0:0:0:0:
256,192,7015,12,0,7019,0:0:0:0:
256,192,7017,12,0,7021,0:0:0:0:
256,192,7017,12,0,7021,0:0:0:0:
256,192,7020,12,0,7024,0:0:0:0:
256,192,7020,12,0,7024,0:0:0:0:
256,192,7022,12,0,7026,0:0:0:0:
256,192,7022,12,0,7026,0:0:0:0:
256,192,7024,12,0,7028,0:0:0:0:
256,192,7024,12,0,7028,0:0:0:0:
256,192,7026,12,0,7030,0:0:0:0:
256,192,7026,12,0,7030,0:0:0:0:
256,192,7028,12,0,7032,0:0:0:0:
256,192,7028,12,0,7032,0:0:0:0:
256,192,7030,12,0,7034,0:0:0:0:
256,192,7030,12,0,7034,0:0:0:0:
256,192,7032,12,0,7036,0:0:0:0:
256,192,7032,12,0,7036,0:0:0:0:
256,192,7034,12,0,7038,0:0:0:0:
256,192,7034,12,0,7038,0:0:0:0:
256,192,7037,12,0,7041,0:0:0:0:
256,192,7037,12,0,7041,0:0:0:0:
256,192,7039,12,0,7043,0:0:0:0:
256,192,7039,12,0,7043,0:0:0:0:
256,192,7041,12,0,7045,0:0:0:0:
256,192,7041,12,0,7045,0:0:0:0:
256,192,7043,12,0,7047,0:0:0:0:
256,192,7043,12,0,7047,0:0:0:0:
256,192,7045,12,0,7049,0:0:0:0:
256,192,7045,12,0,7049,0:0:0:0:
256,192,7047,12,0,7051,0:0:0:0:
256,192,7047,12,0,7051,0:0:0:0:
256,192,7049,12,0,7053,0:0:0:0:
256,192,7049,12,0,7053,0:0:0:0:
256,192,7051,12,0,7055,0:0:0:0:
256,192,7051,12,0,7055,0:0:0:0:
256,192,7054,12,0,7058,0:0:0:0:
256,192,7054,12,0,7058,0:0:0:0:
256,192,7056,12,0,7060,0:0:0:0:
256,192,7056,12,0,7060,0:0:0:0:
256,192,7058,12,0,7062,0:0:0:0:
256,192,7058,12,0,7062,0:0:0:0:
256,192,7060,12,0,7064,0:0:0:0:
256,192,7060,12,0,7064,0:0:0:0:
256,192,7062,12,0,7066,0:0:0:0:
256,192,7062,12,0,7066,0:0:0:0:
256,192,7064,12,0,7068,0:0:0:0:
256,192,7064,12,0,7068,0:0:0:0:
256,192,7066,12,0,7070,0:0:0:0:
256,192,7066,12,0,7070,0:0:0:0:
256,192,7068,12,0,7072,0:0:0:0:
256,192,7068,12,0,7072,0:0:0:0:
256,192,7071,12,0,7075,0:0:0:0:
256,192,7071,12,0,7075,0:0:0:0:
256,192,7073,12,0,7077,0:0:0:0:
256,192,7073,12,0,7077,0:0:0:0:
256,192,7075,12,0,7079,0:0:0:0:
256,192,7075,12,0,7079,0:0:0:0:
256,192,7077,12,0,7081,0:0:0:0:
256,192,7077,12,0,7081,0:0:0:0:
256,192,7079,12,0,7083,0:0:0:0:
256,192,7079,12,0,7083,0:0:0:0:
256,192,7081,12,0,7085,0:0:0:0:
256,192,7081,12,0,7085,0:0:0:0:
256,192,7083,12,0,7087,0:0:0:0:
256,192,7083,12,0,7087,0:0:0:0:
256,192,7085,12,0,7089,0:0:0:0:
256,192,7085,12,0,7089,0:0:0:0:
256,192,7089,12,0,7093,0:0:0:0:
256,192,7090,12,0,7094,0:0:0:0:
256,192,7091,12,0,7095,0:0:0:0:
256,192,7092,12,0,7096,0:0:0:0:
256,192,7093,12,0,7097,0:0:0:0:
256,192,7094,12,0,7098,0:0:0:0:
256,192,7095,12,0,7099,0:0:0:0:
256,192,7096,12,0,7100,0:0:0:0:
256,192,7097,12,0,7101,0:0:0:0:
256,192,7098,12,0,7102,0:0:0:0:
256,192,7099,12,0,7103,0:0:0:0:
256,192,7100,12,0,7104,0:0:0:0:
256,192,7101,12,0,7105,0:0:0:0:
256,192,7102,12,0,7106,0:0:0:0:
256,192,7103,12,0,7107,0:0:0:0:
256,192,7104,12,0,7108,0:0:0:0:
256,192,7106,12,0,7110,0:0:0:0:
256,192,7107,12,0,7111,0:0:0:0:
256,192,7108,12,0,7112,0:0:0:0:
256,192,7109,12,0,7113,0:0:0:0:
256,192,7110,12,0,7114,0:0:0:0:
256,192,7111,12,0,7115,0:0:0:0:
256,192,7112,12,0,7116,0:0:0:0:
256,192,7113,12,0,7117,0:0:0:0:
256,192,7114,12,0,7118,0:0:0:0:
256,192,7115,12,0,7119,0:0:0:0:
256,192,7116,12,0,7120,0:0:0:0:
256,192,7117,12,0,7121,0:0:0:0:
256,192,7118,12,0,7122,0:0:0:0:
256,192,7119,12,0,7123,0:0:0:0:
256,192,7120,12,0,7124,0:0:0:0:
256,192,7121,12,0,7125,0:0:0:0:
256,192,7123,12,0,7127,0:0:0:0:
256,192,7124,12,0,7128,0:0:0:0:
256,192,7125,12,0,7129,0:0:0:0:
256,192,7126,12,0,7130,0:0:0:0:
256,192,7127,12,0,7131,0:0:0:0:
256,192,7128,12,0,7132,0:0:0:0:
256,192,7129,12,0,7133,0:0:0:0:
256,192,7130,12,0,7134,0:0:0:0:
256,192,7131,12,0,7135,0:0:0:0:
256,192,7132,12,0,7136,0:0:0:0:
256,192,7133,12,0,7137,0:0:0:0:
256,192,7134,12,0,7138,0:0:0:0:
256,192,7135,12,0,7139,0:0:0:0:
256,192,7136,12,0,7140,0:0:0:0:
256,192,7137,12,0,7141,0:0:0:0:
256,192,7138,12,0,7142,0:0:0:0:
256,192,7140,12,0,7144,0:0:0:0:
256,192,7141,12,0,7145,0:0:0:0:
256,192,7142,12,0,7146,0:0:0:0:
256,192,7143,12,0,7147,0:0:0:0:
256,192,7144,12,0,7148,0:0:0:0:
256,192,7145,12,0,7149,0:0:0:0:
256,192,7146,12,0,7150,0:0:0:0:
256,192,7147,12,0,7151,0:0:0:0:
256,192,7148,12,0,7152,0:0:0:0:
256,192,7149,12,0,7153,0:0:0:0:
256,192,7150,12,0,7154,0:0:0:0:
256,192,7151,12,0,7155,0:0:0:0:
256,192,7152,12,0,7156,0:0:0:0:
256,192,7153,12,0,7157,0:0:0:0:
256,192,7154,12,0,7158,0:0:0:0:
256,192,7155,12,0,7159,0:0:0:0:
256,192,7157,12,0,7161,0:0:0:0:
256,192,7158,12,0,7162,0:0:0:0:
256,192,7159,12,0,7163,0:0:0:0:
256,192,7160,12,0,7164,0:0:0:0:
256,192,7161,12,0,7165,0:0:0:0:
256,192,7162,12,0,7166,0:0:0:0:
256,192,7163,12,0,7167,0:0:0:0:
256,192,7164,12,0,7168,0:0:0:0:
256,192,7165,12,0,7169,0:0:0:0:
256,192,7166,12,0,7170,0:0:0:0:
256,192,7167,12,0,7171,0:0:0:0:
256,192,7168,12,0,7172,0:0:0:0:
256,192,7169,12,0,7173,0:0:0:0:
256,192,7170,12,0,7174,0:0:0:0:
256,192,7171,12,0,7175,0:0:0:0:
256,192,7172,12,0,7176,0:0:0:0:
256,192,7174,12,0,7178,0:0:0:0:
256,192,7175,12,0,7179,0:0:0:0:
256,192,7176,12,0,7180,0:0:0:0:
256,192,7177,12,0,7181,0:0:0:0:
256,192,7178,12,0,7182,0:0:0:0:
256,192,7179,12,0,7183,0:0:0:0:
256,192,7180,12,0,7184,0:0:0:0:
256,192,7181,12,0,7185,0:0:0:0:
256,192,7182,12,0,7186,0:0:0:0:
256,192,7183,12,0,7187,0:0:0:0:
256,192,7184,12,0,7188,0:0:0:0:
256,192,7185,12,0,7189,0:0:0:0:
256,192,7186,12,0,7190,0:0:0:0:
256,192,7187,12,0,7191,0:0:0:0:
256,192,7188,12,0,7192,0:0:0:0:
256,192,7189,12,0,7193,0:0:0:0:
256,192,7191,12,0,7195,0:0:0:0:
256,192,7192,12,0,7196,0:0:0:0:
256,192,7193,12,0,7197,0:0:0:0:
256,192,7194,12,0,7198,0:0:0:0:
256,192,7195,12,0,7199,0:0:0:0:
256,192,7196,12,0,7200,0:0:0:0:
256,192,7197,12,0,7201,0:0:0:0:
256,192,7198,12,0,7202,0:0:0:0:
256,192,7199,12,0,7203,0:0:0:0:
256,192,7200,12,0,7204,0:0:0:0:
256,192,7201,12,0,7205,0:0:0:0:
256,192,7202,12,0,7206,0:0:0:0:
256,192,7203,12,0,7207,0:0:0:0:
256,192,7204,12,0,7208,0:0:0:0:
256,192,7205,12,0,7209,0:0:0:0:
256,192,7206,12,0,7210,0:0:0:0:
256,192,7208,12,0,7212,0:0:0:0:
256,192,7209,12,0,7213,0:0:0:0:
256,192,7210,12,0,7214,0:0:0:0:
256,192,7211,12,0,7215,0:0:0:0:
256,192,7212,12,0,7216,0:0:0:0:
256,192,7213,12,0,7217,0:0:0:0:
256,192,7214,12,0,7218,0:0:0:0:
256,192,7215,12,0,7219,0:0:0:0:
256,192,7216,12,0,7220,0:0:0:0:
256,192,7217,12,0,7221,0:0:0:0:
256,192,7218,12,0,7222,0:0:0:0:
256,192,7219,12,0,7223,0:0:0:0:
256,192,7220,12,0,7224,0:0:0:0:
256,192,7221,12,0,7225,0:0:0:0:
256,192,7222,12,0,7226,0:0:0:0:
256,192,7223,12,0,7227,0:0:0:0:
256,192,7225,12,0,7229,0:0:0:0:
256,192,7226,12,0,7230,0:0:0:0:
256,192,7227,12,0,7231,0:0:0:0:
256,192,7228,12,0,7232,0:0:0:0:
256,192,7229,12,0,7233,0:0:0:0:
256,192,7230,12,0,7234,0:0:0:0:
256,192,7231,12,0,7235,0:0:0:0:
256,192,7232,12,0,7236,0:0:0:0:
256,192,7233,12,0,7237,0:0:0:0:
256,192,7234,12,0,7238,0:0:0:0:
256,192,7235,12,0,7239,0:0:0:0:
256,192,7236,12,0,7240,0:0:0:0:
256,192,7237,12,0,7241,0:0:0:0:
256,192,7238,12,0,7242,0:0:0:0:
256,192,7239,12,0,7243,0:0:0:0:
256,192,7240,12,0,7244,0:0:0:0:
256,192,7242,12,0,7246,0:0:0:0:
256,192,7243,12,0,7247,0:0:0:0:
256,192,7244,12,0,7248,0:0:0:0:
256,192,7245,12,0,7249,0:0:0:0:
256,192,7246,12,0,7250,0:0:0:0:
256,192,7247,12,0,7251,0:0:0:0:
256,192,7248,12,0,7252,0:0:0:0:
256,192,7249,12,0,7253,0:0:0:0:
256,192,7250,12,0,7254,0:0:0:0:
256,192,7251,12,0,7255,0:0:0:0:
256,192,7252,12,0,7256,0:0:0:0:
256,192,7253,12,0,7257,0:0:0:0:
256,192,7254,12,0,7258,0:0:0:0:
256,192,7255,12,0,7259,0:0:0:0:
256,192,7256,12,0,7260,0:0:0:0:
256,192,7257,12,0,7261,0:0:0:0:
256,192,7259,12,0,7263,0:0:0:0:
256,192,7260,12,0,7264,0:0:0:0:
256,192,7261,12,0,7265,0:0:0:0:
256,192,7262,12,0,7266,0:0:0:0:
256,192,7263,12,0,7267,0:0:0:0:
256,192,7264,12,0,7268,0:0:0:0:
256,192,7265,12,0,7269,0:0:0:0:
256,192,7266,12,0,7270,0:0:0:0:
256,192,7267,12,0,7271,0:0:0:0:
256,192,7268,12,0,7272,0:0:0:0:
256,192,7269,12,0,7273,0:0:0:0:
256,192,7270,12,0,7274,0:0:0:0:
256,192,7271,12,0,7275,0:0:0:0:
256,192,7272,12,0,7276,0:0:0:0:
256,192,7273,12,0,7277,0:0:0:0:
256,192,7274,12,0,7278,0:0:0:0:
256,192,7276,12,0,7280,0:0:0:0:
256,192,7277,12,0,7281,0:0:0:0:
256,192,7278,12,0,7282,0:0:0:0:
256,192,7279,12,0,7283,0:0:0:0:
256,192,7280,12,0,7284,0:0:0:0:
256,192,7281,12,0,7285,0:0:0:0:
256,192,7282,12,0,7286,0:0:0:0:
256,192,7283,12,0,7287,0:0:0:0:
256,192,7284,12,0,7288,0:0:0:0:
256,192,7285,12,0,7289,0:0:0:0:
256,192,7286,12,0,7290,0:0:0:0:
256,192,7287,12,0,7291,0:0:0:0:
256,192,7288,12,0,7292,0:0:0:0:
256,192,7289,12,0,7293,0:0:0:0:
256,192,7290,12,0,7294,0:0:0:0:
256,192,7291,12,0,7295,0:0:0:0:
256,192,7293,12,0,7297,0:0:0:0:
256,192,7294,12,0,7298,0:0:0:0:
256,192,7295,12,0,7299,0:0:0:0:
256,192,7296,12,0,7300,0:0:0:0:
256,192,7297,12,0,7301,0:0:0:0:
256,192,7298,12,0,7302,0:0:0:0:
256,192,7299,12,0,7303,0:0:0:0:
256,192,7300,12,0,7304,0:0:0:0:
256,192,7301,12,0,7305,0:0:0:0:
256,192,7302,12,0,7306,0:0:0:0:
256,192,7303,12,0,7307,0:0:0:0:
256,192,7304,12,0,7308,0:0:0:0:
256,192,7305,12,0,7309,0:0:0:0:
256,192,7306,12,0,7310,0:0:0:0:
256,192,7307,12,0,7311,0:0:0:0:
256,192,7308,12,0,7312,0:0:0:0:
256,192,7310,12,0,7314,0:0:0:0:
256,192,7311,12,0,7315,0:0:0:0:
256,192,7312,12,0,7316,0:0:0:0:
256,192,7313,12,0,7317,0:0:0:0:
256,192,7314,12,0,7318,0:0:0:0:
256,192,7315,12,0,7319,0:0:0:0:
256,192,7316,12,0,7320,0:0:0:0:
256,192,7317,12,0,7321,0:0:0:0:
256,192,7318,12,0,7322,0:0:0:0:
256,192,7319,12,0,7323,0:0:0:0:
256,192,7320,12,0,7324,0:0:0:0:
256,192,7321,12,0,7325,0:0:0:0:
256,192,7322,12,0,7326,0:0:0:0:
256,192,7323,12,0,7327,0:0:0:0:
256,192,7324,12,0,7328,0:0:0:0:
256,192,7325,12,0,7329,0:0:0:0:
256,192,7327,12,0,7331,0:0:0:0:
256,192,7328,12,0,7332,0:0:0:0:
256,192,7329,12,0,7333,0:0:0:0:
256,192,7330,12,0,7334,0:0:0:0:
256,192,7331,12,0,7335,0:0:0:0:
256,192,7332,12,0,7336,0:0:0:0:
256,192,7333,12,0,7337,0:0:0:0:
256,192,7334,12,0,7338,0:0:0:0:
256,192,7335,12,0,7339,0:0:0:0:
256,192,7336,12,0,7340,0:0:0:0:
256,192,7337,12,0,7341,0:0:0:0:
256,192,7338,12,0,7342,0:0:0:0:
256,192,7339,12,0,7343,0:0:0:0:
256,192,7340,12,0,7344,0:0:0:0:
256,192,7341,12,0,7345,0:0:0:0:
256,192,7342,12,0,7346,0:0:0:0:
256,192,7344,12,0,7348,0:0:0:0:
256,192,7345,12,0,7349,0:0:0:0:
256,192,7346,12,0,7350,0:0:0:0:
256,192,7347,12,0,7351,0:0:0:0:
256,192,7348,12,0,7352,0:0:0:0:
256,192,7349,12,0,7353,0:0:0:0:
256,192,7350,12,0,7354,0:0:0:0:
256,192,7351,12,0,7355,0:0:0:0:
256,192,7352,12,0,7356,0:0:0:0:
256,192,7353,12,0,7357,0:0:0:0:
256,192,7354,12,0,7358,0:0:0:0:
256,192,7355,12,0,7359,0:0:0:0:
256,192,7356,12,0,7360,0:0:0:0:
256,192,7357,12,0,7361,0:0:0:0:
256,192,7358,12,0,7362,0:0:0:0:
256,192,7359,12,0,7363,0:0:0:0:
256,192,7361,12,0,7365,0:0:0:0:
256,192,7362,12,0,7366,0:0:0:0:
256,192,7363,12,0,7367,0:0:0:0:
256,192,7364,12,0,7368,0:0:0:0:
256,192,7365,12,0,7369,0:0:0:0:
256,192,7366,12,0,7370,0:0:0:0:
256,192,7367,12,0,7371,0:0:0:0:
256,192,7368,12,0,7372,0:0:0:0:
256,192,7369,12,0,7373,0:0:0:0:
256,192,7370,12,0,7374,0:0:0:0:
256,192,7371,12,0,7375,0:0:0:0:
256,192,7372,12,0,7376,0:0:0:0:
256,192,7373,12,0,7377,0:0:0:0:
256,192,7374,12,0,7378,0:0:0:0:
256,192,7375,12,0,7379,0:0:0:0:
256,192,7376,12,0,7380,0:0:0:0:
256,192,7378,12,0,7382,0:0:0:0:
256,192,7379,12,0,7383,0:0:0:0:
256,192,7380,12,0,7384,0:0:0:0:
256,192,7381,12,0,7385,0:0:0:0:
256,192,7382,12,0,7386,0:0:0:0:
256,192,7383,12,0,7387,0:0:0:0:
256,192,7384,12,0,7388,0:0:0:0:
256,192,7385,12,0,7389,0:0:0:0:
256,192,7386,12,0,7390,0:0:0:0:
256,192,7387,12,0,7391,0:0:0:0:
256,192,7388,12,0,7392,0:0:0:0:
256,192,7389,12,0,7393,0:0:0:0:
256,192,7390,12,0,7394,0:0:0:0:
256,192,7391,12,0,7395,0:0:0:0:
256,192,7392,12,0,7396,0:0:0:0:
256,192,7393,12,0,7397,0:0:0:0:
256,192,7395,12,0,7399,0:0:0:0:
256,192,7396,12,0,7400,0:0:0:0:
256,192,7397,12,0,7401,0:0:0:0:
256,192,7398,12,0,7402,0:0:0:0:
256,192,7399,12,0,7403,0:0:0:0:
256,192,7400,12,0,7404,0:0:0:0:
256,192,7401,12,0,7405,0:0:0:0:
256,192,7402,12,0,7406,0:0:0:0:
256,192,7403,12,0,7407,0:0:0:0:
256,192,7404,12,0,7408,0:0:0:0:
256,192,7405,12,0,7409,0:0:0:0:
256,192,7406,12,0,7410,0:0:0:0:
256,192,7407,12,0,7411,0:0:0:0:
256,192,7408,12,0,7412,0:0:0:0:
256,192,7409,12,0,7413,0:0:0:0:
256,192,7410,12,0,7414,0:0:0:0:
256,192,7412,12,0,7416,0:0:0:0:
256,192,7413,12,0,7417,0:0:0:0:
256,192,7414,12,0,7418,0:0:0:0:
256,192,7415,12,0,7419,0:0:0:0:
256,192,7416,12,0,7420,0:0:0:0:
256,192,7417,12,0,7421,0:0:0:0:
256,192,7418,12,0,7422,0:0:0:0:
256,192,7419,12,0,7423,0:0:0:0:
256,192,7420,12,0,7424,0:0:0:0:
256,192,7421,12,0,7425,0:0:0:0:
256,192,7422,12,0,7426,0:0:0:0:
256,192,7423,12,0,7427,0:0:0:0:
256,192,7424,12,0,7428,0:0:0:0:
256,192,7425,12,0,7429,0:0:0:0:
256,192,7426,12,0,7430,0:0:0:0:
256,192,7427,12,0,7431,0:0:0:0:
256,192,7429,12,0,7433,0:0:0:0:
256,192,7430,12,0,7434,0:0:0:0:
256,192,7431,12,0,7435,0:0:0:0:
256,192,7432,12,0,7436,0:0:0:0:
256,192,7433,12,0,7437,0:0:0:0:
256,192,7434,12,0,7438,0:0:0:0:
256,192,7435,12,0,7439,0:0:0:0:
256,192,7436,12,0,7440,0:0:0:0:
256,192,7437,12,0,7441,0:0:0:0:
256,192,7438,12,0,7442,0:0:0:0:
256,192,7439,12,0,7443,0:0:0:0:
256,192,7440,12,0,7444,0:0:0:0:
256,192,7441,12,0,7445,0:0:0:0:
256,192,7442,12,0,7446,0:0:0:0:
256,192,7443,12,0,7447,0:0:0:0:
256,192,7444,12,0,7448,0:0:0:0:
256,192,7446,12,0,7450,0:0:0:0:
256,192,7447,12,0,7451,0:0:0:0:
256,192,7448,12,0,7452,0:0:0:0:
256,192,7449,12,0,7453,0:0:0:0:
256,192,7450,12,0,7454,0:0:0:0:
256,192,7451,12,0,7455,0:0:0:0:
256,192,7452,12,0,7456,0:0:0:0:
256,192,7453,12,0,7457,0:0:0:0:
256,192,7454,12,0,7458,0:0:0:0:
256,192,7455,12,0,7459,0:0:0:0:
256,192,7456,12,0,7460,0:0:0:0:
256,192,7457,12,0,7461,0:0:0:0:
256,192,7458,12,0,7462,0:0:0:0:
256,192,7459,12,0,7463,0:0:0:0:
256,192,7460,12,0,7464,0:0:0:0:
256,192,7461,12,0,7465,0:0:0:0:
256,192,7463,12,0,7467,0:0:0:0:
256,192,7464,12,0,7468,0:0:0:0:
256,192,7465,12,0,7469,0:0:0:0:
256,192,7466,12,0,7470,0:0:0:0:
256,192,7467,12,0,7471,0:0:0:0:
256,192,7468,12,0,7472,0:0:0:0:
256,192,7469,12,0,7473,0:0:0:0:
256,192,7470,12,0,7474,0:0:0:0:
256,192,7471,12,0,7475,0:0:0:0:
256,192,7472,12,0,7476,0:0:0:0:
256,192,7473,12,0,7477,0:0:0:0:
256,192,7474,12,0,7478,0:0:0:0:
256,192,7475,12,0,7479,0:0:0:0:
256,192,7476,12,0,7480,0:0:0:0:
256,192,7477,12,0,7481,0:0:0:0:
256,192,7478,12,0,7482,0:0:0:0:
256,192,7480,12,0,7484,0:0:0:0:
256,192,7481,12,0,7485,0:0:0:0:
256,192,7482,12,0,7486,0:0:0:0:
256,192,7483,12,0,7487,0:0:0:0:
256,192,7484,12,0,7488,0:0:0:0:
256,192,7485,12,0,7489,0:0:0:0:
256,192,7486,12,0,7490,0:0:0:0:
256,192,7487,12,0,7491,0:0:0:0:
256,192,7488,12,0,7492,0:0:0:0:
256,192,7489,12,0,7493,0:0:0:0:
256,192,7490,12,0,7494,0:0:0:0:
256,192,7491,12,0,7495,0:0:0:0:
256,192,7492,12,0,7496,0:0:0:0:
256,192,7493,12,0,7497,0:0:0:0:
256,192,7494,12,0,7498,0:0:0:0:
256,192,7495,12,0,7499,0:0:0:0:
256,192,7497,12,0,7501,0:0:0:0:
256,192,7498,12,0,7502,0:0:0:0:
256,192,7499,12,0,7503,0:0:0:0:
256,192,7500,12,0,7504,0:0:0:0:
256,192,7501,12,0,7505,0:0:0:0:
256,192,7502,12,0,7506,0:0:0:0:
256,192,7503,12,0,7507,0:0:0:0:
256,192,7504,12,0,7508,0:0:0:0:
256,192,7505,12,0,7509,0:0:0:0:
256,192,7506,12,0,7510,0:0:0:0:
256,192,7507,12,0,7511,0:0:0:0:
256,192,7508,12,0,7512,0:0:0:0:
256,192,7509,12,0,7513,0:0:0:0:
256,192,7510,12,0,7514,0:0:0:0:
256,192,7511,12,0,7515,0:0:0:0:
256,192,7512,12,0,7516,0:0:0:0:
256,192,7514,12,0,7518,0:0:0:0:
256,192,7515,12,0,7519,0:0:0:0:
256,192,7516,12,0,7520,0:0:0:0:
256,192,7517,12,0,7521,0:0:0:0:
256,192,7518,12,0,7522,0:0:0:0:
256,192,7519,12,0,7523,0:0:0:0:
256,192,7520,12,0,7524,0:0:0:0:
256,192,7521,12,0,7525,0:0:0:0:
256,192,7522,12,0,7526,0:0:0:0:
256,192,7523,12,0,7527,0:0:0:0:
256,192,7524,12,0,7528,0:0:0:0:
256,192,7525,12,0,7529,0:0:0:0:
256,192,7526,12,0,7530,0:0:0:0:
256,192,7527,12,0,7531,0:0:0:0:
256,192,7528,12,0,7532,0:0:0:0:
256,192,7529,12,0,7533,0:0:0:0:
256,192,7531,12,0,7535,0:0:0:0:
256,192,7532,12,0,7536,0:0:0:0:
256,192,7533,12,0,7537,0:0:0:0:
256,192,7534,12,0,7538,0:0:0:0:
256,192,7535,12,0,7539,0:0:0:0:
256,192,7536,12,0,7540,0:0:0:0:
256,192,7537,12,0,7541,0:0:0:0:
256,192,7538,12,0,7542,0:0:0:0:
256,192,7539,12,0,7543,0:0:0:0:
256,192,7540,12,0,7544,0:0:0:0:
256,192,7541,12,0,7545,0:0:0:0:
256,192,7542,12,0,7546,0:0:0:0:
256,192,7543,12,0,7547,0:0:0:0:
256,192,7544,12,0,7548,0:0:0:0:
256,192,7545,12,0,7549,0:0:0:0:
256,192,7546,12,0,7550,0:0:0:0:
256,192,7548,12,0,7552,0:0:0:0:
256,192,7549,12,0,7553,0:0:0:0:
256,192,7550,12,0,7554,0:0:0:0:
256,192,7551,12,0,7555,0:0:0:0:
256,192,7552,12,0,7556,0:0:0:0:
256,192,7553,12,0,7557,0:0:0:0:
256,192,7554,12,0,7558,0:0:0:0:
256,192,7555,12,0,7559,0:0:0:0:
256,192,7556,12,0,7560,0:0:0:0:
256,192,7557,12,0,7561,0:0:0:0:
256,192,7558,12,0,7562,0:0:0:0:
256,192,7559,12,0,7563,0:0:0:0:
256,192,7560,12,0,7564,0:0:0:0:
256,192,7561,12,0,7565,0:0:0:0:
256,192,7562,12,0,7566,0:0:0:0:
256,192,7563,12,0,7567,0:0:0:0:
256,192,7565,12,0,7569,0:0:0:0:
256,192,7566,12,0,7570,0:0:0:0:
256,192,7567,12,0,7571,0:0:0:0:
256,192,7568,12,0,7572,0:0:0:0:
256,192,7569,12,0,7573,0:0:0:0:
256,192,7570,12,0,7574,0:0:0:0:
256,192,7571,12,0,7575,0:0:0:0:
256,192,7572,12,0,7576,0:0:0:0:
256,192,7573,12,0,7577,0:0:0:0:
256,192,7574,12,0,7578,0:0:0:0:
256,192,7575,12,0,7579,0:0:0:0:
256,192,7576,12,0,7580,0:0:0:0:
256,192,7577,12,0,7581,0:0:0:0:
256,192,7578,12,0,7582,0:0:0:0:
256,192,7579,12,0,7583,0:0:0:0:
256,192,7580,12,0,7584,0:0:0:0:
256,192,7582,12,0,7586,0:0:0:0:
256,192,7583,12,0,7587,0:0:0:0:
256,192,7584,12,0,7588,0:0:0:0:
256,192,7585,12,0,7589,0:0:0:0:
256,192,7586,12,0,7590,0:0:0:0:
256,192,7587,12,0,7591,0:0:0:0:
256,192,7588,12,0,7592,0:0:0:0:
256,192,7589,12,0,7593,0:0:0:0:
256,192,7590,12,0,7594,0:0:0:0:
256,192,7591,12,0,7595,0:0:0:0:
256,192,7592,12,0,7596,0:0:0:0:
256,192,7593,12,0,7597,0:0:0:0:
256,192,7594,12,0,7598,0:0:0:0:
256,192,7595,12,0,7599,0:0:0:0:
256,192,7596,12,0,7600,0:0:0:0:
256,192,7597,12,0,7601,0:0:0:0:
256,192,7599,12,0,7603,0:0:0:0:
256,192,7600,12,0,7604,0:0:0:0:
256,192,7601,12,0,7605,0:0:0:0:
256,192,7602,12,0,7606,0:0:0:0:
256,192,7603,12,0,7607,0:0:0:0:
256,192,7604,12,0,7608,0:0:0:0:
256,192,7605,12,0,7609,0:0:0:0:
256,192,7606,12,0,7610,0:0:0:0:
256,192,7607,12,0,7611,0:0:0:0:
256,192,7608,12,0,7612,0:0:0:0:
256,192,7609,12,0,7613,0:0:0:0:
256,192,7610,12,0,7614,0:0:0:0:
256,192,7611,12,0,7615,0:0:0:0:
256,192,7612,12,0,7616,0:0:0:0:
256,192,7613,12,0,7617,0:0:0:0:
256,192,7614,12,0,7618,0:0:0:0:
256,192,7616,12,0,7620,0:0:0:0:
256,192,7617,12,0,7621,0:0:0:0:
256,192,7618,12,0,7622,0:0:0:0:
256,192,7619,12,0,7623,0:0:0:0:
256,192,7620,12,0,7624,0:0:0:0:
256,192,7621,12,0,7625,0:0:0:0:
256,192,7622,12,0,7626,0:0:0:0:
256,192,7623,12,0,7627,0:0:0:0:
256,192,7624,12,0,7628,0:0:0:0:
256,192,7625,12,0,7629,0:0:0:0:
256,192,7626,12,0,7630,0:0:0:0:
256,192,7627,12,0,7631,0:0:0:0:
256,192,7628,12,0,7632,0:0:0:0:
256,192,7629,12,0,7633,0:0:0:0:
256,192,7630,12,0,7634,0:0:0:0:
256,192,7631,12,0,7635,0:0:0:0:
256,192,7635,12,0,7639,0:0:0:0:
256,192,7635,12,0,7639,0:0:0:0:
256,192,7637,12,0,7641,0:0:0:0:
256,192,7637,12,0,7641,0:0:0:0:
256,192,7639,12,0,7643,0:0:0:0:
256,192,7639,12,0,7643,0:0:0:0:
256,192,7641,12,0,7645,0:0:0:0:
256,192,7641,12,0,7645,0:0:0:0:
256,192,7643,12,0,7647,0:0:0:0:
256,192,7643,12,0,7647,0:0:0:0:
256,192,7645,12,0,7649,0:0:0:0:
256,192,7645,12,0,7649,0:0:0:0:
256,192,7647,12,0,7651,0:0:0:0:
256,192,7647,12,0,7651,0:0:0:0:
256,192,7649,12,0,7653,0:0:0:0:
256,192,7649,12,0,7653,0:0:0:0:
256,192,7652,12,0,7656,0:0:0:0:
256,192,7652,12,0,7656,0:0:0:0:
256,192,7654,12,0,7658,0:0:0:0:
256,192,7654,12,0,7658,0:0:0:0:
256,192,7656,12,0,7660,0:0:0:0:
256,192,7656,12,0,7660,0:0:0:0:
256,192,7658,12,0,7662,0:0:0:0:
256,192,7658,12,0,7662,0:0:0:0:
256,192,7660,12,0,7664,0:0:0:0:
256,192,7660,12,0,7664,0:0:0:0:
256,192,7662,12,0,7666,0:0:0:0:
256,192,7662,12,0,7666,0:0:0:0:
256,192,7664,12,0,7668,0:0:0:0:
256,192,7664,12,0,7668,0:0:0:0:
256,192,7666,12,0,7670,0:0:0:0:
256,192,7666,12,0,7670,0:0:0:0:
256,192,7669,12,0,7673,0:0:0:0:
256,192,7669,12,0,7673,0:0:0:0:
256,192,7671,12,0,7675,0:0:0:0:
256,192,7671,12,0,7675,0:0:0:0:
256,192,7673,12,0,7677,0:0:0:0:
256,192,7673,12,0,7677,0:0:0:0:
256,192,7675,12,0,7679,0:0:0:0:
256,192,7675,12,0,7679,0:0:0:0:
256,192,7677,12,0,7681,0:0:0:0:
256,192,7677,12,0,7681,0:0:0:0:
256,192,7679,12,0,7683,0:0:0:0:
256,192,7679,12,0,7683,0:0:0:0:
256,192,7681,12,0,7685,0:0:0:0:
256,192,7681,12,0,7685,0:0:0:0:
256,192,7683,12,0,7687,0:0:0:0:
256,192,7683,12,0,7687,0:0:0:0:
256,192,7686,12,0,7690,0:0:0:0:
256,192,7686,12,0,7690,0:0:0:0:
256,192,7688,12,0,7692,0:0:0:0:
256,192,7688,12,0,7692,0:0:0:0:
256,192,7690,12,0,7694,0:0:0:0:
256,192,7690,12,0,7694,0:0:0:0:
256,192,7692,12,0,7696,0:0:0:0:
256,192,7692,12,0,7696,0:0:0:0:
256,192,7694,12,0,7698,0:0:0:0:
256,192,7694,12,0,7698,0:0:0:0:
256,192,7696,12,0,7700,0:0:0:0:
256,192,7696,12,0,7700,0:0:0:0:
256,192,7698,12,0,7702,0:0:0:0:
256,192,7698,12,0,7702,0:0:0:0:
256,192,7700,12,0,7704,0:0:0:0:
256,192,7700,12,0,7704,0:0:0:0:
256,192,7703,12,0,7707,0:0:0:0:
256,192,7703,12,0,7707,0:0:0:0:
256,192,7705,12,0,7709,0:0:0:0:
256,192,7705,12,0,7709,0:0:0:0:
256,192,7707,12,0,7711,0:0:0:0:
256,192,7707,12,0,7711,0:0:0:0:
256,192,7709,12,0,7713,0:0:0:0:
256,192,7709,12,0,7713,0:0:0:0:
256,192,7711,12,0,7715,0:0:0:0:
256,192,7711,12,0,7715,0:0:0:0:
256,192,7713,12,0,7717,0:0:0:0:
256,192,7713,12,0,7717,0:0:0:0:
256,192,7715,12,0,7719,0:0:0:0:
256,192,7715,12,0,7719,0:0:0:0:
256,192,7717,12,0,7721,0:0:0:0:
256,192,7717,12,0,7721,0:0:0:0:
256,192,7720,12,0,7724,0:0:0:0:
256,192,7720,12,0,7724,0:0:0:0:
256,192,7722,12,0,7726,0:0:0:0:
256,192,7722,12,0,7726,0:0:0:0:
256,192,7724,12,0,7728,0:0:0:0:
256,192,7724,12,0,7728,0:0:0:0:
256,192,7726,12,0,7730,0:0:0:0:
256,192,7726,12,0,7730,0:0:0:0:
256,192,7728,12,0,7732,0:0:0:0:
256,192,7728,12,0,7732,0:0:0:0:
256,192,7730,12,0,7734,0:0:0:0:
256,192,7730,12,0,7734,0:0:0:0:
256,192,7732,12,0,7736,0:0:0:0:
256,192,7732,12,0,7736,0:0:0:0:
256,192,7734,12,0,7738,0:0:0:0:
256,192,7734,12,0,7738,0:0:0:0:
256,192,7737,12,0,7741,0:0:0:0:
256,192,7737,12,0,7741,0:0:0:0:
256,192,7739,12,0,7743,0:0:0:0:
256,192,7739,12,0,7743,0:0:0:0:
256,192,7741,12,0,7745,0:0:0:0:
256,192,7741,12,0,7745,0:0:0:0:
256,192,7743,12,0,7747,0:0:0:0:
256,192,7743,12,0,7747,0:0:0:0:
256,192,7745,12,0,7749,0:0:0:0:
256,192,7745,12,0,7749,0:0:0:0:
256,192,7747,12,0,7751,0:0:0:0:
256,192,7747,12,0,7751,0:0:0:0:
256,192,7749,12,0,7753,0:0:0:0:
256,192,7749,12,0,7753,0:0:0:0:
256,192,7751,12,0,7755,0:0:0:0:
256,192,7751,12,0,7755,0:0:0:0:
256,192,7754,12,0,7758,0:0:0:0:
256,192,7754,12,0,7758,0:0:0:0:
256,192,7756,12,0,7760,0:0:0:0:
256,192,7756,12,0,7760,0:0:0:0:
256,192,7758,12,0,7762,0:0:0:0:
256,192,7758,12,0,7762,0:0:0:0:
256,192,7760,12,0,7764,0:0:0:0:
256,192,7760,12,0,7764,0:0:0:0:
256,192,7762,12,0,7766,0:0:0:0:
256,192,7762,12,0,7766,0:0:0:0:
256,192,7764,12,0,7768,0:0:0:0:
256,192,7764,12,0,7768,0:0:0:0:
256,192,7766,12,0,7770,0:0:0:0:
256,192,7766,12,0,7770,0:0:0:0:
256,192,7768,12,0,7772,0:0:0:0:
256,192,7768,12,0,7772,0:0:0:0:
256,192,7771,12,0,7775,0:0:0:0:
256,192,7771,12,0,7775,0:0:0:0:
256,192,7773,12,0,7777,0:0:0:0:
256,192,7773,12,0,7777,0:0:0:0:
256,192,7775,12,0,7779,0:0:0:0:
256,192,7775,12,0,7779,0:0:0:0:
256,192,7777,12,0,7781,0:0:0:0:
256,192,7777,12,0,7781,0:0:0:0:
256,192,7779,12,0,7783,0:0:0:0:
256,192,7779,12,0,7783,0:0:0:0:
256,192,7781,12,0,7785,0:0:0:0:
256,192,7781,12,0,7785,0:0:0:0:
256,192,7783,12,0,7787,0:0:0:0:
256,192,7783,12,0,7787,0:0:0:0:
256,192,7785,12,0,7789,0:0:0:0:
256,192,7785,12,0,7789,0:0:0:0:
256,192,7788,12,0,7792,0:0:0:0:
256,192,7788,12,0,7792,0:0:0:0:
256,192,7790,12,0,7794,0:0:0:0:
256,192,7790,12,0,7794,0:0:0:0:
256,192,7792,12,0,7796,0:0:0:0:
256,192,7792,12,0,7796,0:0:0:0:
256,192,7794,12,0,7798,0:0:0:0:
256,192,7794,12,0,7798,0:0:0:0:
256,192,7796,12,0,7800,0:0:0:0:
256,192,7796,12,0,7800,0:0:0:0:
256,192,7798,12,0,7802,0:0:0:0:
256,192,7798,12,0,7802,0:0:0:0:
256,192,7800,12,0,7804,0:0:0:0:
256,192,7800,12,0,7804,0:0:0:0:
256,192,7802,12,0,7806,0:0:0:0:
256,192,7802,12,0,7806,0:0:0:0:
256,192,7805,12,0,7809,0:0:0:0:
256,192,7805,12,0,7809,0:0:0:0:
256,192,7807,12,0,7811,0:0:0:0:
256,192,7807,12,0,7811,0:0:0:0:
256,192,7809,12,0,7813,0:0:0:0:
256,192,7809,12,0,7813,0:0:0:0:
256,192,7811,12,0,7815,0:0:0:0:
256,192,7811,12,0,7815,0:0:0:0:
256,192,7813,12,0,7817,0:0:0:0:
256,192,7813,12,0,7817,0:0:0:0:
256,192,7815,12,0,7819,0:0:0:0:
256,192,7815,12,0,7819,0:0:0:0:
256,192,7817,12,0,7821,0:0:0:0:
256,192,7817,12,0,7821,0:0:0:0:
256,192,7819,12,0,7823,0:0:0:0:
256,192,7819,12,0,7823,0:0:0:0:
256,192,7822,12,0,7826,0:0:0:0:
256,192,7822,12,0,7826,0:0:0:0:
256,192,7824,12,0,7828,0:0:0:0:
256,192,7824,12,0,7828,0:0:0:0:
256,192,7826,12,0,7830,0:0:0:0:
256,192,7826,12,0,7830,0:0:0:0:
256,192,7828,12,0,7832,0:0:0:0:
256,192,7828,12,0,7832,0:0:0:0:
256,192,7830,12,0,7834,0:0:0:0:
256,192,7830,12,0,7834,0:0:0:0:
256,192,7832,12,0,7836,0:0:0:0:
256,192,7832,12,0,7836,0:0:0:0:
256,192,7834,12,0,7838,0:0:0:0:
256,192,7834,12,0,7838,0:0:0:0:
256,192,7836,12,0,7840,0:0:0:0:
256,192,7836,12,0,7840,0:0:0:0:
256,192,7839,12,0,7843,0:0:0:0:
256,192,7839,12,0,7843,0:0:0:0:
256,192,7841,12,0,7845,0:0:0:0:
256,192,7841,12,0,7845,0:0:0:0:
256,192,7843,12,0,7847,0:0:0:0:
256,192,7843,12,0,7847,0:0:0:0:
256,192,7845,12,0,7849,0:0:0:0:
256,192,7845,12,0,7849,0:0:0:0:
256,192,7847,12,0,7851,0:0:0:0:
256,192,7847,12,0,7851,0:0:0:0:
256,192,7849,12,0,7853,0:0:0:0:
256,192,7849,12,0,7853,0:0:0:0:
256,192,7851,12,0,7855,0:0:0:0:
256,192,7851,12,0,7855,0:0:0:0:
256,192,7853,12,0,7857,0:0:0:0:
256,192,7853,12,0,7857,0:0:0:0:
256,192,7856,12,0,7860,0:0:0:0:
256,192,7856,12,0,7860,0:0:0:0:
256,192,7858,12,0,7862,0:0:0:0:
256,192,7858,12,0,7862,0:0:0:0:
256,192,7860,12,0,7864,0:0:0:0:
256,192,7860,12,0,7864,0:0:0:0:
256,192,7862,12,0,7866,0:0:0:0:
256,192,7862,12,0,7866,0:0:0:0:
256,192,7864,12,0,7868,0:0:0:0:
256,192,7864,12,0,7868,0:0:0:0:
256,192,7866,12,0,7870,0:0:0:0:
256,192,7866,12,0,7870,0:0:0:0:
256,192,7868,12,0,7872,0:0:0:0:
256,192,7868,12,0,7872,0:0:0:0:
256,192,7870,12,0,7874,0:0:0:0:
256,192,7870,12,0,7874,0:0:0:0:
256,192,7873,12,0,7877,0:0:0:0:
256,192,7873,12,0,7877,0:0:0:0:
256,192,7875,12,0,7879,0:0:0:0:
256,192,7875,12,0,7879,0:0:0:0:
256,192,7877,12,0,7881,0:0:0:0:
256,192,7877,12,0,7881,0:0:0:0:
256,192,7879,12,0,7883,0:0:0:0:
256,192,7879,12,0,7883,0:0:0:0:
256,192,7881,12,0,7885,0:0:0:0:
256,192,7881,12,0,7885,0:0:0:0:
256,192,7883,12,0,7887,0:0:0:0:
256,192,7883,12,0,7887,0:0:0:0:
256,192,7885,12,0,7889,0:0:0:0:
256,192,7885,12,0,7889,0:0:0:0:
256,192,7887,12,0,7891,0:0:0:0:
256,192,7887,12,0,7891,0:0:0:0:
256,192,7890,12,0,7894,0:0:0:0:
256,192,7890,12,0,7894,0:0:0:0:
256,192,7892,12,0,7896,0:0:0:0:
256,192,7892,12,0,7896,0:0:0:0:
256,192,7894,12,0,7898,0:0:0:0:
256,192,7894,12,0,7898,0:0:0:0:
256,192,7896,12,0,7900,0:0:0:0:
256,192,7896,12,0,7900,0:0:0:0:
256,192,7898,12,0,7902,0:0:0:0:
256,192,7898,12,0,7902,0:0:0:0:
256,192,7900,12,0,7904,0:0:0:0:
256,192,7900,12,0,7904,0:0:0:0:
256,192,7902,12,0,7906,0:0:0:0:
256,192,7902,12,0,7906,0:0:0:0:
256,192,7904,12,0,7908,0:0:0:0:
256,192,7904,12,0,7908,0:0:0:0:
256,192,7907,12,0,7911,0:0:0:0:
256,192,7907,12,0,7911,0:0:0:0:
256,192,7909,12,0,7913,0:0:0:0:
256,192,7909,12,0,7913,0:0:0:0:
256,192,7911,12,0,7915,0:0:0:0:
256,192,7911,12,0,7915,0:0:0:0:
256,192,7913,12,0,7917,0:0:0:0:
256,192,7913,12,0,7917,0:0:0:0:
256,192,7915,12,0,7919,0:0:0:0:
256,192,7915,12,0,7919,0:0:0:0:
256,192,7917,12,0,7921,0:0:0:0:
256,192,7917,12,0,7921,0:0:0:0:
256,192,7919,12,0,7923,0:0:0:0:
256,192,7919,12,0,7923,0:0:0:0:
256,192,7921,12,0,7925,0:0:0:0:
256,192,7921,12,0,7925,0:0:0:0:
256,192,7924,12,0,7928,0:0:0:0:
256,192,7924,12,0,7928,0:0:0:0:
256,192,7926,12,0,7930,0:0:0:0:
256,192,7926,12,0,7930,0:0:0:0:
256,192,7928,12,0,7932,0:0:0:0:
256,192,7928,12,0,7932,0:0:0:0:
256,192,7930,12,0,7934,0:0:0:0:
256,192,7930,12,0,7934,0:0:0:0:
256,192,7932,12,0,7936,0:0:0:0:
256,192,7932,12,0,7936,0:0:0:0:
256,192,7934,12,0,7938,0:0:0:0:
256,192,7934,12,0,7938,0:0:0:0:
256,192,7936,12,0,7940,0:0:0:0:
256,192,7936,12,0,7940,0:0:0:0:
256,192,7938,12,0,7942,0:0:0:0:
256,192,7938,12,0,7942,0:0:0:0:
256,192,7941,12,0,7945,0:0:0:0:
256,192,7941,12,0,7945,0:0:0:0:
256,192,7943,12,0,7947,0:0:0:0:
256,192,7943,12,0,7947,0:0:0:0:
256,192,7945,12,0,7949,0:0:0:0:
256,192,7945,12,0,7949,0:0:0:0:
256,192,7947,12,0,7951,0:0:0:0:
256,192,7947,12,0,7951,0:0:0:0:
256,192,7949,12,0,7953,0:0:0:0:
256,192,7949,12,0,7953,0:0:0:0:
256,192,7951,12,0,7955,0:0:0:0:
256,192,7951,12,0,7955,0:0:0:0:
256,192,7953,12,0,7957,0:0:0:0:
256,192,7953,12,0,7957,0:0:0:0:
256,192,7955,12,0,7959,0:0:0:0:
256,192,7955,12,0,7959,0:0:0:0:
256,192,7958,12,0,7962,0:0:0:0:
256,192,7958,12,0,7962,0:0:0:0:
256,192,7960,12,0,7964,0:0:0:0:
256,192,7960,12,0,7964,0:0:0:0:
256,192,7962,12,0,7966,0:0:0:0:
256,192,7962,12,0,7966,0:0:0:0:
256,192,7964,12,0,7968,0:0:0:0:
256,192,7964,12,0,7968,0:0:0:0:
256,192,7966,12,0,7970,0:0:0:0:
256,192,7966,12,0,7970,0:0:0:0:
256,192,7968,12,0,7972,0:0:0:0:
256,192,7968,12,0,7972,0:0:0:0:
256,192,7970,12,0,7974,0:0:0:0:
256,192,7970,12,0,7974,0:0:0:0:
256,192,7972,12,0,7976,0:0:0:0:
256,192,7972,12,0,7976,0:0:0:0:
256,192,7975,12,0,7979,0:0:0:0:
256,192,7975,12,0,7979,0:0:0:0:
256,192,7977,12,0,7981,0:0:0:0:
256,192,7977,12,0,7981,0:0:0:0:
256,192,7979,12,0,7983,0:0:0:0:
256,192,7979,12,0,7983,0:0:0:0:
256,192,7981,12,0,7985,0:0:0:0:
256,192,7981,12,0,7985,0:0:0:0:
256,192,7983,12,0,7987,0:0:0:0:
256,192,7983,12,0,7987,0:0:0:0:
256,192,7985,12,0,7989,0:0:0:0:
256,192,7985,12,0,7989,0:0:0:0:
256,192,7987,12,0,7991,0:0:0:0:
256,192,7987,12,0,7991,0:0:0:0:
256,192,7989,12,0,7993,0:0:0:0:
256,192,7989,12,0,7993,0:0:0:0:
256,192,7992,12,0,7996,0:0:0:0:
256,192,7992,12,0,7996,0:0:0:0:
256,192,7994,12,0,7998,0:0:0:0:
256,192,7994,12,0,7998,0:0:0:0:
256,192,7996,12,0,8000,0:0:0:0:
256,192,7996,12,0,8000,0:0:0:0:
256,192,7998,12,0,8002,0:0:0:0:
256,192,7998,12,0,8002,0:0:0:0:
256,192,8000,12,0,8004,0:0:0:0:
256,192,8000,12,0,8004,0:0:0:0:
256,192,8002,12,0,8006,0:0:0:0:
256,192,8002,12,0,8006,0:0:0:0:
256,192,8004,12,0,8008,0:0:0:0:
256,192,8004,12,0,8008,0:0:0:0:
256,192,8006,12,0,8010,0:0:0:0:
256,192,8006,12,0,8010,0:0:0:0:
256,192,8009,12,0,8013,0:0:0:0:
256,192,8009,12,0,8013,0:0:0:0:
256,192,8011,12,0,8015,0:0:0:0:
256,192,8011,12,0,8015,0:0:0:0:
256,192,8013,12,0,8017,0:0:0:0:
256,192,8013,12,0,8017,0:0:0:0:
256,192,8015,12,0,8019,0:0:0:0:
256,192,8015,12,0,8019,0:0:0:0:
256,192,8017,12,0,8021,0:0:0:0:
256,192,8017,12,0,8021,0:0:0:0:
256,192,8019,12,0,8023,0:0:0:0:
256,192,8019,12,0,8023,0:0:0:0:
256,192,8021,12,0,8025,0:0:0:0:
256,192,8021,12,0,8025,0:0:0:0:
256,192,8023,12,0,8027,0:0:0:0:
256,192,8023,12,0,8027,0:0:0:0:
256,192,8026,12,0,8030,0:0:0:0:
256,192,8026,12,0,8030,0:0:0:0:
256,192,8028,12,0,8032,0:0:0:0:
256,192,8028,12,0,8032,0:0:0:0:
256,192,8030,12,0,8034,0:0:0:0:
256,192,8030,12,0,8034,0:0:0:0:
256,192,8032,12,0,8036,0:0:0:0:
256,192,8032,12,0,8036,0:0:0:0:
256,192,8034,12,0,8038,0:0:0:0:
256,192,8034,12,0,8038,0:0:0:0:
256,192,8036,12,0,8040,0:0:0:0:
256,192,8036,12,0,8040,0:0:0:0:
256,192,8038,12,0,8042,0:0:0:0:
256,192,8038,12,0,8042,0:0:0:0:
256,192,8040,12,0,8044,0:0:0:0:
256,192,8040,12,0,8044,0:0:0:0:
256,192,8043,12,0,8047,0:0:0:0:
256,192,8043,12,0,8047,0:0:0:0:
256,192,8045,12,0,8049,0:0:0:0:
256,192,8045,12,0,8049,0:0:0:0:
256,192,8047,12,0,8051,0:0:0:0:
256,192,8047,12,0,8051,0:0:0:0:
256,192,8049,12,0,8053,0:0:0:0:
256,192,8049,12,0,8053,0:0:0:0:
256,192,8051,12,0,8055,0:0:0:0:
256,192,8051,12,0,8055,0:0:0:0:
256,192,8053,12,0,8057,0:0:0:0:
256,192,8053,12,0,8057,0:0:0:0:
256,192,8055,12,0,8059,0:0:0:0:
256,192,8055,12,0,8059,0:0:0:0:
256,192,8057,12,0,8061,0:0:0:0:
256,192,8057,12,0,8061,0:0:0:0:
256,192,8060,12,0,8064,0:0:0:0:
256,192,8060,12,0,8064,0:0:0:0:
256,192,8062,12,0,8066,0:0:0:0:
256,192,8062,12,0,8066,0:0:0:0:
256,192,8064,12,0,8068,0:0:0:0:
256,192,8064,12,0,8068,0:0:0:0:
256,192,8066,12,0,8070,0:0:0:0:
256,192,8066,12,0,8070,0:0:0:0:
256,192,8068,12,0,8072,0:0:0:0:
256,192,8068,12,0,8072,0:0:0:0:
256,192,8070,12,0,8074,0:0:0:0:
256,192,8070,12,0,8074,0:0:0:0:
256,192,8072,12,0,8076,0:0:0:0:
256,192,8072,12,0,8076,0:0:0:0:
256,192,8074,12,0,8078,0:0:0:0:
256,192,8074,12,0,8078,0:0:0:0:
256,192,8077,12,0,8081,0:0:0:0:
256,192,8077,12,0,8081,0:0:0:0:
256,192,8079,12,0,8083,0:0:0:0:
256,192,8079,12,0,8083,0:0:0:0:
256,192,8081,12,0,8085,0:0:0:0:
256,192,8081,12,0,8085,0:0:0:0:
256,192,8083,12,0,8087,0:0:0:0:
256,192,8083,12,0,8087,0:0:0:0:
256,192,8085,12,0,8089,0:0:0:0:
256,192,8085,12,0,8089,0:0:0:0:
256,192,8087,12,0,8091,0:0:0:0:
256,192,8087,12,0,8091,0:0:0:0:
256,192,8089,12,0,8093,0:0:0:0:
256,192,8089,12,0,8093,0:0:0:0:
256,192,8091,12,0,8095,0:0:0:0:
256,192,8091,12,0,8095,0:0:0:0:
256,192,8094,12,0,8098,0:0:0:0:
256,192,8094,12,0,8098,0:0:0:0:
256,192,8096,12,0,8100,0:0:0:0:
256,192,8096,12,0,8100,0:0:0:0:
256,192,8098,12,0,8102,0:0:0:0:
256,192,8098,12,0,8102,0:0:0:0:
256,192,8100,12,0,8104,0:0:0:0:
256,192,8100,12,0,8104,0:0:0:0:
256,192,8102,12,0,8106,0:0:0:0:
256,192,8102,12,0,8106,0:0:0:0:
256,192,8104,12,0,8108,0:0:0:0:
256,192,8104,12,0,8108,0:0:0:0:
256,192,8106,12,0,8110,0:0:0:0:
256,192,8106,12,0,8110,0:0:0:0:
256,192,8108,12,0,8112,0:0:0:0:
256,192,8108,12,0,8112,0:0:0:0:
256,192,8111,12,0,8115,0:0:0:0:
256,192,8111,12,0,8115,0:0:0:0:
256,192,8113,12,0,8117,0:0:0:0:
256,192,8113,12,0,8117,0:0:0:0:
256,192,8115,12,0,8119,0:0:0:0:
256,192,8115,12,0,8119,0:0:0:0:
256,192,8117,12,0,8121,0:0:0:0:
256,192,8117,12,0,8121,0:0:0:0:
256,192,8119,12,0,8123,0:0:0:0:
256,192,8119,12,0,8123,0:0:0:0:
256,192,8121,12,0,8125,0:0:0:0:
256,192,8121,12,0,8125,0:0:0:0:
256,192,8123,12,0,8127,0:0:0:0:
256,192,8123,12,0,8127,0:0:0:0:
256,192,8125,12,0,8129,0:0:0:0:
256,192,8125,12,0,8129,0:0:0:0:
256,192,8128,12,0,8132,0:0:0:0:
256,192,8128,12,0,8132,0:0:0:0:
256,192,8130,12,0,8134,0:0:0:0:
256,192,8130,12,0,8134,0:0:0:0:
256,192,8132,12,0,8136,0:0:0:0:
256,192,8132,12,0,8136,0:0:0:0:
256,192,8134,12,0,8138,0:0:0:0:
256,192,8134,12,0,8138,0:0:0:0:
256,192,8136,12,0,8140,0:0:0:0:
256,192,8136,12,0,8140,0:0:0:0:
256,192,8138,12,0,8142,0:0:0:0:
256,192,8138,12,0,8142,0:0:0:0:
256,192,8140,12,0,8144,0:0:0:0:
256,192,8140,12,0,8144,0:0:0:0:
256,192,8142,12,0,8146,0:0:0:0:
256,192,8142,12,0,8146,0:0:0:0:
256,192,8145,12,0,8149,0:0:0:0:
256,192,8145,12,0,8149,0:0:0:0:
256,192,8147,12,0,8151,0:0:0:0:
256,192,8147,12,0,8151,0:0:0:0:
256,192,8149,12,0,8153,0:0:0:0:
256,192,8149,12,0,8153,0:0:0:0:
256,192,8151,12,0,8155,0:0:0:0:
256,192,8151,12,0,8155,0:0:0:0:
256,192,8153,12,0,8157,0:0:0:0:
256,192,8153,12,0,8157,0:0:0:0:
256,192,8155,12,0,8159,0:0:0:0:
256,192,8155,12,0,8159,0:0:0:0:
256,192,8157,12,0,8161,0:0:0:0:
256,192,8157,12,0,8161,0:0:0:0:
256,192,8159,12,0,8163,0:0:0:0:
256,192,8159,12,0,8163,0:0:0:0:
256,192,8162,12,0,8166,0:0:0:0:
256,192,8162,12,0,8166,0:0:0:0:
256,192,8164,12,0,8168,0:0:0:0:
256,192,8164,12,0,8168,0:0:0:0:
256,192,8166,12,0,8170,0:0:0:0:
256,192,8166,12,0,8170,0:0:0:0:
256,192,8168,12,0,8172,0:0:0:0:
256,192,8168,12,0,8172,0:0:0:0:
256,192,8170,12,0,8174,0:0:0:0:
256,192,8170,12,0,8174,0:0:0:0:
256,192,8172,12,0,8176,0:0:0:0:
256,192,8172,12,0,8176,0:0:0:0:
256,192,8174,12,0,8178,0:0:0:0:
256,192,8174,12,0,8178,0:0:0:0:
256,192,8176,12,0,8180,0:0:0:0:
256,192,8176,12,0,8180,0:0:0:0:
256,192,8180,12,0,8184,0:0:0:0:
256,192,8182,12,0,8186,0:0:0:0:
256,192,8184,12,0,8188,0:0:0:0:
256,192,8186,12,0,8190,0:0:0:0:
256,192,8188,12,0,8192,0:0:0:0:
256,192,8190,12,0,8194,0:0:0:0:
256,192,8192,12,0,8196,0:0:0:0:
256,192,8194,12,0,8198,0:0:0:0:
256,192,8197,12,0,8201,0:0:0:0:
256,192,8199,12,0,8203,0:0:0:0:
256,192,8201,12,0,8205,0:0:0:0:
256,192,8203,12,0,8207,0:0:0:0:
256,192,8205,12,0,8209,0:0:0:0:
256,192,8207,12,0,8211,0:0:0:0:
256,192,8209,12,0,8213,0:0:0:0:
256,192,8211,12,0,8215,0:0:0:0:
256,192,8214,12,0,8218,0:0:0:0:
256,192,8216,12,0,8220,0:0:0:0:
256,192,8218,12,0,8222,0:0:0:0:
256,192,8220,12,0,8224,0:0:0:0:
256,192,8222,12,0,8226,0:0:0:0:
256,192,8224,12,0,8228,0:0:0:0:
256,192,8226,12,0,8230,0:0:0:0:
256,192,8228,12,0,8232,0:0:0:0:
256,192,8231,12,0,8235,0:0:0:0:
256,192,8233,12,0,8237,0:0:0:0:
256,192,8235,12,0,8239,0:0:0:0:
256,192,8237,12,0,8241,0:0:0:0:
256,192,8239,12,0,8243,0:0:0:0:
256,192,8241,12,0,8245,0:0:0:0:
256,192,8243,12,0,8247,0:0:0:0:
256,192,8245,12,0,8249,0:0:0:0:
256,192,8248,12,0,8252,0:0:0:0:
256,192,8250,12,0,8254,0:0:0:0:
256,192,8252,12,0,8256,0:0:0:0:
256,192,8254,12,0,8258,0:0:0:0:
256,192,8256,12,0,8260,0:0:0:0:
256,192,8258,12,0,8262,0:0:0:0:
256,192,8260,12,0,8264,0:0:0:0:
256,192,8262,12,0,8266,0:0:0:0:
256,192,8265,12,0,8269,0:0:0:0:
256,192,8267,12,0,8271,0:0:0:0:
256,192,8269,12,0,8273,0:0:0:0:
256,192,8271,12,0,8275,0:0:0:0:
256,192,8273,12,0,8277,0:0:0:0:
256,192,8275,12,0,8279,0:0:0:0:
256,192,8277,12,0,8281,0:0:0:0:
256,192,8279,12,0,8283,0:0:0:0:
256,192,8282,12,0,8286,0:0:0:0:
256,192,8284,12,0,8288,0:0:0:0:
256,192,8286,12,0,8290,0:0:0:0:
256,192,8288,12,0,8292,0:0:0:0:
256,192,8290,12,0,8294,0:0:0:0:
256,192,8292,12,0,8296,0:0:0:0:
256,192,8294,12,0,8298,0:0:0:0:
256,192,8296,12,0,8300,0:0:0:0:
256,192,8299,12,0,8303,0:0:0:0:
256,192,8301,12,0,8305,0:0:0:0:
256,192,8303,12,0,8307,0:0:0:0:
256,192,8305,12,0,8309,0:0:0:0:
256,192,8307,12,0,8311,0:0:0:0:
256,192,8309,12,0,8313,0:0:0:0:
256,192,8311,12,0,8315,0:0:0:0:
256,192,8313,12,0,8317,0:0:0:0:
256,192,8316,12,0,8320,0:0:0:0:
256,192,8318,12,0,8322,0:0:0:0:
256,192,8320,12,0,8324,0:0:0:0:
256,192,8322,12,0,8326,0:0:0:0:
256,192,8324,12,0,8328,0:0:0:0:
256,192,8326,12,0,8330,0:0:0:0:
256,192,8328,12,0,8332,0:0:0:0:
256,192,8330,12,0,8334,0:0:0:0:
256,192,8333,12,0,8337,0:0:0:0:
256,192,8335,12,0,8339,0:0:0:0:
256,192,8337,12,0,8341,0:0:0:0:
256,192,8339,12,0,8343,0:0:0:0:
256,192,8341,12,0,8345,0:0:0:0:
256,192,8343,12,0,8347,0:0:0:0:
256,192,8345,12,0,8349,0:0:0:0:
256,192,8347,12,0,8351,0:0:0:0:
256,192,8350,12,0,8354,0:0:0:0:
256,192,8352,12,0,8356,0:0:0:0:
256,192,8354,12,0,8358,0:0:0:0:
256,192,8356,12,0,8360,0:0:0:0:
256,192,8358,12,0,8362,0:0:0:0:
256,192,8360,12,0,8364,0:0:0:0:
256,192,8362,12,0,8366,0:0:0:0:
256,192,8364,12,0,8368,0:0:0:0:
256,192,8367,12,0,8371,0:0:0:0:
256,192,8369,12,0,8373,0:0:0:0:
256,192,8371,12,0,8375,0:0:0:0:
256,192,8373,12,0,8377,0:0:0:0:
256,192,8375,12,0,8379,0:0:0:0:
256,192,8377,12,0,8381,0:0:0:0:
256,192,8379,12,0,8383,0:0:0:0:
256,192,8381,12,0,8385,0:0:0:0:
256,192,8384,12,0,8388,0:0:0:0:
256,192,8386,12,0,8390,0:0:0:0:
256,192,8388,12,0,8392,0:0:0:0:
256,192,8390,12,0,8394,0:0:0:0:
256,192,8392,12,0,8396,0:0:0:0:
256,192,8394,12,0,8398,0:0:0:0:
256,192,8396,12,0,8400,0:0:0:0:
256,192,8398,12,0,8402,0:0:0:0:
256,192,8401,12,0,8405,0:0:0:0:
256,192,8403,12,0,8407,0:0:0:0:
256,192,8405,12,0,8409,0:0:0:0:
256,192,8407,12,0,8411,0:0:0:0:
256,192,8409,12,0,8413,0:0:0:0:
256,192,8411,12,0,8415,0:0:0:0:
256,192,8413,12,0,8417,0:0:0:0:
256,192,8415,12,0,8419,0:0:0:0:
256,192,8418,12,0,8422,0:0:0:0:
256,192,8420,12,0,8424,0:0:0:0:
256,192,8422,12,0,8426,0:0:0:0:
256,192,8424,12,0,8428,0:0:0:0:
256,192,8426,12,0,8430,0:0:0:0:
256,192,8428,12,0,8432,0:0:0:0:
256,192,8430,12,0,8434,0:0:0:0:
256,192,8432,12,0,8436,0:0:0:0:
256,192,8435,12,0,8439,0:0:0:0:
256,192,8437,12,0,8441,0:0:0:0:
256,192,8439,12,0,8443,0:0:0:0:
256,192,8441,12,0,8445,0:0:0:0:
256,192,8443,12,0,8447,0:0:0:0:
256,192,8445,12,0,8449,0:0:0:0:
256,192,8447,12,0,8451,0:0:0:0:
256,192,8449,12,0,8453,0:0:0:0:
256,192,8452,12,0,8456,0:0:0:0:
256,192,8454,12,0,8458,0:0:0:0:
256,192,8456,12,0,8460,0:0:0:0:
256,192,8458,12,0,8462,0:0:0:0:
256,192,8460,12,0,8464,0:0:0:0:
256,192,8462,12,0,8466,0:0:0:0:
256,192,8464,12,0,8468,0:0:0:0:
256,192,8466,12,0,8470,0:0:0:0:
256,192,8469,12,0,8473,0:0:0:0:
256,192,8471,12,0,8475,0:0:0:0:
256,192,8473,12,0,8477,0:0:0:0:
256,192,8475,12,0,8479,0:0:0:0:
256,192,8477,12,0,8481,0:0:0:0:
256,192,8479,12,0,8483,0:0:0:0:
256,192,8481,12,0,8485,0:0:0:0:
256,192,8483,12,0,8487,0:0:0:0:
256,192,8486,12,0,8490,0:0:0:0:
256,192,8488,12,0,8492,0:0:0:0:
256,192,8490,12,0,8494,0:0:0:0:
256,192,8492,12,0,8496,0:0:0:0:
256,192,8494,12,0,8498,0:0:0:0:
256,192,8496,12,0,8500,0:0:0:0:
256,192,8498,12,0,8502,0:0:0:0:
256,192,8500,12,0,8504,0:0:0:0:
256,192,8503,12,0,8507,0:0:0:0:
256,192,8505,12,0,8509,0:0:0:0:
256,192,8507,12,0,8511,0:0:0:0:
256,192,8509,12,0,8513,0:0:0:0:
256,192,8511,12,0,8515,0:0:0:0:
256,192,8513,12,0,8517,0:0:0:0:
256,192,8515,12,0,8519,0:0:0:0:
256,192,8517,12,0,8521,0:0:0:0:
256,192,8520,12,0,8524,0:0:0:0:
256,192,8522,12,0,8526,0:0:0:0:
256,192,8524,12,0,8528,0:0:0:0:
256,192,8526,12,0,8530,0:0:0:0:
256,192,8528,12,0,8532,0:0:0:0:
256,192,8530,12,0,8534,0:0:0:0:
256,192,8532,12,0,8536,0:0:0:0:
256,192,8534,12,0,8538,0:0:0:0:
256,192,8537,12,0,8541,0:0:0:0:
256,192,8539,12,0,8543,0:0:0:0:
256,192,8541,12,0,8545,0:0:0:0:
256,192,8543,12,0,8547,0:0:0:0:
256,192,8545,12,0,8549,0:0:0:0:
256,192,8547,12,0,8551,0:0:0:0:
256,192,8549,12,0,8553,0:0:0:0:
256,192,8551,12,0,8555,0:0:0:0:
256,192,8554,12,0,8558,0:0:0:0:
256,192,8556,12,0,8560,0:0:0:0:
256,192,8558,12,0,8562,0:0:0:0:
256,192,8560,12,0,8564,0:0:0:0:
256,192,8562,12,0,8566,0:0:0:0:
256,192,8564,12,0,8568,0:0:0:0:
256,192,8566,12,0,8570,0:0:0:0:
256,192,8568,12,0,8572,0:0:0:0:
256,192,8571,12,0,8575,0:0:0:0:
256,192,8573,12,0,8577,0:0:0:0:
256,192,8575,12,0,8579,0:0:0:0:
256,192,8577,12,0,8581,0:0:0:0:
256,192,8579,12,0,8583,0:0:0:0:
256,192,8581,12,0,8585,0:0:0:0:
256,192,8583,12,0,8587,0:0:0:0:
256,192,8585,12,0,8589,0:0:0:0:
256,192,8588,12,0,8592,0:0:0:0:
256,192,8590,12,0,8594,0:0:0:0:
256,192,8592,12,0,8596,0:0:0:0:
256,192,8594,12,0,8598,0:0:0:0:
256,192,8596,12,0,8600,0:0:0:0:
256,192,8598,12,0,8602,0:0:0:0:
256,192,8600,12,0,8604,0:0:0:0:
256,192,8602,12,0,8606,0:0:0:0:
256,192,8605,12,0,8609,0:0:0:0:
256,192,8607,12,0,8611,0:0:0:0:
256,192,8609,12,0,8613,0:0:0:0:
256,192,8611,12,0,8615,0:0:0:0:
256,192,8613,12,0,8617,0:0:0:0:
256,192,8615,12,0,8619,0:0:0:0:
256,192,8617,12,0,8621,0:0:0:0:
256,192,8619,12,0,8623,0:0:0:0:
256,192,8622,12,0,8626,0:0:0:0:
256,192,8624,12,0,8628,0:0:0:0:
256,192,8626,12,0,8630,0:0:0:0:
256,192,8628,12,0,8632,0:0:0:0:
256,192,8630,12,0,8634,0:0:0:0:
256,192,8632,12,0,8636,0:0:0:0:
256,192,8634,12,0,8638,0:0:0:0:
256,192,8636,12,0,8640,0:0:0:0:
256,192,8639,12,0,8643,0:0:0:0:
256,192,8641,12,0,8645,0:0:0:0:
256,192,8643,12,0,8647,0:0:0:0:
256,192,8645,12,0,8649,0:0:0:0:
256,192,8647,12,0,8651,0:0:0:0:
256,192,8649,12,0,8653,0:0:0:0:
256,192,8651,12,0,8655,0:0:0:0:
256,192,8653,12,0,8657,0:0:0:0:
256,192,8656,12,0,8660,0:0:0:0:
256,192,8658,12,0,8662,0:0:0:0:
256,192,8660,12,0,8664,0:0:0:0:
256,192,8662,12,0,8666,0:0:0:0:
256,192,8664,12,0,8668,0:0:0:0:
256,192,8666,12,0,8670,0:0:0:0:
256,192,8668,12,0,8672,0:0:0:0:
256,192,8670,12,0,8674,0:0:0:0:
256,192,8673,12,0,8677,0:0:0:0:
256,192,8675,12,0,8679,0:0:0:0:
256,192,8677,12,0,8681,0:0:0:0:
256,192,8679,12,0,8683,0:0:0:0:
256,192,8681,12,0,8685,0:0:0:0:
256,192,8683,12,0,8687,0:0:0:0:
256,192,8685,12,0,8689,0:0:0:0:
256,192,8687,12,0,8691,0:0:0:0:
256,192,8690,12,0,8694,0:0:0:0:
256,192,8692,12,0,8696,0:0:0:0:
256,192,8694,12,0,8698,0:0:0:0:
256,192,8696,12,0,8700,0:0:0:0:
256,192,8698,12,0,8702,0:0:0:0:
256,192,8700,12,0,8704,0:0:0:0:
256,192,8702,12,0,8706,0:0:0:0:
256,192,8704,12,0,8708,0:0:0:0:
256,192,8707,12,0,8711,0:0:0:0:
256,192,8709,12,0,8713,0:0:0:0:
256,192,8711,12,0,8715,0:0:0:0:
256,192,8713,12,0,8717,0:0:0:0:
256,192,8715,12,0,8719,0:0:0:0:
256,192,8717,12,0,8721,0:0:0:0:
256,192,8719,12,0,8723,0:0:0:0:
256,192,8721,12,0,8725,0:0:0:0:
256,192,10090,5,0,0:0:0:0:
