osu file format v14

[General]
AudioFilename: audio.mp3
AudioLeadIn: 0
PreviewTime: 66988
Countdown: 0
SampleSet: Soft
StackLeniency: 0.7
Mode: 0
LetterboxInBreaks: 0
WidescreenStoryboard: 1

[Editor]
DistanceSpacing: 1.1
BeatDivisor: 4
GridSize: 4
TimelineZoom: 1.6

[Metadata]
Title:UNION!!
TitleUnicode:UNION!!
Artist:Yamaguchi Rikako, Asakura Momo, Taneda Risa, Suwa Ayaka, Natsukawa Shiina
ArtistUnicode:山口立花子、麻倉もも、種田梨沙、諏訪彩花、夏川椎菜
Creator:_Star
Version:2MIX
Source:アイドルマスター ミリオンライブ!
Tags:idolm@ster the idolmaster million live im@s imas 百瀬莉緒 箱崎星梨花 田中琴葉 徳川まつり 望月杏奈 MoeAsuka -[Pino]- nika mika Lobelia -Eriri- Sun Rainbow Rio Momose Serika Hakozaki Kotoha Tanaka Matsuri Tokugawa Anna Mochizuki [ Abhor ]
BeatmapID:1724963
BeatmapSetID:812370

[Difficulty]
HPDrainRate:3
CircleSize:3
OverallDifficulty:2
ApproachRate:3
SliderMultiplier:0.8
SliderTickRate:1

[Events]
//Background and Video events
0,0,"Screenshot_20180711-165954.jpg",0,0
Video,-1100,"video.avi"
//Break Periods
//Storyboard Layer 0 (Background)
//Storyboard Layer 1 (Fail)
//Storyboard Layer 2 (Pass)
//Storyboard Layer 3 (Foreground)
//Storyboard Sound Samples

[TimingPoints]
-512,348.837209302326,4,2,1,70,1,0
10650,-100,4,2,1,70,0,0
12046,-100,4,2,0,70,0,0
12394,-100,4,2,1,70,0,0
23208,-100,4,2,0,70,0,0
23383,-100,4,2,1,70,0,0
45534,-100,4,2,1,70,0,0
55301,-100,4,2,1,70,0,0
62278,-100,4,2,1,70,0,0
64371,-100,4,2,1,70,0,0
67162,-100,4,2,1,70,0,0
67860,-100,4,2,0,80,0,1
68034,-100,4,2,1,80,0,1
79022,-100,4,2,0,80,0,1
79197,-100,4,2,1,80,0,1
84953,-100,4,2,1,80,0,1
85650,-100,4,2,1,80,0,1
86348,-100,4,2,1,80,0,1
87046,-100,4,2,1,80,0,1
90185,-100,4,2,0,80,0,1
90360,-100,4,2,1,80,0,1
112511,-100,4,2,1,70,0,0
118092,-100,4,2,1,70,0,0
118790,-100,4,2,1,70,0,0
120534,-100,4,2,1,70,0,0
120883,-100,4,2,0,70,0,0
121232,-100,4,2,1,70,0,0
132046,-100,4,2,1,70,0,0

[Colours]
Combo1 : 255,157,223
Combo2 : 38,247,221
Combo3 : 139,57,238
Combo4 : 255,84,2
Combo5 : 255,192,0
Combo6 : 181,170,140
SliderTrackOverride : 0,0,0
SliderBorder : 180,140,70

[HitObjects]
86,56,10650,6,0,P|62:101|78:190,1,120,2|2,0:0|0:0,0:0:0:0:
90,298,11697,1,4,3:0:0:0:
178,321,12046,6,0,P|281:367|397:311,1,240,4|8,0:0|0:0,0:0:0:0:
322,262,13441,2,0,P|370:156|324:49,1,240,2|8,0:0|0:0,0:0:0:0:
278,123,14836,6,0,P|175:77|59:133,1,240,2|8,0:0|0:0,0:0:0:0:
142,168,16232,2,0,P|93:273|139:380,1,240,2|8,0:0|0:0,0:0:0:0:
198,316,17627,6,0,P|280:337|344:272,1,160,2|2,0:0|0:0,0:0:0:0:
257,252,18674,1,8,0:0:0:0:
183,201,19022,2,0,P|251:163|323:194,1,160,2|2,0:0|0:0,0:0:0:0:
401,233,20069,1,8,0:0:0:0:
477,190,20418,6,0,P|506:117|476:45,1,160,2|2,0:0|0:0,0:0:0:0:
393,15,21464,1,8,0:0:0:0:
306,30,21813,2,0,P|270:49|248:236,1,240,2|8,0:0|0:0,0:0:0:0:
178,289,23208,5,4,0:0:0:0:
71,149,23906,1,8,0:0:0:0:
245,140,24604,1,2,0:0:0:0:
295,308,25301,1,8,0:0:0:0:
163,191,25999,5,2,0:0:0:0:
338,206,26697,1,8,0:0:0:0:
245,54,27394,2,0,L|73:51,1,160,2|8,0:0|0:2,0:0:0:0:
55,225,28790,5,2,0:0:0:0:
213,149,29488,1,8,0:0:0:0:
196,303,30186,1,2,0:0:0:0:
117,145,30883,1,8,0:0:0:0:
269,56,31581,6,0,P|354:36|440:91,1,160,2|8,0:0|0:0,0:0:0:0:
490,225,32976,2,0,P|405:245|319:190,1,160,2|8,0:0|0:0,0:0:0:0:
220,344,34371,6,0,B|141:346|141:346|81:282,1,160,4|2,0:2|0:0,0:0:0:0:
59,202,35418,1,8,0:2:0:0:
78,116,35767,2,0,B|133:56|133:56|212:58,1,160,2|2,0:0|0:0,0:0:0:0:
280,114,36813,1,8,0:2:0:0:
234,189,37162,6,0,B|233:269|233:269|296:325,1,160,2|2,0:0|0:0,0:0:0:0:
372,360,38208,1,8,0:2:0:0:
384,271,38557,2,0,B|383:191|383:191|446:135,1,160,2|2,0:0|0:2,0:0:0:0:
469,53,39604,1,8,0:2:0:0:
381,44,39953,6,0,P|334:65|208:15,1,160,0|2,3:0|0:0,0:0:0:0:
145,25,40999,1,8,0:2:0:0:
68,73,41348,2,0,P|47:120|97:246,1,160,2|2,0:0|0:0,0:0:0:0:
122,293,42394,1,8,0:2:0:0:
196,340,42743,6,0,P|254:360|366:332,1,160,2|2,0:0|0:0,0:0:0:0:
420,291,43790,1,8,0:2:0:0:
420,202,44139,2,0,L|416:101,1,80,8|8,0:2|0:2,0:0:0:0:
330,102,44836,2,0,L|333:181,1,80,8|8,0:2|0:2,0:0:0:0:
276,249,45534,6,0,P|239:273|122:248,1,160,4|8,0:0|0:2,0:0:0:0:
50,98,46929,2,0,P|87:74|204:99,1,160,2|8,0:0|0:2,0:0:0:0:
333,201,48325,6,0,L|336:370,1,160,2|8,0:0|0:2,0:0:0:0:
499,295,49720,2,0,L|501:135,1,160,2|8,0:0|0:2,0:0:0:0:
339,63,51115,6,0,P|302:39|185:64,1,160,2|8,0:0|0:2,0:0:0:0:
86,196,52511,2,0,P|160:220|231:189,1,160,2|8,0:0|0:2,0:0:0:0:
394,126,53906,6,0,L|396:285,1,160,2|8,0:0|0:2,0:0:0:0:
230,347,55301,2,0,L|232:187,1,160,8|8,0:2|0:2,0:0:0:0:
149,218,56348,1,10,0:2:0:0:
85,157,56697,6,0,P|121:122|177:116,1,80,2|8,0:2|0:2,0:0:0:0:
211,52,57394,2,0,P|250:83|268:134,1,80,10|10,0:2|0:2,0:0:0:0:
349,90,58092,2,0,P|348:140|311:182,1,80,10|10,0:2|0:2,0:0:0:0:
373,243,58790,2,0,P|323:250|272:228,1,80,10|10,0:2|0:2,0:0:0:0:
308,330,59488,6,0,L|221:323,1,80,10|10,0:2|0:2,0:0:0:0:
204,238,60185,2,0,L|117:245,1,80,10|10,0:2|0:2,0:0:0:0:
37,258,60883,2,0,L|44:171,1,80,10|10,0:2|0:2,0:0:0:0:
129,154,61580,2,0,L|122:67,1,80,10|10,0:2|0:2,0:0:0:0:
53,18,62278,5,10,0:2:0:0:
23,358,64371,6,0,P|60:371|121:354,1,80,2|8,0:0|0:0,0:0:0:0:
190,349,65069,5,8,0:2:0:0:
152,222,65592,1,8,0:2:0:0:
285,254,66115,1,8,0:2:0:0:
372,245,66464,6,0,L|389:145,1,80,8|8,0:2|0:2,0:0:0:0:
154,37,67860,6,0,P|111:32|59:44,1,80,4|8,0:0|0:0,0:0:0:0:
13,100,68557,2,0,P|7:143|19:195,1,80,2|8,0:2|0:0,0:0:0:0:
30,265,69255,1,2,0:2:0:0:
78,338,69604,1,8,0:0:0:0:
162,360,69953,2,0,P|207:368|261:355,1,80,2|8,0:2|0:0,0:0:0:0:
327,351,70650,6,0,P|370:356|422:344,1,80,2|8,0:2|0:0,0:0:0:0:
468,289,71348,2,0,P|473:245|461:193,1,80,2|8,0:2|0:0,0:0:0:0:
451,124,72045,1,2,0:2:0:0:
403,51,72394,1,8,0:0:0:0:
319,29,72743,2,0,P|274:21|220:34,1,80,2|8,0:2|0:2,0:0:0:0:
166,74,73441,6,0,L|73:78,1,80,2|8,0:2|0:0,0:0:0:0:
67,163,74139,2,0,L|146:159,1,80,2|8,0:2|0:0,0:0:0:0:
234,164,74836,1,2,0:2:0:0:
315,198,75185,1,8,0:0:0:0:
378,258,75534,2,0,L|378:352,1,80,2|8,0:2|0:0,0:0:0:0:
464,320,76232,6,0,L|464:240,1,80,2|8,0:2|0:0,0:0:0:0:
406,172,76929,2,0,L|406:92,1,80,2|8,0:2|0:0,0:0:0:0:
333,41,77627,1,2,0:2:0:0:
244,41,77976,1,8,0:0:0:0:
155,43,78325,2,0,L|39:45,1,80,2|2,0:2|0:2,0:0:0:0:
12,106,79022,6,0,P|4:162|24:207,1,80,4|8,0:2|0:0,0:0:0:0:
7,271,79720,2,0,P|-1:327|19:372,1,80,2|8,0:2|0:0,0:0:0:0:
93,353,80418,2,0,L|106:184,1,160,2|2,0:2|0:2,0:0:0:0:
180,147,81464,1,8,0:0:0:0:
259,108,81813,54,0,P|267:164|247:209,1,80,2|8,0:2|0:0,0:0:0:0:
264,273,82511,2,0,P|272:329|252:374,1,80,2|8,0:2|0:0,0:0:0:0:
178,355,83209,2,0,L|165:186,1,160,2|2,0:2|0:2,0:0:0:0:
94,143,84255,1,8,0:0:0:0:
124,60,84604,53,2,0:0:0:0:
200,103,84953,2,0,P|240:108|290:96,1,80,8|2,0:2|0:2,0:0:0:0:
355,58,85650,1,8,0:2:0:0:
416,121,85999,5,2,0:0:0:0:
373,197,86348,2,0,P|368:237|380:287,1,80,8|2,0:2|0:2,0:0:0:0:
419,351,87046,1,8,0:2:0:0:
334,375,87394,6,0,L|245:368,1,80,2|8,0:2|0:0,0:0:0:0:
266,281,88092,2,0,L|177:288,1,80,2|8,0:2|0:0,0:0:0:0:
150,368,88790,22,0,P|119:342|213:205,1,240,2|8,0:2|0:2,0:0:0:0:
280,194,90185,6,0,P|323:199|375:187,1,80,4|8,0:0|0:0,0:0:0:0:
440,160,90883,2,0,P|447:194|430:247,1,80,2|8,0:2|0:0,0:0:0:0:
360,281,91580,1,2,0:2:0:0:
425,339,91929,1,8,0:0:0:0:
341,370,92278,2,0,P|296:378|242:365,1,80,2|8,0:2|0:0,0:0:0:0:
194,317,92976,6,0,P|151:322|99:310,1,80,2|8,0:2|0:0,0:0:0:0:
34,350,93674,2,0,P|26:306|51:258,1,80,2|8,0:2|0:0,0:0:0:0:
113,229,94371,1,2,0:2:0:0:
51,165,94719,1,8,0:0:0:0:
111,100,95069,2,0,P|156:92|210:105,1,80,2|8,0:2|0:0,0:0:0:0:
266,53,95766,6,0,L|359:57,1,80,2|8,0:2|0:0,0:0:0:0:
364,142,96464,2,0,L|285:138,1,80,2|8,0:2|0:0,0:0:0:0:
207,181,97161,1,2,0:2:0:0:
271,240,97510,1,8,0:0:0:0:
188,265,97859,2,0,L|188:359,1,80,2|8,0:2|0:0,0:0:0:0:
100,357,98557,6,0,L|100:277,1,80,2|8,0:2|0:0,0:0:0:0:
28,225,99255,2,0,L|28:145,1,80,2|2,0:2|0:0,0:0:0:0:
53,60,99952,1,8,0:2:0:0:
142,60,100301,1,8,0:2:0:0:
231,62,100650,2,0,L|347:64,1,80,8|8,0:2|0:2,0:0:0:0:
394,35,101348,6,0,P|397:87|366:132,1,80,8|8,0:2|0:2,0:0:0:0:
453,168,102046,2,0,P|409:196|354:191,1,80,8|8,0:2|0:2,0:0:0:0:
413,280,102743,2,0,P|361:282|316:251,1,80,8|8,0:2|0:2,0:0:0:0:
321,357,103441,2,0,P|274:333|251:283,1,80,8|8,0:2|0:2,0:0:0:0:
175,339,104139,6,0,P|172:287|203:242,1,80,8|8,0:2|0:2,0:0:0:0:
117,205,104836,2,0,P|160:176|215:181,1,80,8|8,0:2|0:2,0:0:0:0:
276,173,105534,2,0,L|365:172,1,80,2|8,0:2|0:2,0:0:0:0:
334,86,106232,2,0,L|254:85,1,80,2|2,0:2|0:2,0:0:0:0:
186,29,106929,6,0,P|165:87|178:127,1,80,2|8,0:2|0:0,0:0:0:0:
81,86,107627,1,2,0:2:0:0:
34,160,107976,1,8,0:0:0:0:
71,239,108325,2,0,P|117:274|159:272,1,80,2|8,0:2|0:0,0:0:0:0:
159,361,109022,1,2,0:2:0:0:
246,369,109371,1,8,0:0:0:0:
330,343,109720,6,0,L|426:335,1,80,2|8,0:2|0:0,0:0:0:0:
428,251,110418,2,0,L|332:243,1,80,2|8,0:2|0:0,0:0:0:0:
313,163,111115,2,0,L|409:155,1,80,2|8,0:2|0:0,0:0:0:0:
432,77,111813,2,0,L|336:69,1,80,2|2,0:2|0:2,0:0:0:0:
265,53,112511,6,0,L|161:53,1,80,4|8,0:2|0:2,0:0:0:0:
101,80,113208,1,2,0:2:0:0:
79,165,113557,1,8,0:2:0:0:
63,251,113906,2,0,L|112:348,1,80,2|8,0:2|0:2,0:0:0:0:
187,328,114604,1,2,0:2:0:0:
274,333,114953,1,8,0:2:0:0:
361,338,115301,6,0,L|442:345,1,80,2|8,0:2|0:0,0:0:0:0:
453,257,115999,2,0,L|373:250,1,80,2|8,0:2|0:0,0:0:0:0:
383,162,116697,2,0,L|464:169,1,80,8|2,0:2|0:2,0:0:0:0:
475,81,117395,2,0,L|395:74,1,80,8|2,0:2|0:2,0:0:0:0:
311,101,118092,6,0,P|254:127|150:87,1,160,8|8,0:2|0:2,0:0:0:0:
88,260,119488,1,8,0:2:0:0:
416,134,120883,6,0,P|308:180|203:131,1,240,4|8,0:0|0:0,0:0:0:0:
120,101,122278,2,0,P|64:102|82:240,1,240,2|8,0:0|0:0,0:0:0:0:
163,215,123673,6,0,P|266:169|382:225,1,240,2|8,0:0|0:0,0:0:0:0:
398,302,125068,2,0,P|455:302|436:163,1,240,2|8,0:0|0:0,0:0:0:0:
503,99,126464,6,0,P|421:78|357:143,1,160,2|2,0:0|0:0,0:0:0:0:
300,179,127511,1,8,0:0:0:0:
251,252,127859,2,0,P|184:308|100:273,1,160,2|2,0:0|0:0,0:0:0:0:
80,212,128906,1,8,0:0:0:0:
115,131,129255,6,0,P|182:75|266:110,1,160,2|2,0:0|0:0,0:0:0:0:
300,159,130301,1,8,0:0:0:0:
259,237,130650,2,0,B|338:248|338:248|297:316|297:316|378:328,1,240,2|2,0:0|0:0,0:0:0:0:
427,255,132046,5,2,0:0:0:0:
256,192,132394,12,0,135534,3:0:0:0:
