osu file format v14

[General]
AudioFilename: audio.mp3
AudioLeadIn: 0
PreviewTime: 6429
Countdown: 0
SampleSet: Soft
StackLeniency: 0.7
Mode: 0
LetterboxInBreaks: 0
WidescreenStoryboard: 0

[Editor]
DistanceSpacing: 1.2
BeatDivisor: 4
GridSize: 4
TimelineZoom: 1.4

[Metadata]
Title:NAPALM MAN STAGE
TitleUnicode:NAPALM MAN STAGE
Artist:Yamaguchi Mari
ArtistUnicode:山口真理
Creator:MoodyRPG
Version:Hard
Source:ロックマン5
Tags:mm5 megaman rockman Blues no Wana!? trap ブルースの罠!? capcom nes famicom hazu- Video Game Instrumental 8-bit chiptune electronic mega man vgm やまぐち まり
BeatmapID:2796933
BeatmapSetID:1350951

[Difficulty]
HPDrainRate:6
CircleSize:4
OverallDifficulty:7
ApproachRate:7
SliderMultiplier:1.3
SliderTickRate:2

[Events]
//Background and Video events
0,0,"Napalm.jpeg",0,0
//Break Periods
//Storyboard Layer 0 (Background)
//Storyboard Layer 1 (Fail)
//Storyboard Layer 2 (Pass)
//Storyboard Layer 3 (Foreground)
//Storyboard Layer 4 (Overlay)
//Storyboard Sound Samples

[TimingPoints]
245,335.195530726257,6,2,1,70,1,0
2088,335.195530726257,5,2,1,70,1,0
3763,333.333333333333,4,2,1,70,1,0
25096,335.195530726257,6,2,1,70,1,0
26939,335.195530726257,5,2,1,70,1,0
28614,333.333333333333,4,2,1,70,1,0
39280,-100,4,2,1,70,0,1
47280,335.195530726257,6,2,1,70,1,0
49123,335.195530726257,7,2,1,70,1,0
51468,333.333333333333,4,2,1,50,1,0
51468,-100,4,2,1,50,0,0
52801,-100,4,2,1,30,0,0
54134,-100,4,2,1,15,0,0

[Colours]
Combo1 : 255,192,0
Combo2 : 255,0,0
Combo3 : 0,84,187
Combo4 : 128,255,128

[HitObjects]
256,344,245,5,8,3:2:0:0:
296,277,412,2,0,L|363:268,3,65,10|0|0|2,3:2|0:0|0:0|0:0,0:0:0:0:
397,116,1250,2,0,L|329:107,3,65,10|2|0|0,3:2|0:0|0:0|0:0,0:0:0:0:
257,84,1920,1,2,0:0:0:0:
187,119,2088,5,8,0:0:0:0:
187,119,2255,2,0,L|118:125,3,65,10|0|0|10,3:2|0:0|0:0|3:2,0:0:0:0:
67,69,2925,1,2,3:2:0:0:
15,127,3093,2,0,L|19:193,3,65,0|0|10|2,0:0|0:0|3:2|3:2,0:0:0:0:
256,108,4096,6,0,B|219:157|256:197|291:234|254:295,1,195,10|2,3:2|0:0,0:0:0:0:
256,192,5096,12,8,6429,3:2:0:0:
344,74,6762,6,0,B|295:37|255:74|218:109|157:72,1,195,10|2,0:0|3:2,0:0:0:0:
87,39,7429,1,8,0:0:0:0:
36,99,7596,2,0,B|14:161|14:161|36:223,2,130,2|2|2,3:2|3:2|3:2,0:0:0:0:
183,151,8596,1,2,3:2:0:0:
256,177,8763,1,8,3:2:0:0:
330,152,8930,1,2,3:2:0:0:
396,191,9096,6,0,P|255:263|116:189,1,325,2|2,3:2|3:2,0:0:0:0:
50,231,10096,1,8,3:2:0:0:
100,289,10262,2,0,P|256:342|403:293,1,325,2|0,3:2|0:0,0:0:0:0:
466,150,11429,1,10,3:2:0:0:
407,95,11596,1,0,3:2:0:0:
333,110,11762,5,0,3:2:0:0:
333,110,11929,2,0,B|301:124|301:124|260:123,1,65,2|8,0:0|0:0,0:0:0:0:
220,63,12262,2,0,L|237:205,2,130,2|2|2,3:2|3:2|3:2,0:0:0:0:
145,55,13096,1,0,3:2:0:0:
145,55,13262,2,0,L|73:174,1,130,2|2,0:0|3:2,0:0:0:0:
113,317,13929,1,2,0:0:0:0:
113,317,14096,1,10,0:0:0:0:
265,347,14429,6,0,B|361:323|361:323|465:346|465:346|418:248|466:166,1,390,2|8,3:2|0:0,0:0:0:0:
294,7,15762,1,2,3:2:0:0:
215,7,15929,1,0,0:0:0:0:
252,75,16096,1,8,0:0:0:0:
252,75,16262,2,0,B|244:114|244:114|272:151|272:151|257:192,1,130,2|10,0:0|0:0,0:0:0:0:
255,270,16762,1,8,0:0:0:0:
386,355,17096,5,0,3:2:0:0:
230,366,17429,2,0,B|182:372|161:308|161:308|98:308|88:245,1,195,10|2,0:0|3:2,0:0:0:0:
34,200,18096,1,8,0:0:0:0:
32,125,18262,2,0,L|2:-8,2,130,2|2|2,3:2|3:2|3:2,0:0:0:0:
184,89,19263,1,2,3:2:0:0:
255,59,19429,1,8,0:0:0:0:
328,86,19596,1,2,0:0:0:0:
324,163,19762,6,0,B|401:192|401:192|369:272|398:348|398:348|318:377,1,325,2|2,3:2|3:2,0:0:0:0:
255,332,20762,1,8,0:0:0:0:
191,376,20929,2,0,B|114:348|114:348|143:272|111:192|111:192|188:163,1,325,2|0,3:2|0:0,0:0:0:0:
312,68,22096,1,10,3:2:0:0:
255,14,22262,1,0,3:2:0:0:
200,70,22429,5,0,3:2:0:0:
200,70,22596,2,0,L|132:71,1,65,2|8,0:0|0:0,0:0:0:0:
79,16,22929,2,0,P|100:74|69:136,2,130,2|2|2,3:2|3:2|3:2,0:0:0:0:
24,71,23762,1,0,3:2:0:0:
24,71,23929,2,0,P|-3:129|25:195,2,130,2|2|0,0:0|3:2|0:0,0:0:0:0:
72,132,24762,1,10,3:2:0:0:
161,258,25096,5,8,3:2:0:0:
225,301,25263,2,0,L|296:295,3,65,10|0|0|2,3:2|0:0|0:0|0:0,0:0:0:0:
438,343,26101,1,8,3:2:0:0:
466,269,26269,2,0,L|473:199,3,65,2|0|0|0,0:0|0:0|0:0|0:0,0:0:0:0:
450,129,26939,5,10,3:2:0:0:
379,96,27106,2,0,P|340:97|313:87,3,65,10|0|0|10,3:2|0:0|0:0|3:2,0:0:0:0:
294,13,27776,1,10,3:2:0:0:
224,48,27944,2,0,P|191:36|155:35,3,65,2|2|0|2,0:0|0:0|0:0|0:0,0:0:0:0:
82,36,28614,6,0,L|88:169,1,130,2|8,3:2|0:0,0:0:0:0:
16,197,29114,2,0,L|9:333,1,130,2|0,3:2|3:2,0:0:0:0:
81,357,29614,1,10,3:2:0:0:
153,330,29780,2,0,B|196:300|246:334|246:334|283:288|338:297,1,195,2|8,0:0|0:0,0:0:0:0:
292,226,30447,2,0,L|154:249,1,130,2|2,3:2|3:2,0:0:0:0:
89,217,30947,1,8,3:2:0:0:
63,143,31113,1,2,0:0:0:0:
92,70,31280,6,0,B|135:78|135:78|168:53|229:63,1,130,0|8,3:2|0:0,0:0:0:0:
295,62,31780,2,0,B|344:53|377:78|377:78|420:70,1,130,2|2,3:2|3:2,0:0:0:0:
456,139,32280,1,8,3:2:0:0:
395,187,32447,1,2,0:0:0:0:
395,187,32613,2,0,B|376:234|376:234|392:272|372:315,1,130,0|8,3:2|0:0,0:0:0:0:
299,336,33113,2,0,B|253:340|219:309|219:309|150:321,1,130,2|2,3:2|3:2,0:0:0:0:
108,354,33613,1,8,3:2:0:0:
29,354,33780,1,2,0:0:0:0:
45,283,33947,6,0,B|45:210|45:210|82:165,1,130,0|8,3:2|0:0,0:0:0:0:
145,210,34447,2,0,B|182:158|182:158|182:79,1,130,2|2,3:2|3:2,0:0:0:0:
122,50,34947,1,8,3:2:0:0:
122,50,35113,2,0,B|182:92|182:92|322:92,1,195,2|8,0:0|0:0,0:0:0:0:
381,97,35780,1,2,3:2:0:0:
447,138,35947,1,2,0:0:0:0:
474,210,36113,1,0,3:2:0:0:
439,280,36280,2,0,P|415:309|387:326,1,65,8|2,3:2|0:0,0:0:0:0:
317,351,36613,6,0,P|256:370|191:349,1,130,0|8,3:2|0:0,0:0:0:0:
189,273,37113,2,0,L|178:139,1,130,2|2,3:2|3:2,0:0:0:0:
325,275,37780,1,2,3:2:0:0:
325,275,37947,2,0,L|336:141,1,130,2|10,3:2|0:0,0:0:0:0:
397,2,38613,1,2,0:0:0:0:
330,42,38780,1,0,3:2:0:0:
259,7,38947,1,10,3:2:0:0:
194,48,39113,1,0,3:2:0:0:
194,48,39280,6,0,P|228:105|221:178,1,130,2|8,3:2|0:0,0:0:0:0:
119,68,39780,2,0,P|119:132|150:189,1,130,2|2,3:2|3:2,0:0:0:0:
193,343,40447,1,2,3:2:0:0:
193,343,40613,2,0,B|255:363|255:363|319:343,1,130,2|8,3:2|0:0,0:0:0:0:
313,265,41113,2,0,B|251:245|251:245|189:265,1,130,2|2,3:2|3:2,0:0:0:0:
299,167,41780,1,2,3:2:0:0:
299,167,41947,6,0,P|296:102|330:48,1,130,2|8,3:2|0:0,0:0:0:0:
374,187,42447,2,0,P|404:131|406:67,1,130,2|2,3:2|3:2,0:0:0:0:
327,321,43113,1,2,3:2:0:0:
327,321,43280,2,0,P|256:264|187:323,2,195,2|2|8,3:2|3:2|3:2,0:0:0:0:
419,161,44613,6,0,L|280:118,1,130,2|8,3:2|0:0,0:0:0:0:
91,161,45113,2,0,L|216:123,1,130,2|0,3:2|3:2,0:0:0:0:
320,239,45780,1,2,3:2:0:0:
320,239,45947,2,0,P|336:298|290:363,1,130,2|8,3:2|0:0,0:0:0:0:
192,239,46447,2,0,P|176:298|222:363,1,130,2|2,3:2|3:2,0:0:0:0:
256,206,47113,1,2,3:2:0:0:
302,143,47280,5,10,3:2:0:0:
302,143,47447,2,0,L|320:77,3,65,8|0|0|2,3:2|0:0|0:0|0:0,0:0:0:0:
177,14,48285,1,8,3:2:0:0:
111,56,48453,2,0,P|79:69|52:102,3,65,2|0|0|2,0:0|3:2|0:0|0:0,0:0:0:0:
4,147,49123,1,8,3:2:0:0:
30,220,49290,6,0,P|39:252|25:297,3,65,10|0|2|8,3:2|0:0|0:0|3:2,0:0:0:0:
109,314,49960,1,8,3:2:0:0:
109,314,50128,2,0,P|99:346|106:379,3,65,2|0|2|2,0:0|0:0|3:2|3:2,0:0:0:0:
183,377,50798,1,8,0:0:0:0:
256,350,50966,1,2,0:0:0:0:
330,325,51134,2,0,L|363:330,2,32.5,10|2|0,3:2|3:2|3:2,0:0:0:0:
256,192,51468,12,0,54134,0:0:0:0:
