osu file format v14

[General]
AudioFilename: audio.ogg
AudioLeadIn: 0
PreviewTime: 51192
Countdown: 0
SampleSet: Normal
StackLeniency: 0.7
Mode: 1
LetterboxInBreaks: 0
WidescreenStoryboard: 1

[Editor]
Bookmarks: 7080,19712,32343,44975
DistanceSpacing: 2.1
BeatDivisor: 4
GridSize: 32
TimelineZoom: 1

[Metadata]
Title:Hachimitsu Doki (TV Size)
TitleUnicode:ハチミツ時間 (TV Size)
Artist:Yamagami Lucy (Ryaku) (CV: Kayano Ai)
ArtistUnicode:山神ルーシー(略) (CV: 茅野愛衣)
Creator:[-E S I A-]
Version:Muzukashii
Source:サーバント×サービス
Tags:servant x service servantxservice sxs honey time ending ed anime japanese pop j-pop jpop a-1 pictures aniplex 長谷部豊 Yutaka Hasebe E_S_I_A [-E_S_I_A-] ESIA [-ESIA-]
BeatmapID:4252528
BeatmapSetID:2038786

[Difficulty]
HPDrainRate:7
CircleSize:2
OverallDifficulty:5
ApproachRate:10
SliderMultiplier:1.4
SliderTickRate:1

[Events]
//Background and Video events
Video,-200,"shuwa shuwari.mp4"
0,0,"XsX.jpg",0,40
//Break Periods
//Storyboard Layer 0 (Background)
//Storyboard Layer 1 (Fail)
//Storyboard Layer 2 (Pass)
//Storyboard Layer 3 (Foreground)
//Storyboard Layer 4 (Overlay)
//Storyboard Sound Samples

[TimingPoints]
770,394.736842105263,4,1,0,80,1,0
6987,-100,4,1,0,70,0,0
19618,-100,4,1,0,75,0,0
32250,-100,4,1,0,80,0,0
44881,-100,4,1,0,85,0,0
51296,-100,4,1,0,90,0,1
76559,-100,4,1,0,70,0,0
78957,394.736842105263,4,1,0,70,1,8
79746,394.736842105263,4,1,0,70,1,0
82893,394.736842105263,4,1,0,70,1,0
86050,-100,4,1,0,60,0,0
86840,-100,4,1,0,50,0,0
87629,-100,4,1,0,40,0,0
88024,-100,4,1,0,30,0,0
88419,-100,4,1,0,20,0,0
88814,-100,4,1,0,10,0,0
89011,-100,4,1,0,5,0,0

[HitObjects]
231,191,770,5,4,0:0:0:0:
269,282,1559,1,0,0:0:0:0:
244,179,1954,1,8,0:0:0:0:
269,282,2348,1,0,0:0:0:0:
209,192,2743,1,8,0:0:0:0:
209,192,3138,1,8,0:0:0:0:
268,179,3335,1,8,0:0:0:0:
268,179,3533,1,0,0:0:0:0:
268,179,3730,1,0,0:0:0:0:
357,177,3927,1,8,0:0:0:0:
361,178,4717,1,0,0:0:0:0:
350,230,5112,1,8,0:0:0:0:
76,119,5506,1,0,0:0:0:0:
107,156,5901,1,8,0:0:0:0:
380,238,6296,1,0,0:0:0:0:
259,202,6493,1,0,0:0:0:0:
259,202,6691,1,8,0:0:0:0:
259,202,6888,1,8,0:0:0:0:
259,202,7085,1,4,0:0:0:0:
207,183,7875,1,0,0:0:0:0:
259,202,8269,1,8,0:0:0:0:
259,202,8467,1,0,0:0:0:0:
122,147,8664,1,8,0:0:0:0:
259,202,9059,1,0,0:0:0:0:
353,180,9454,1,8,0:0:0:0:
263,184,10243,1,0,0:0:0:0:
302,176,10638,1,0,0:0:0:0:
263,184,11033,1,8,0:0:0:0:
302,176,11427,1,0,0:0:0:0:
157,148,11625,1,8,0:0:0:0:
302,176,11822,1,8,0:0:0:0:
354,192,12217,1,0,0:0:0:0:
302,176,12612,1,8,0:0:0:0:
302,176,12809,1,0,0:0:0:0:
168,225,13006,1,8,0:0:0:0:
291,293,13401,1,0,0:0:0:0:
292,315,14191,1,0,0:0:0:0:
318,168,14585,1,8,0:0:0:0:
318,168,14783,1,8,0:0:0:0:
279,309,14980,1,0,0:0:0:0:
381,69,15375,1,8,0:0:0:0:
271,171,15769,1,0,0:0:0:0:
316,222,16559,1,8,0:0:0:0:
349,212,16954,1,8,0:0:0:0:
105,118,17348,1,0,0:0:0:0:
349,212,17743,1,0,0:0:0:0:
349,212,17941,1,0,0:0:0:0:
478,142,18138,1,8,0:0:0:0:
468,209,18533,1,8,0:0:0:0:
205,209,18927,1,0,0:0:0:0:
347,257,19125,1,0,0:0:0:0:
307,176,19322,1,8,0:0:0:0:
373,366,19717,1,0,0:0:0:0:
279,174,20506,1,8,0:0:0:0:
350,194,20901,1,8,0:0:0:0:
350,194,21098,1,8,0:0:0:0:
242,148,21296,1,0,0:0:0:0:
437,323,21691,1,0,0:0:0:0:
225,96,22085,1,8,0:0:0:0:
437,322,22480,1,8,0:0:0:0:
271,174,22875,1,0,0:0:0:0:
299,175,23269,1,8,0:0:0:0:
445,181,23664,1,8,0:0:0:0:
164,171,24059,1,8,0:0:0:0:
299,175,24256,1,0,0:0:0:0:
410,180,24454,1,0,0:0:0:0:
149,246,24848,1,8,0:0:0:0:
283,175,25243,1,0,0:0:0:0:
363,377,25441,1,8,0:0:0:0:
283,175,25638,1,0,0:0:0:0:
340,198,26033,1,8,0:0:0:0:
306,244,26822,1,0,0:0:0:0:
307,201,27217,1,8,0:0:0:0:
452,179,27414,1,0,0:0:0:0:
305,199,27612,1,0,0:0:0:0:
330,168,28006,1,8,0:0:0:0:
37,140,28401,1,0,0:0:0:0:
333,168,28796,1,0,0:0:0:0:
330,168,29191,1,8,0:0:0:0:
333,168,29585,1,0,0:0:0:0:
478,141,29980,1,8,0:0:0:0:
52,215,30375,1,8,0:0:0:0:
321,189,30572,1,8,0:0:0:0:
177,163,30769,1,0,0:0:0:0:
71,159,31164,1,8,0:0:0:0:
356,188,31559,1,0,0:0:0:0:
306,155,32348,1,4,0:0:0:0:
40,289,32743,1,8,0:0:0:0:
191,217,33138,1,0,0:0:0:0:
335,234,33335,1,0,0:0:0:0:
198,178,33533,1,8,0:0:0:0:
492,220,33927,1,8,0:0:0:0:
219,109,34322,1,0,0:0:0:0:
268,247,34519,1,0,0:0:0:0:
243,177,34717,1,8,0:0:0:0:
243,177,34914,1,0,0:0:0:0:
243,177,35112,1,8,0:0:0:0:
276,152,35506,1,0,0:0:0:0:
276,152,35901,1,8,0:0:0:0:
414,202,36296,1,8,0:0:0:0:
281,139,36493,1,8,0:0:0:0:
243,297,36691,1,0,0:0:0:0:
408,54,37085,1,8,0:0:0:0:
263,294,37480,1,0,0:0:0:0:
339,169,37677,1,8,0:0:0:0:
308,165,37875,1,0,0:0:0:0:
308,165,38072,1,0,0:0:0:0:
339,169,38269,1,8,0:0:0:0:
51,229,38664,1,0,0:0:0:0:
312,195,39059,1,8,0:0:0:0:
336,193,39454,1,0,0:0:0:0:
167,209,39651,1,0,0:0:0:0:
310,177,39848,1,8,0:0:0:0:
357,166,40243,1,0,0:0:0:0:
210,217,40638,1,8,0:0:0:0:
347,169,40835,1,8,0:0:0:0:
253,202,41033,1,0,0:0:0:0:
253,202,41230,1,0,0:0:0:0:
383,139,41427,1,8,0:0:0:0:
128,251,41822,1,4,0:0:0:0:
363,150,42217,1,8,0:0:0:0:
294,209,42612,1,0,0:0:0:0:
294,209,42809,1,0,0:0:0:0:
359,244,43006,1,8,0:0:0:0:
359,244,43401,1,8,0:0:0:0:
363,150,43796,1,0,0:0:0:0:
256,212,43993,1,0,0:0:0:0:
305,156,44191,1,8,0:0:0:0:
370,254,44388,1,0,0:0:0:0:
293,128,44585,1,8,0:0:0:0:
256,212,44980,1,4,0:0:0:0:
256,212,45375,1,8,0:0:0:0:
325,171,45769,1,8,0:0:0:0:
325,171,46164,1,0,0:0:0:0:
366,180,46362,1,0,0:0:0:0:
325,171,46559,1,8,0:0:0:0:
297,214,46954,1,0,0:0:0:0:
7,171,47348,1,8,0:0:0:0:
148,212,47546,1,0,0:0:0:0:
300,214,47743,1,8,0:0:0:0:
451,237,47941,1,0,0:0:0:0:
300,214,48138,1,8,0:0:0:0:
300,214,48533,1,8,0:0:0:0:
149,143,48730,1,8,0:0:0:0:
339,201,48927,1,0,0:0:0:0:
244,166,49125,1,8,0:0:0:0:
244,166,49322,1,8,0:0:0:0:
323,289,49519,1,4,0:0:0:0:
194,32,49914,1,12,0:0:0:0:
260,166,50112,1,12,0:0:0:0:
379,201,50506,1,12,0:0:0:0:
254,150,50704,1,12,0:0:0:0:
379,201,51296,1,4,0:0:0:0:
105,176,51691,1,8,0:0:0:0:
398,189,52085,1,0,0:0:0:0:
175,302,52283,1,0,0:0:0:0:
125,221,52480,1,8,0:0:0:0:
267,187,52677,1,8,0:0:0:0:
266,187,52875,1,0,0:0:0:0:
338,170,53269,1,8,0:0:0:0:
338,170,53467,1,0,0:0:0:0:
266,187,53862,1,0,0:0:0:0:
266,187,54059,1,8,0:0:0:0:
284,221,54256,1,0,0:0:0:0:
202,310,54454,1,8,0:0:0:0:
430,147,54848,1,0,0:0:0:0:
211,343,55243,1,8,0:0:0:0:
324,184,55638,1,0,0:0:0:0:
299,220,55835,1,0,0:0:0:0:
254,162,56033,1,8,0:0:0:0:
254,162,56427,1,8,0:0:0:0:
254,162,56625,1,0,0:0:0:0:
254,162,56822,1,8,0:0:0:0:
220,221,56921,1,8,0:0:0:0:
254,162,57019,1,8,0:0:0:0:
254,162,57217,1,0,0:0:0:0:
254,162,57414,1,8,0:0:0:0:
144,240,57612,1,0,0:0:0:0:
404,125,58006,1,8,0:0:0:0:
254,162,58401,1,0,0:0:0:0:
390,218,58598,1,0,0:0:0:0:
254,162,58796,1,8,0:0:0:0:
293,169,58993,1,0,0:0:0:0:
162,236,59191,1,0,0:0:0:0:
254,162,59585,1,8,0:0:0:0:
254,162,59783,1,0,0:0:0:0:
293,169,59980,1,0,0:0:0:0:
439,173,60079,1,0,0:0:0:0:
365,171,60177,1,0,0:0:0:0:
293,169,60375,1,8,0:0:0:0:
449,173,60572,1,0,0:0:0:0:
298,219,60769,1,8,0:0:0:0:
365,171,61164,1,0,0:0:0:0:
365,171,61362,1,0,0:0:0:0:
225,163,61559,1,8,0:0:0:0:
477,314,61954,1,8,0:0:0:0:
371,225,62151,1,0,0:0:0:0:
270,117,62348,1,8,0:0:0:0:
370,224,62546,1,8,0:0:0:0:
261,70,62941,1,0,0:0:0:0:
422,183,63335,1,8,0:0:0:0:
379,201,63927,1,4,0:0:0:0:
105,176,64322,1,8,0:0:0:0:
398,189,64717,1,0,0:0:0:0:
267,187,64914,1,0,0:0:0:0:
125,221,65112,1,8,0:0:0:0:
175,302,65309,1,8,0:0:0:0:
266,187,65506,1,0,0:0:0:0:
338,170,65901,1,8,0:0:0:0:
353,200,66098,1,0,0:0:0:0:
266,187,66493,1,0,0:0:0:0:
266,187,66691,1,8,0:0:0:0:
202,310,66888,1,8,0:0:0:0:
266,187,67085,1,0,0:0:0:0:
211,343,67480,1,8,0:0:0:0:
430,147,67875,1,0,0:0:0:0:
392,100,68269,1,8,0:0:0:0:
299,220,68467,1,8,0:0:0:0:
254,162,68664,1,0,0:0:0:0:
254,162,69059,1,8,0:0:0:0:
254,162,69256,1,0,0:0:0:0:
254,162,69454,1,8,0:0:0:0:
254,162,69552,1,8,0:0:0:0:
220,221,69651,1,8,0:0:0:0:
254,162,69848,1,0,0:0:0:0:
144,240,70046,1,0,0:0:0:0:
254,162,70243,1,8,0:0:0:0:
404,125,70638,1,0,0:0:0:0:
254,162,70835,1,8,0:0:0:0:
397,194,71033,1,8,0:0:0:0:
293,169,71427,1,0,0:0:0:0:
293,169,71822,1,8,0:0:0:0:
254,162,72217,1,8,0:0:0:0:
254,162,72414,1,0,0:0:0:0:
293,169,72612,1,0,0:0:0:0:
365,171,72710,1,0,0:0:0:0:
293,169,72809,1,0,0:0:0:0:
439,173,73006,1,8,0:0:0:0:
298,219,73204,1,8,0:0:0:0:
449,173,73401,1,0,0:0:0:0:
365,171,73796,1,0,0:0:0:0:
223,149,73993,1,0,0:0:0:0:
225,163,74191,1,8,0:0:0:0:
441,203,74388,1,8,0:0:0:0:
371,225,74783,1,0,0:0:0:0:
270,117,74980,1,8,0:0:0:0:
353,158,75375,1,8,0:0:0:0:
279,162,75769,1,8,0:0:0:0:
308,179,75967,1,0,0:0:0:0:
422,183,76066,1,0,0:0:0:0:
422,183,76164,1,0,0:0:0:0:
283,198,76362,1,8,0:0:0:0:
288,48,76559,1,4,0:0:0:0:
346,200,77348,1,8,0:0:0:0:
346,200,78138,1,0,0:0:0:0:
346,200,78533,1,0,0:0:0:0:
346,200,78957,1,8,0:0:0:0:
346,200,79351,1,8,0:0:0:0:
346,200,79746,1,0,0:0:0:0:
260,202,80535,1,8,0:0:0:0:
260,202,81324,1,8,0:0:0:0:
260,202,82893,1,0,0:0:0:0:
376,199,83287,1,0,0:0:0:0:
128,175,83682,1,8,0:0:0:0:
402,199,84077,1,0,0:0:0:0:
323,194,84471,1,8,0:0:0:0:
323,194,84866,1,8,0:0:0:0:
31,156,85261,1,0,0:0:0:0:
177,172,85458,1,8,0:0:0:0:
451,275,85853,1,0,0:0:0:0:
256,192,86050,12,0,89011,0:0:0:0:
