osu file format v14

[General]
AudioFilename: audio.mp3
AudioLeadIn: 0
PreviewTime: 51356
Countdown: 0
SampleSet: Soft
StackLeniency: 0.7
Mode: 0
LetterboxInBreaks: 0
WidescreenStoryboard: 1

[Editor]
Bookmarks: 10711,21034,31356,41679,52001,72647,76518,76558,76598,76639,76679,76719,76759,76800,76840,76880,76921,76961,77001,77042,77082,77122,77163,77203,77243,77284,77324,77364,77405,77445,77485,77526,77566,77606,77647,77687,77727,77768,77808,77848,77889,77929,77969,78009,78050,78090,78130,78171,78211,78251,78292,78332,78372,78413,78453,78493,78534,78574,78614,78655,78695,78735,78776,78816,78856,78897,78937,78977,79018,79058,79098,79139,79179,79219,79259,79300,79340,79380,79421,79461,79501,79542,79582,79622,79663,79703,79743,79784,79824,79864,79905,79945,79985,80026,80066,80106,80147,80187,80227,80268,80308,80348,80389,80429,80469,80509,80550,80590,80630,80671,80711,80751,80792,80832,80872,80913,80953,80993,81034,81074,81114,81155,81195,81235,81276,81316,81356,81397,81437,81477,81518,81558,81598,81639,81679,81719,81759,81800,81840,81880,81921,81961,82001,82042,82082,82122,82163,82203,82243,82284,82324,82364,82405,82445,82485,82526,82566,82606,82647,82687,82727,82768,82808,82848,82889,82929,82969,93292,103614,113937,134582,155227,165550
DistanceSpacing: 1.2
BeatDivisor: 4
GridSize: 32
TimelineZoom: 1.9

[Metadata]
Title:Ever be my love
TitleUnicode:Ever be my love
Artist:Yamada Tamaru
ArtistUnicode:山田タマル
Creator:GlaZe
Version:Elayue's Hard
Source:終末なにしてますか?忙しいですか?救ってもらっていいですか?
Tags:WorldEnd: What do you do at the end of the world? Are you busy? Will you save us? OST sukasuka Shuumatsu Nani Shitemasu ka? Isogashii Desu ka? Sukutte Moratte Ii Desu ka? english pop sukasuka elayue ohwow shurelia
BeatmapID:2527615
BeatmapSetID:1201814

[Difficulty]
HPDrainRate:5
CircleSize:3.9
OverallDifficulty:6
ApproachRate:7.5
SliderMultiplier:1.5
SliderTickRate:1

[Events]
//Background and Video events
0,0,"bg.jpg",0,0
//Break Periods
2,49631,50541
2,76728,82154
//Storyboard Layer 0 (Background)
//Storyboard Layer 1 (Fail)
//Storyboard Layer 2 (Pass)
//Storyboard Layer 3 (Foreground)
//Storyboard Layer 4 (Overlay)
//Storyboard Sound Samples

[TimingPoints]
399,645.161290322581,4,2,1,40,1,0
399,-111.111111111111,4,2,1,40,0,0
4269,-90.9090909090909,4,2,1,40,0,0
4915,-111.111111111111,4,2,1,40,0,0
8140,-90.9090909090908,4,2,1,40,0,0
10721,-90.9090909090908,4,2,1,50,0,0
21044,-111.111111111111,4,2,1,45,0,0
39108,-99.9999999999999,4,2,1,45,0,0
41689,-99.9999999999999,4,2,1,50,0,0
51366,-142.857142857143,4,2,1,45,0,0
52011,-90.9090909090909,4,2,2,60,0,0
52657,-90.9090909090909,4,2,1,60,0,0
60399,-90.9090909090909,4,2,1,55,0,0
61044,-90.9090909090909,4,2,1,50,0,0
61689,-90.9090909090909,4,2,1,55,0,0
62011,-90.9090909090909,4,2,1,60,0,0
62334,-90.9090909090909,4,2,2,60,0,0
62979,-90.9090909090909,4,2,1,60,0,0
67495,-90.9090909090909,4,2,2,60,0,0
67818,-90.9090909090909,4,2,1,60,0,0
70076,-90.9090909090909,4,2,2,60,0,0
70721,-90.9090909090909,4,2,1,60,0,0
71366,-90.9090909090909,4,2,2,60,0,0
72011,-90.9090909090909,4,2,1,60,0,0
72657,-90.9090909090909,4,2,1,50,0,0
76528,-90.9090909090909,4,2,1,30,0,0
82979,-111.111111111111,4,2,1,50,0,0
84915,-111.111111111111,4,2,2,50,0,0
85237,-111.111111111111,4,2,1,50,0,0
87173,-111.111111111111,4,2,2,50,0,0
87818,-111.111111111111,4,2,1,50,0,0
90076,-111.111111111111,4,2,2,50,0,0
90399,-111.111111111111,4,2,1,50,0,0
92334,-111.111111111111,4,2,2,50,0,0
92495,-111.111111111111,4,2,1,50,0,0
92657,-111.111111111111,4,2,2,50,0,0
92818,-111.111111111111,4,2,1,50,0,0
93302,-111.111111111111,4,2,1,40,0,0
101044,-99.9999999999999,4,2,1,40,0,0
103624,-99.9999999999999,4,2,1,50,0,0
113302,-99.9999999999999,4,2,1,65,0,0
113947,-90.9090909090909,4,2,2,60,0,0
114592,-90.9090909090909,4,2,1,60,0,0
122334,-90.9090909090909,4,2,1,55,0,0
122979,-90.9090909090909,4,2,1,50,0,0
123624,-90.9090909090909,4,2,1,55,0,0
123947,-90.9090909090909,4,2,1,60,0,0
124269,-90.9090909090909,4,2,2,60,0,0
124915,-90.9090909090909,4,2,1,60,0,0
129431,-90.9090909090909,4,2,2,60,0,0
129753,-90.9090909090909,4,2,1,60,0,0
132011,-90.9090909090909,4,2,2,55,0,0
132657,-90.9090909090909,4,2,1,55,0,0
133786,-90.9090909090909,4,2,2,55,0,0
133947,-90.9090909090909,4,2,1,55,0,0
134592,-90.9090909090909,4,2,2,60,0,0
134915,-90.9090909090909,4,2,1,60,0,0
142979,-90.9090909090909,4,2,1,55,0,0
143624,-90.9090909090909,4,2,1,50,0,0
144269,-90.9090909090909,4,2,1,55,0,0
144915,-90.9090909090909,4,2,2,60,0,0
145237,-90.9090909090909,4,2,1,60,0,0
150076,-90.9090909090909,4,2,2,60,0,0
150399,-90.9090909090909,4,2,1,60,0,0
152657,-90.9090909090909,4,2,2,60,0,0
153302,-90.9090909090909,4,2,1,60,0,0
153947,-62.5,4,2,2,60,0,1
154592,-62.5,4,2,1,60,0,1
155237,-90.9090909090909,4,2,1,45,0,0
158463,-90.9090909090909,4,2,1,40,0,0
159108,-100,4,2,1,40,0,0
162979,-100,4,2,1,50,0,0
163624,-100,4,2,1,45,0,0
164269,-100,4,2,1,40,0,0
165560,-111.111111111111,4,2,1,35,0,0
175882,-111.111111111111,4,2,1,5,0,0

[Colours]
Combo1 : 255,190,159
Combo2 : 255,151,151
Combo3 : 179,179,255

[HitObjects]
478,9,399,6,0,P|508:57|477:105,1,101.249996910095,2|0,2:1|0:0,0:0:0:0:
450,164,1044,2,0,L|466:231,1,67.4999979400635,2|2,0:0|0:1,0:0:0:0:
389,320,1689,6,0,P|341:350|293:319,1,101.249996910095,2|0,0:0|0:0,0:0:0:0:
234,292,2334,2,0,L|167:308,1,67.4999979400635,8|0,0:0|0:0,0:0:0:0:
57,341,2979,2,0,B|63:306|63:306|61:302|61:302|69:256,1,67.4999979400635,2|0,0:1|0:0,0:0:0:0:
106,195,3624,1,2,0:0:0:0:
106,195,3786,2,0,L|99:158,2,33.7499989700318,2|2|8,0:0|0:1|0:0,0:0:0:0:
173,122,4269,6,0,L|180:79,1,41.2500012588501,2|2,0:0|0:0,0:0:0:0:
239,176,4592,2,0,L|248:227,1,41.2500012588501,8|8,0:3|0:0,0:0:0:0:
304,115,4915,1,2,0:0:0:0:
332,100,5076,1,2,0:0:0:0:
357,108,5237,1,8,0:3:0:0:
367,128,5399,1,2,0:0:0:0:
368,151,5560,6,0,L|346:227,1,67.4999979400635,2|0,0:1|0:0,0:0:0:0:
291,286,6205,2,0,L|309:380,1,67.4999979400635,2|2,0:0|0:1,0:0:0:0:
189,330,6850,6,0,B|144:336|144:336|140:334|140:334|80:342,1,101.249996910095,2|0,0:0|0:0,0:0:0:0:
32,284,7495,2,0,P|51:257|49:217,1,67.4999979400635,8|0,0:0|0:0,0:0:0:0:
99,117,8140,6,0,L|138:127,1,41.2500012588501,8|0,0:3|0:0,0:0:0:0:
214,164,8463,2,0,L|253:154,1,41.2500012588501,8|2,0:0|0:0,0:0:0:0:
361,91,8786,6,0,L|341:191,1,82.5000025177003,8|8,0:3|0:0,0:0:0:0:
405,248,9269,1,2,0:0:0:0:
405,248,9431,6,0,L|445:237,1,41.2500012588501,8|0,0:3|0:0,0:0:0:0:
371,334,9753,2,0,L|330:324,1,41.2500012588501,8|2,0:0|0:0,0:0:0:0:
246,285,10076,2,0,L|171:300,1,41.2500012588501,2|2,0:3|0:0,0:0:0:0:
146,356,10399,1,2,0:0:0:0:
16,251,10721,6,0,P|47:221|83:225,1,82.5000025177003,2|0,3:1|0:0,0:0:0:0:
23,267,11366,1,0,3:0:0:0:
172,93,12011,6,0,L|183:201,1,82.5000025177003,0|0,3:0|0:0,0:0:0:0:
187,84,12657,1,0,3:0:0:0:
348,80,13302,6,0,B|312:70|312:70|307:72|307:72|247:54,1,82.5000025177003,2|0,3:1|0:0,0:0:0:0:
371,60,13947,1,0,3:0:0:0:
371,60,14108,2,0,L|426:50,2,41.2500012588501,2|2|8,0:0|0:1|0:0,0:0:0:0:
465,120,14592,6,0,L|456:160,1,41.2500012588501,0|2,3:0|0:0,0:0:0:0:
391,214,14914,2,0,L|400:254,1,41.2500012588501,8|8,0:3|0:0,0:0:0:0:
342,313,15237,1,2,3:0:0:0:
320,324,15399,1,2,0:0:0:0:
292,320,15560,1,8,0:3:0:0:
276,301,15721,1,2,0:0:0:0:
271,279,15882,6,0,L|283:183,1,82.5000025177003,2|0,3:1|0:0,0:0:0:0:
249,285,16527,1,0,3:0:0:0:
112,231,17172,6,0,B|108:267|108:267|104:274|104:274|99:326,1,82.5000025177003,0|0,3:0|0:0,0:0:0:0:
101,212,17818,1,0,3:0:0:0:
262,124,18463,6,0,L|158:140,1,82.5000025177003,2|2,3:1|0:1,0:0:0:0:
356,186,19108,2,0,P|386:153|458:176,1,123.75000377655,0|0,3:0|0:0,0:0:0:0:
498,246,19753,2,0,B|494:286|494:286|491:288|491:288|486:329,1,82.5000025177003,0|8,3:0|0:3,0:0:0:0:
455,171,20399,1,0,3:0:0:0:
505,72,20721,1,8,0:3:0:0:
391,20,21044,5,2,0:1:0:0:
318,77,21366,1,2,0:0:0:0:
249,12,21689,1,8,0:0:0:0:
166,151,22334,5,2,0:0:0:0:
218,237,22656,1,2,0:0:0:0:
309,216,22979,1,8,0:0:0:0:
511,164,23624,5,2,0:1:0:0:
448,101,23947,1,2,0:1:0:0:
382,164,24269,1,8,0:0:0:0:
448,230,24592,1,2,0:1:0:0:
381,290,24915,2,0,L|299:304,1,67.4999979400635,2|0,0:0|0:0,0:0:0:0:
164,354,25560,6,0,L|202:360,1,33.7499989700318,8|0,0:0|0:0,0:0:0:0:
125,280,25882,2,0,L|91:286,1,33.7499989700318,2|0,0:0|0:0,0:0:0:0:
188,222,26205,5,2,0:1:0:0:
167,131,26527,1,2,0:1:0:0:
248,83,26850,2,0,B|256:54|256:54|256:47|256:47|264:12,1,67.4999979400635,8|2,0:0|0:1,0:0:0:0:
308,168,27495,5,2,0:0:0:0:
398,132,27818,1,2,0:0:0:0:
461,204,28140,2,0,L|474:278,1,67.4999979400635,8|2,0:0|0:0,0:0:0:0:
359,341,28786,5,2,0:1:0:0:
272,326,29109,1,2,0:1:0:0:
285,235,29431,1,8,0:0:0:0:
377,252,29754,1,2,0:1:0:0:
461,204,30076,2,0,L|453:127,1,67.4999979400635,2|8,0:0|0:3,0:0:0:0:
342,80,30721,2,0,L|336:114,1,33.7499989700318,2|2,0:0|0:0,0:0:0:0:
398,8,31044,1,8,0:3:0:0:
251,0,31366,5,2,3:1:0:0:
200,71,31688,1,2,3:1:0:0:
115,38,32011,2,0,L|39:29,1,67.4999979400635,2|2,0:0|0:1,0:0:0:0:
0,145,32657,5,2,0:0:0:0:
80,183,32979,2,0,L|114:175,1,33.7499989700318,0|0,0:0|0:0,0:0:0:0:
30,253,33302,2,0,L|18:332,1,67.4999979400635,2|0,0:0|3:0,0:0:0:0:
135,364,33947,5,2,3:1:0:0:
193,294,34269,1,2,3:1:0:0:
262,353,34592,2,0,L|329:346,1,67.4999979400635,2|0,0:0|0:0,0:0:0:0:
425,384,35237,1,2,0:0:0:0:
479,302,35560,6,0,L|530:311,2,33.7499989700318,0|0|2,3:0|0:0|0:0,0:0:0:0:
414,232,36205,1,0,3:0:0:0:
312,240,36528,5,2,3:1:0:0:
327,152,36851,1,2,3:1:0:0:
252,99,37173,2,0,L|176:111,1,67.4999979400635,2|2,0:0|0:1,0:0:0:0:
139,182,37819,5,2,0:0:0:0:
57,141,38141,2,0,L|47:89,1,33.7499989700318,2|0,0:0|0:0,0:0:0:0:
14,214,38464,2,0,L|-4:298,1,67.4999979400635,2|0,0:0|3:0,0:0:0:0:
67,384,39108,6,0,P|92:360|140:367,1,75,2|2,3:1|3:1,0:0:0:0:
237,332,39753,2,0,P|262:356|310:349,1,75,2|2,0:0|0:1,0:0:0:0:
399,320,40399,2,0,B|394:286|394:286|391:280|391:280|387:240,1,75,2|0,0:0|3:0,0:0:0:0:
469,179,41044,1,2,0:0:0:0:
418,91,41366,2,0,L|423:53,1,37.5,0|0,3:0|0:0,0:0:0:0:
357,0,41690,5,4,3:1:0:0:
276,84,42011,2,0,L|222:72,1,37.5,2|0,0:0|0:0,0:0:0:0:
171,112,42334,1,8,0:3:0:0:
239,214,42657,6,0,L|293:202,1,37.5,2|0,0:0|0:0,0:0:0:0:
344,242,42980,1,8,0:3:0:0:
295,355,43302,2,0,L|241:343,1,37.5,2|0,0:0|0:0,0:0:0:0:
180,368,43624,2,0,L|87:389,1,75,8|0,0:3|3:0,0:0:0:0:
34,342,44108,1,0,0:0:0:0:
34,342,44269,6,0,B|40:308|40:308|38:301|38:301|44:260,1,75,0|0,3:0|0:0,0:0:0:0:
122,175,44915,1,8,0:3:0:0:
87,62,45237,2,0,L|124:68,1,37.5,2|0,0:0|0:0,0:0:0:0:
201,38,45560,2,0,P|233:71|306:57,2,112.5,8|8|0,0:3|0:3|3:0,0:0:0:0:
124,68,46850,2,0,L|33:76,1,75,0|0,3:0|0:0,0:0:0:0:
0,155,47495,1,8,0:3:0:0:
51,243,47818,1,0,3:0:0:0:
144,211,48140,6,0,L|157:298,1,75,0|0,3:0|0:0,0:0:0:0:
226,181,48786,2,0,L|240:97,1,75,8|2,0:0|3:0,0:0:0:0:
310,227,49431,1,4,3:2:0:0:
448,80,51366,6,0,L|456:26,1,52.4999983978272,2|0,0:0|0:0,0:0:0:0:
324,136,52011,6,0,B|253:115|253:115|201:151,1,123.75000377655,4|0,0:0|0:0,0:0:0:0:
151,205,52657,2,0,L|161:267,1,41.2500012588501,2|0,0:0|0:0,0:0:0:0:
212,143,52979,1,0,3:0:0:0:
136,62,53302,6,0,L|94:69,1,41.2500012588501,2|0,0:0|0:0,0:0:0:0:
196,1,53624,2,0,L|236:8,1,41.2500012588501,0|0,0:0|0:0,0:0:0:0:
300,64,53947,1,8,1:0:0:0:
400,0,54269,2,0,L|409:46,1,41.2500012588501,2|0,0:0|0:0,0:0:0:0:
461,104,54592,6,0,P|418:134|428:200,1,123.75000377655,0|0,3:0|0:0,0:0:0:0:
478,272,55237,2,0,L|470:334,2,41.2500012588501,2|8|0,0:0|0:0|3:0,0:0:0:0:
426,198,55721,1,8,0:3:0:0:
337,217,55882,2,0,B|300:209|300:209|297:213|297:213|236:201,1,82.5000025177003,2|2,0:0|0:3,0:0:0:0:
151,245,56528,1,8,1:0:0:0:
64,196,56850,1,2,0:0:0:0:
0,275,57173,6,0,L|18:363,1,82.5000025177003,0|0,3:0|0:0,0:0:0:0:
64,196,57818,2,0,L|7:185,2,41.2500012588501,2|8|0,0:0|0:0|3:0,0:0:0:0:
134,148,58302,1,8,0:3:0:0:
134,148,58463,1,2,0:0:0:0:
218,193,58786,1,2,0:0:0:0:
271,115,59108,2,0,L|365:131,1,82.5000025177003,8|0,1:0|0:0,0:0:0:0:
416,81,59592,1,8,0:0:0:0:
416,81,59753,6,0,L|405:24,1,41.2500012588501,2|0,3:1|0:0,0:0:0:0:
477,138,60076,2,0,L|466:195,1,41.2500012588501,2|0,0:0|0:0,0:0:0:0:
510,252,60399,2,0,B|472:256|472:256|466:260|466:260|411:270,1,82.5000025177003,2|0,0:1|3:0,0:0:0:0:
368,327,60882,1,0,0:0:0:0:
368,327,61044,2,0,L|360:369,1,41.2500012588501,2|0,0:1|0:0,0:0:0:0:
293,272,61366,2,0,L|285:231,1,41.2500012588501,2|0,0:3|0:0,0:0:0:0:
221,319,61689,1,8,1:0:0:0:
127,265,62011,1,2,0:0:0:0:
36,335,62334,6,0,L|54:166,1,165.000005035401,4|0,0:0|0:0,0:0:0:0:
162,100,63302,2,0,L|171:171,1,41.2500012588501,0|0,3:0|0:0,0:0:0:0:
228,194,63624,6,0,P|261:165|323:182,1,82.5000025177003,2|0,0:1|0:0,0:0:0:0:
384,240,64269,1,8,1:0:0:0:
469,138,64592,2,0,L|417:125,1,41.2500012588501,2|0,0:0|0:0,0:0:0:0:
372,70,64915,2,0,B|324:75|324:75|317:80|317:80|232:87,1,123.75000377655,0|0,3:0|0:0,0:0:0:0:
177,108,65560,2,0,L|123:96,1,41.2500012588501,2|0,0:0|0:0,0:0:0:0:
197,189,65882,1,0,3:0:0:0:
125,319,66205,6,0,L|164:309,1,41.2500012588501,2|0,0:0|0:0,0:0:0:0:
239,352,66528,2,0,L|278:360,1,41.2500012588501,8|0,0:0|0:0,0:0:0:0:
347,301,66850,1,8,1:0:0:0:
465,364,67173,2,0,L|456:323,1,41.2500012588501,2|0,0:0|0:0,0:0:0:0:
501,253,67495,5,4,0:0:0:0:
501,253,67818,2,0,L|517:187,2,41.2500012588501,2|8|8,0:0|0:0|0:3,0:0:0:0:
422,155,68463,2,0,L|407:85,1,41.2500012588501,0|0,3:0|0:0,0:0:0:0:
353,201,68786,6,0,L|313:192,1,41.2500012588501,2|0,0:0|0:0,0:0:0:0:
242,237,69108,2,0,L|199:248,1,41.2500012588501,8|0,0:0|0:0,0:0:0:0:
131,193,69431,1,8,1:0:0:0:
25,224,69753,1,2,0:0:0:0:
0,115,70076,5,4,3:1:0:0:
224,10,71044,1,2,0:0:0:0:
224,10,71366,2,0,L|194:180,1,165.000005035401,4|2,0:0|0:0,0:0:0:0:
276,336,72657,1,2,0:0:0:0:
256,192,72818,12,0,76528,0:0:0:0:
219,346,82979,5,2,3:1:0:0:
151,275,83301,1,2,0:1:0:0:
206,195,83624,2,0,B|235:189|235:189|242:187|242:187|277:179,1,67.4999979400635,0|2,3:0|0:1,0:0:0:0:
363,126,84269,5,0,3:0:0:0:
393,39,84591,1,2,0:0:0:0:
273,98,84914,2,0,L|197:84,1,67.4999979400635,0|0,3:0|0:0,0:0:0:0:
127,149,85560,5,0,3:0:0:0:
32,180,85883,1,2,0:0:0:0:
66,268,86205,1,0,3:0:0:0:
154,237,86528,1,2,0:0:0:0:
275,292,86850,5,0,3:0:0:0:
362,192,87173,2,0,L|369:228,1,33.7499989700318,8|0,0:3|0:0,0:0:0:0:
293,139,87495,2,0,L|302:72,1,67.4999979400635,4|2,3:0|0:0,0:0:0:0:
184,161,88140,5,0,3:0:0:0:
116,228,88462,1,2,0:0:0:0:
43,164,88785,2,0,B|54:94,1,67.4999979400635,0|2,3:0|0:1,0:0:0:0:
116,228,89430,5,0,3:0:0:0:
58,311,89753,1,2,0:0:0:0:
142,369,90076,2,0,L|218:356,1,67.4999979400635,0|2,3:0|0:0,0:0:0:0:
326,348,90721,5,0,3:0:0:0:
419,384,91044,1,2,0:0:0:0:
454,288,91366,1,0,3:0:0:0:
358,255,91689,1,2,0:0:0:0:
317,156,92011,5,0,3:0:0:0:
368,64,92334,2,0,L|406:53,1,33.7499989700318,8|2,0:3|0:0,0:0:0:0:
294,17,92656,2,0,L|200:5,1,67.4999979400635,0|2,3:0|0:0,0:0:0:0:
122,76,93302,5,2,0:0:0:0:
56,133,93624,1,0,0:0:0:0:
104,209,93947,2,0,L|118:274,1,67.4999979400635,8|2,0:0|0:0,0:0:0:0:
170,150,94592,5,2,0:0:0:0:
218,220,94914,1,2,0:0:0:0:
286,167,95237,2,0,L|359:176,1,67.4999979400635,8|2,0:0|0:0,0:0:0:0:
409,247,95883,5,2,0:0:0:0:
320,272,96206,1,2,0:0:0:0:
347,359,96528,1,8,0:0:0:0:
433,335,96851,1,2,0:0:0:0:
499,266,97173,2,0,L|509:194,1,67.4999979400635,2|2,0:0|0:0,0:0:0:0:
477,116,97818,2,0,L|467:76,1,33.7499989700318,8|0,0:0|0:0,0:0:0:0:
398,39,98140,1,2,0:0:0:0:
398,39,98302,1,8,0:0:0:0:
398,39,98463,5,8,0:3:0:0:
313,88,98786,1,2,0:0:0:0:
225,45,99108,2,0,L|149:30,1,67.4999979400635,8|2,0:0|0:0,0:0:0:0:
313,88,99753,5,2,0:0:0:0:
343,170,100076,1,2,0:0:0:0:
259,216,100398,2,0,P|227:214|197:188,1,67.4999979400635,8|2,0:0|0:0,0:0:0:0:
343,170,101044,6,0,B|346:206|346:206|350:213|350:213|356:263,1,75,8|0,0:3|0:0,0:0:0:0:
435,311,101689,2,0,B|431:347|431:347|428:354|428:354|422:404,1,75,8|2,0:0|0:0,0:0:0:0:
311,381,102334,2,0,P|274:358|236:368,1,75,8|2,0:3|0:0,0:0:0:0:
150,326,102979,2,0,P|113:349|75:339,1,75,8|2,0:0|0:0,0:0:0:0:
24,265,103624,1,4,3:1:0:0:
83,176,103947,6,0,L|76:136,1,37.5,2|0,0:0|0:0,0:0:0:0:
127,77,104270,1,8,0:3:0:0:
239,118,104592,6,0,L|231:158,1,37.5,2|8,0:0|0:0,0:0:0:0:
274,221,104915,1,8,0:3:0:0:
408,212,105237,6,0,L|400:172,1,37.5,0|0,0:0|0:0,0:0:0:0:
370,101,105560,2,0,P|389:72|373:17,1,75,8|0,0:3|3:0,0:0:0:0:
313,0,106044,1,0,0:0:0:0:
313,0,106205,6,0,B|279:6|279:6|272:4|272:4|231:10,1,75,0|2,3:0|0:0,0:0:0:0:
150,75,106851,1,8,0:3:0:0:
38,15,107173,2,0,L|44:52,1,37.5,8|0,0:0|0:0,0:0:0:0:
24,126,107496,2,0,B|15:172|15:172|12:176|12:176|-1:240,2,112.5,8|8|0,0:3|0:3|3:0,0:0:0:0:
92,218,108786,2,0,P|119:197|170:210,1,75,8|0,3:0|0:0,0:0:0:0:
248,253,109431,1,8,0:3:0:0:
333,203,109754,1,0,3:0:0:0:
417,265,110076,6,0,L|430:347,1,75,0|0,3:0|0:0,0:0:0:0:
333,203,110721,2,0,L|348:124,1,75,8|2,0:0|0:3,0:0:0:0:
283,60,111367,1,4,3:2:0:0:
204,253,113302,1,8,1:0:0:0:
290,202,113624,1,0,3:0:0:0:
377,274,113947,6,0,B|384:221|384:221|388:216|388:216|398:151,1,123.75000377655,4|0,0:0|0:0,0:0:0:0:
446,83,114593,2,0,L|438:40,1,41.2500012588501,2|0,0:0|0:0,0:0:0:0:
362,0,114915,1,0,3:0:0:0:
257,29,115238,6,0,L|214:38,1,41.2500012588501,2|0,0:0|0:0,0:0:0:0:
292,101,115560,2,0,L|337:111,1,41.2500012588501,0|0,0:0|0:0,0:0:0:0:
247,169,115883,1,8,1:0:0:0:
345,235,116205,2,0,L|339:277,1,41.2500012588501,2|0,0:0|0:0,0:0:0:0:
373,357,116528,6,0,L|230:381,1,123.75000377655,0|0,3:0|0:0,0:0:0:0:
179,335,117173,2,0,L|115:324,2,41.2500012588501,2|8|0,0:0|0:0|3:0,0:0:0:0:
229,263,117657,1,8,0:3:0:0:
171,199,117818,2,0,P|196:162|179:114,1,82.5000025177003,2|0,0:0|0:0,0:0:0:0:
126,69,118464,1,8,1:0:0:0:
182,6,118786,1,2,0:0:0:0:
254,52,119109,6,0,L|342:35,1,82.5000025177003,0|0,3:0|0:0,0:0:0:0:
423,8,119754,2,0,L|411:60,1,41.2500012588501,2|0,0:0|0:0,0:0:0:0:
448,129,120076,1,0,3:0:0:0:
448,129,120238,1,8,0:3:0:0:
448,129,120399,1,2,0:0:0:0:
369,213,120722,1,0,0:0:0:0:
421,309,121044,2,0,L|338:320,1,82.5000025177003,8|0,1:0|0:0,0:0:0:0:
268,362,121528,1,8,0:0:0:0:
268,362,121689,6,0,L|211:351,1,41.2500012588501,2|0,3:1|0:0,0:0:0:0:
176,284,122012,2,0,L|129:292,1,41.2500012588501,2|0,0:0|0:0,0:0:0:0:
62,341,122334,2,0,L|51:385,1,41.2500012588501,2|0,0:1|0:0,0:0:0:0:
14,268,122657,2,0,L|4:221,1,41.2500012588501,2|0,0:0|0:0,0:0:0:0:
69,171,122980,2,0,L|113:179,1,41.2500012588501,2|0,0:1|0:0,0:0:0:0:
182,136,123302,1,2,0:0:0:0:
182,136,123463,1,2,0:0:0:0:
182,136,123625,1,8,1:0:0:0:
262,222,123947,1,2,0:0:0:0:
363,169,124270,6,0,L|343:-12,1,165.000005035401,4|0,0:0|0:0,0:0:0:0:
233,67,125238,2,0,L|162:58,1,41.2500012588501,0|0,3:0|0:0,0:0:0:0:
116,93,125560,6,0,B|83:99|83:99|76:105|76:105|27:113,1,82.5000025177003,2|0,0:1|0:0,0:0:0:0:
0,196,126205,1,8,1:0:0:0:
85,264,126528,2,0,L|76:308,1,41.2500012588501,2|0,0:0|0:0,0:0:0:0:
34,384,126850,2,0,P|77:344|152:372,1,123.75000377655,0|0,3:0|0:0,0:0:0:0:
213,384,127496,2,0,L|266:376,1,41.2500012588501,0|0,0:0|0:0,0:0:0:0:
308,315,127818,1,0,3:0:0:0:
419,378,128141,6,0,L|429:338,1,41.2500012588501,2|0,0:0|0:0,0:0:0:0:
481,274,128463,2,0,L|471:230,1,41.2500012588501,8|0,0:0|0:0,0:0:0:0:
413,168,128786,1,8,1:0:0:0:
480,77,129109,1,2,0:0:0:0:
480,77,129270,1,2,0:0:0:0:
480,77,129431,5,4,0:0:0:0:
377,25,129754,2,0,L|315:34,2,41.2500012588501,2|8|8,0:0|0:0|0:3,0:0:0:0:
310,124,130399,2,0,L|302:164,1,41.2500012588501,2|0,0:3|0:0,0:0:0:0:
214,150,130722,6,0,L|173:157,1,41.2500012588501,2|0,0:0|0:0,0:0:0:0:
120,213,131044,2,0,L|79:205,1,41.2500012588501,2|0,0:0|0:0,0:0:0:0:
0,191,131367,1,8,1:0:0:0:
62,111,131689,1,2,0:0:0:0:
11,29,132012,5,4,0:0:0:0:
11,29,132657,2,0,L|107:10,1,82.5000025177003,2|2,0:0|0:0,0:0:0:0:
198,66,133302,1,6,3:2:0:0:
294,6,133624,1,0,3:0:0:0:
294,6,133839,6,0,L|320:8,2,13.7500004196167,8|8|8,1:0|1:0|1:0,0:0:0:0:
198,66,134269,1,0,3:0:0:0:
252,130,134431,1,0,3:0:0:0:
329,99,134592,6,0,B|342:174|342:174|306:217,1,123.75000377655,4|0,0:0|0:0,0:0:0:0:
233,237,135238,2,0,L|170:224,1,41.2500012588501,0|0,3:0|0:0,0:0:0:0:
122,269,135560,1,8,0:0:0:0:
53,166,135882,6,0,L|62:125,1,41.2500012588501,0|0,3:0|0:0,0:0:0:0:
122,66,136205,2,0,L|112:25,1,41.2500012588501,2|0,0:0|0:0,0:0:0:0:
195,111,136528,1,8,1:0:0:0:
288,58,136850,2,0,L|337:67,1,41.2500012588501,2|0,0:0|0:0,0:0:0:0:
412,14,137173,6,0,L|427:154,1,123.75000377655,0|0,3:0|0:0,0:0:0:0:
480,200,137818,2,0,L|469:263,2,41.2500012588501,2|8|0,0:0|0:0|3:0,0:0:0:0:
425,137,138302,1,8,0:3:0:0:
359,199,138463,2,0,P|327:173|266:186,1,82.5000025177003,0|0,3:0|0:0,0:0:0:0:
181,236,139109,1,8,1:0:0:0:
65,189,139431,1,8,0:0:0:0:
0,284,139754,6,0,L|14:373,1,82.5000025177003,0|0,3:0|0:0,0:0:0:0:
65,189,140399,2,0,L|120:198,2,41.2500012588501,2|8|0,0:0|0:0|3:0,0:0:0:0:
3,132,140883,1,8,0:3:0:0:
3,132,141044,1,0,0:0:0:0:
76,50,141367,1,2,0:0:0:0:
190,97,141689,2,0,B|230:90|230:90|236:86|236:86|278:80,1,82.5000025177003,8|0,1:0|0:0,0:0:0:0:
356,53,142173,1,2,0:0:0:0:
356,53,142334,6,0,L|368:-4,1,41.2500012588501,2|0,3:1|0:0,0:0:0:0:
416,116,142657,2,0,L|428:173,1,41.2500012588501,2|0,0:0|0:0,0:0:0:0:
365,221,142980,2,0,L|319:210,1,41.2500012588501,2|0,3:1|0:0,0:0:0:0:
419,293,143302,2,0,L|465:282,1,41.2500012588501,2|0,0:0|0:0,0:0:0:0:
346,344,143624,2,0,L|335:390,1,41.2500012588501,2|0,3:1|0:0,0:0:0:0:
267,310,143947,1,2,0:0:0:0:
267,310,144109,1,2,0:0:0:0:
267,310,144270,1,8,1:0:0:0:
324,211,144592,1,2,0:0:0:0:
217,133,144915,6,0,L|48:162,1,165.000005035401,4|0,0:0|3:0,0:0:0:0:
123,241,145883,2,0,L|117:281,1,41.2500012588501,8|0,0:0|0:0,0:0:0:0:
184,348,146205,6,0,B|220:357|220:357|231:356|231:356|277:367,1,82.5000025177003,0|0,3:0|0:0,0:0:0:0:
369,318,146850,1,8,1:0:0:0:
491,352,147173,2,0,L|483:295,1,41.2500012588501,2|0,0:0|0:0,0:0:0:0:
434,239,147495,2,0,P|467:195|451:126,1,123.75000377655,0|0,3:0|0:0,0:0:0:0:
378,92,148141,2,0,L|324:104,1,41.2500012588501,0|0,3:0|0:0,0:0:0:0:
268,153,148463,1,2,0:0:0:0:
171,62,148786,6,0,L|164:108,1,41.2500012588501,0|0,3:0|0:0,0:0:0:0:
104,165,149108,2,0,L|111:211,1,41.2500012588501,8|0,0:0|0:0,0:0:0:0:
165,268,149431,1,8,1:0:0:0:
84,360,149753,6,0,L|17:352,1,41.2500012588501,2|0,0:0|0:0,0:0:0:0:
0,285,150076,1,4,0:0:0:0:
27,184,150399,2,0,L|17:143,2,41.2500012588501,2|8|8,0:0|0:0|3:0,0:0:0:0:
83,66,151044,6,0,L|155:85,1,41.2500012588501,2|8,0:0|0:0,0:0:0:0:
202,123,151367,2,0,L|242:115,1,41.2500012588501,8|0,3:0|0:0,0:0:0:0:
324,66,151689,2,0,L|335:12,1,41.2500012588501,2|0,0:0|0:0,0:0:0:0:
393,124,152011,2,0,L|410:216,1,82.5000025177003,8|0,1:0|0:0,0:0:0:0:
429,288,152495,1,8,0:0:0:0:
429,288,152657,1,4,0:0:0:0:
233,228,153624,5,2,0:0:0:0:
233,228,153947,2,2,P|185:141|58:152,1,240,4|0,0:0|0:0,0:0:0:0:
17,349,155238,5,2,0:0:0:0:
256,192,155399,12,0,158463,0:0:0:0:
87,172,159108,6,0,P|146:121|212:144,1,150,2|0,0:0|0:0,0:0:0:0:
308,215,160076,1,0,3:0:0:0:
390,139,160399,1,2,3:1:0:0:
478,203,160721,2,0,B|468:268|468:268|465:275|465:275|453:356,1,150,2|2,0:1|0:1,0:0:0:0:
363,372,161689,2,0,B|261:343|261:343|207:381,1,150,2|2,0:0|0:0,0:0:0:0:
138,323,162657,1,0,3:0:0:0:
39,362,162979,6,0,L|48:269,1,75,2|2,3:1|0:1,0:0:0:0:
115,215,163624,2,0,L|106:122,1,75,2|2,0:1|0:1,0:0:0:0:
61,56,164269,2,0,P|86:29|144:38,1,75,2|2,0:1|0:0,0:0:0:0:
200,83,164915,2,0,P|225:110|283:101,1,75,2|0,0:0|0:0,0:0:0:0:
361,88,165560,6,0,L|351:154,1,67.4999979400635,2|0,0:0|0:0,0:0:0:0:
261,113,166205,1,2,0:0:0:0:
211,195,166528,1,2,0:0:0:0:
236,283,166850,2,0,P|186:305|126:251,1,134.999995880127,8|2,0:0|0:0,0:0:0:0:
36,296,167818,1,2,0:0:0:0:
0,206,168140,6,0,L|10:139,1,67.4999979400635,8|2,0:0|0:0,0:0:0:0:
80,66,168786,2,0,L|69:0,1,67.4999979400635,2|2,0:0|0:0,0:0:0:0:
180,86,169431,2,0,P|210:67|251:74,1,67.4999979400635,8|0,0:0|0:0,0:0:0:0:
310,139,170076,2,0,P|340:158|381:151,1,67.4999979400635,8|0,0:0|0:0,0:0:0:0:
430,98,170560,2,0,L|427:71,2,16.8749994850159,2|0|2,0:0|0:0|0:1,0:0:0:0:
256,192,170882,12,0,175882,0:0:0:0:
