osu file format v14

[General]
AudioFilename: audio.mp3
AudioLeadIn: 0
PreviewTime: 2274
Countdown: 1
SampleSet: Normal
StackLeniency: 0.7
Mode: 1
LetterboxInBreaks: 0
WidescreenStoryboard: 1

[Editor]
DistanceSpacing: 1.9
BeatDivisor: 4
GridSize: 4
TimelineZoom: 1.8

[Metadata]
Title:Yamada Denki no Uta
TitleUnicode:ヤマダ電機の唄
Artist:Yamada Denki
ArtistUnicode:ヤマダ電機
Creator:Front
Version:Muzukashii
Source:ヤマダ電機
Tags:ヤマダ電機 yamada denki
BeatmapID:1915687
BeatmapSetID:917286

[Difficulty]
HPDrainRate:5
CircleSize:2
OverallDifficulty:4
ApproachRate:5
SliderMultiplier:1.4
SliderTickRate:1

[Events]
//Background and Video events
0,0,"yamada.jpg",0,128
//Break Periods
//Storyboard Layer 0 (Background)
//Storyboard Layer 1 (Fail)
//Storyboard Layer 2 (Pass)
//Storyboard Layer 3 (Foreground)
//Storyboard Sound Samples

[TimingPoints]
806,375,4,1,0,100,1,0
66806,-66.6666666666667,4,1,0,100,0,1

[HitObjects]
256,192,1931,5,12,0:0:0:0:
256,192,2306,1,0,0:0:0:0:
256,192,2493,1,0,0:0:0:0:
256,192,2868,1,8,0:0:0:0:
256,192,3056,1,0,0:0:0:0:
256,192,3337,1,0,0:0:0:0:
256,192,3431,1,0,0:0:0:0:
256,192,3618,1,0,0:0:0:0:
256,192,3806,1,8,0:0:0:0:
256,192,3993,1,8,0:0:0:0:
256,192,4181,1,0,0:0:0:0:
256,192,4368,1,0,0:0:0:0:
256,192,4556,1,0,0:0:0:0:
256,192,4743,1,8,0:0:0:0:
256,192,5024,1,8,0:0:0:0:
256,192,5306,1,8,0:0:0:0:
256,192,5493,1,0,0:0:0:0:
256,192,5681,1,8,0:0:0:0:
256,192,5868,1,8,0:0:0:0:
256,192,6056,1,8,0:0:0:0:
256,192,6243,1,8,0:0:0:0:
256,192,6431,1,0,0:0:0:0:
256,192,6618,1,8,0:0:0:0:
256,192,6806,1,8,0:0:0:0:
256,192,6993,1,0,0:0:0:0:
256,192,7181,1,8,0:0:0:0:
256,192,7368,1,8,0:0:0:0:
256,192,7556,1,8,0:0:0:0:
256,192,7931,1,8,0:0:0:0:
256,192,8118,1,0,0:0:0:0:
256,192,8681,1,8,0:0:0:0:
256,192,9056,1,8,0:0:0:0:
256,192,9243,1,0,0:0:0:0:
256,192,9431,1,0,0:0:0:0:
256,192,9618,1,8,0:0:0:0:
256,192,9993,1,4,0:0:0:0:
256,192,10368,1,4,0:0:0:0:
256,192,10556,1,12,0:0:0:0:
256,192,10931,1,4,0:0:0:0:
256,192,11118,1,12,0:0:0:0:
256,192,11681,1,12,0:0:0:0:
256,192,12243,1,12,0:0:0:0:
256,192,12806,1,12,0:0:0:0:
256,192,13181,1,0,0:0:0:0:
256,192,13556,1,0,0:0:0:0:
256,192,13837,1,0,0:0:0:0:
256,192,13930,1,8,0:0:0:0:
256,192,14306,1,0,0:0:0:0:
256,192,14493,1,0,0:0:0:0:
256,192,14868,1,8,0:0:0:0:
256,192,15056,1,0,0:0:0:0:
256,192,15337,1,0,0:0:0:0:
256,192,15431,1,0,0:0:0:0:
256,192,15618,1,0,0:0:0:0:
256,192,15806,1,8,0:0:0:0:
256,192,15993,1,8,0:0:0:0:
256,192,16181,1,0,0:0:0:0:
256,192,16368,1,0,0:0:0:0:
256,192,16556,1,0,0:0:0:0:
256,192,16743,1,8,0:0:0:0:
256,192,17024,1,8,0:0:0:0:
256,192,17306,1,0,0:0:0:0:
256,192,17493,1,0,0:0:0:0:
256,192,17681,1,8,0:0:0:0:
256,192,17868,1,8,0:0:0:0:
256,192,18056,1,8,0:0:0:0:
256,192,18243,1,0,0:0:0:0:
256,192,18431,1,8,0:0:0:0:
256,192,18618,1,8,0:0:0:0:
256,192,18806,1,8,0:0:0:0:
256,192,18993,1,8,0:0:0:0:
256,192,19181,1,0,0:0:0:0:
256,192,19368,1,8,0:0:0:0:
256,192,19556,1,8,0:0:0:0:
256,192,19931,1,8,0:0:0:0:
256,192,20118,1,0,0:0:0:0:
256,192,20681,1,8,0:0:0:0:
256,192,21056,1,8,0:0:0:0:
256,192,21243,1,8,0:0:0:0:
256,192,21431,1,0,0:0:0:0:
256,192,21618,1,8,0:0:0:0:
256,192,21993,1,4,0:0:0:0:
256,192,22368,1,12,0:0:0:0:
256,192,22556,1,4,0:0:0:0:
256,192,22931,1,4,0:0:0:0:
256,192,23118,1,12,0:0:0:0:
256,192,23493,1,0,0:0:0:0:
256,192,23681,1,6,0:0:0:0:
256,192,23868,1,0,0:0:0:0:
256,192,24056,1,8,0:0:0:0:
256,192,24431,1,8,0:0:0:0:
256,192,24618,1,0,0:0:0:0:
256,192,24993,1,0,0:0:0:0:
256,192,25181,1,6,0:0:0:0:
256,192,25368,1,0,0:0:0:0:
256,192,25556,1,0,0:0:0:0:
256,192,25931,1,0,0:0:0:0:
256,192,26118,1,8,0:0:0:0:
256,192,26493,1,0,0:0:0:0:
256,192,26681,1,6,0:0:0:0:
256,192,26868,1,0,0:0:0:0:
256,192,27056,1,8,0:0:0:0:
256,192,27431,1,8,0:0:0:0:
256,192,27618,1,0,0:0:0:0:
256,192,27993,1,0,0:0:0:0:
256,192,28181,1,6,0:0:0:0:
256,192,28368,1,0,0:0:0:0:
256,192,28556,1,0,0:0:0:0:
256,192,28931,1,0,0:0:0:0:
256,192,29118,1,8,0:0:0:0:
256,192,29212,1,8,0:0:0:0:
256,192,29306,1,0,0:0:0:0:
256,192,29493,1,0,0:0:0:0:
256,192,29868,1,8,0:0:0:0:
256,192,30056,1,0,0:0:0:0:
256,192,30337,1,0,0:0:0:0:
256,192,30431,1,0,0:0:0:0:
256,192,30618,1,0,0:0:0:0:
256,192,30806,1,8,0:0:0:0:
256,192,30993,1,8,0:0:0:0:
256,192,31181,1,0,0:0:0:0:
256,192,31368,1,0,0:0:0:0:
256,192,31556,1,0,0:0:0:0:
256,192,31743,1,8,0:0:0:0:
256,192,32024,1,8,0:0:0:0:
256,192,32306,1,8,0:0:0:0:
256,192,32493,1,0,0:0:0:0:
256,192,32681,1,8,0:0:0:0:
256,192,32868,1,8,0:0:0:0:
256,192,33056,1,8,0:0:0:0:
256,192,33243,1,8,0:0:0:0:
256,192,33431,1,0,0:0:0:0:
256,192,33618,1,8,0:0:0:0:
256,192,33806,1,8,0:0:0:0:
256,192,33993,1,0,0:0:0:0:
256,192,34181,1,8,0:0:0:0:
256,192,34368,1,8,0:0:0:0:
256,192,34556,1,8,0:0:0:0:
256,192,34931,1,8,0:0:0:0:
256,192,35118,1,0,0:0:0:0:
256,192,35681,1,8,0:0:0:0:
256,192,36056,1,8,0:0:0:0:
256,192,36243,1,0,0:0:0:0:
256,192,36431,1,0,0:0:0:0:
256,192,36618,1,8,0:0:0:0:
256,192,36993,1,4,0:0:0:0:
256,192,37368,1,4,0:0:0:0:
256,192,37556,1,12,0:0:0:0:
256,192,37931,1,4,0:0:0:0:
256,192,38118,1,12,0:0:0:0:
256,192,38681,1,12,0:0:0:0:
256,192,39243,1,12,0:0:0:0:
256,192,39806,1,12,0:0:0:0:
256,192,40181,1,0,0:0:0:0:
256,192,40556,1,0,0:0:0:0:
256,192,40837,1,0,0:0:0:0:
256,192,40930,1,8,0:0:0:0:
256,192,41306,1,0,0:0:0:0:
256,192,41493,1,0,0:0:0:0:
256,192,41868,1,8,0:0:0:0:
256,192,42056,1,0,0:0:0:0:
256,192,42337,1,0,0:0:0:0:
256,192,42431,1,0,0:0:0:0:
256,192,42618,1,0,0:0:0:0:
256,192,42806,1,8,0:0:0:0:
256,192,42993,1,8,0:0:0:0:
256,192,43181,1,0,0:0:0:0:
256,192,43368,1,0,0:0:0:0:
256,192,43556,1,0,0:0:0:0:
256,192,43743,1,8,0:0:0:0:
256,192,44024,1,8,0:0:0:0:
256,192,44306,1,0,0:0:0:0:
256,192,44493,1,0,0:0:0:0:
256,192,44681,1,8,0:0:0:0:
256,192,44868,1,8,0:0:0:0:
256,192,45056,1,8,0:0:0:0:
256,192,45243,1,0,0:0:0:0:
256,192,45431,1,8,0:0:0:0:
256,192,45618,1,8,0:0:0:0:
256,192,45806,1,8,0:0:0:0:
256,192,45993,1,8,0:0:0:0:
256,192,46181,1,0,0:0:0:0:
256,192,46368,1,8,0:0:0:0:
256,192,46556,1,8,0:0:0:0:
256,192,46931,1,8,0:0:0:0:
256,192,47118,1,0,0:0:0:0:
256,192,47681,1,8,0:0:0:0:
256,192,48056,1,8,0:0:0:0:
256,192,48243,1,8,0:0:0:0:
256,192,48431,1,0,0:0:0:0:
256,192,48618,1,8,0:0:0:0:
256,192,48993,1,4,0:0:0:0:
256,192,49368,1,12,0:0:0:0:
256,192,49556,1,4,0:0:0:0:
256,192,49931,1,4,0:0:0:0:
256,192,50118,1,12,0:0:0:0:
256,192,50493,1,0,0:0:0:0:
256,192,50681,1,6,0:0:0:0:
256,192,50868,1,0,0:0:0:0:
256,192,51056,1,8,0:0:0:0:
256,192,51431,1,8,0:0:0:0:
256,192,51618,1,0,0:0:0:0:
256,192,51993,1,0,0:0:0:0:
256,192,52181,1,6,0:0:0:0:
256,192,52368,1,0,0:0:0:0:
256,192,52556,1,0,0:0:0:0:
256,192,52931,1,0,0:0:0:0:
256,192,53118,1,8,0:0:0:0:
256,192,53493,1,0,0:0:0:0:
256,192,53681,1,6,0:0:0:0:
256,192,53868,1,0,0:0:0:0:
256,192,54056,1,8,0:0:0:0:
256,192,54431,1,8,0:0:0:0:
256,192,54618,1,0,0:0:0:0:
256,192,54993,1,0,0:0:0:0:
256,192,55181,1,6,0:0:0:0:
256,192,55368,1,0,0:0:0:0:
256,192,55556,1,0,0:0:0:0:
256,192,55931,1,0,0:0:0:0:
256,192,56118,1,8,0:0:0:0:
256,192,56212,1,8,0:0:0:0:
256,192,56306,1,0,0:0:0:0:
256,192,56493,1,0,0:0:0:0:
256,192,56868,1,8,0:0:0:0:
256,192,57056,1,0,0:0:0:0:
256,192,57337,1,0,0:0:0:0:
256,192,57431,1,0,0:0:0:0:
256,192,57618,1,0,0:0:0:0:
256,192,57806,1,8,0:0:0:0:
256,192,57993,1,8,0:0:0:0:
256,192,58181,1,0,0:0:0:0:
256,192,58368,1,0,0:0:0:0:
256,192,58556,1,0,0:0:0:0:
256,192,58743,1,8,0:0:0:0:
256,192,59024,1,8,0:0:0:0:
256,192,59306,1,8,0:0:0:0:
256,192,59493,1,0,0:0:0:0:
256,192,59681,1,8,0:0:0:0:
256,192,59868,1,8,0:0:0:0:
256,192,60056,1,8,0:0:0:0:
256,192,60243,1,8,0:0:0:0:
256,192,60431,1,0,0:0:0:0:
256,192,60618,1,8,0:0:0:0:
256,192,60806,1,8,0:0:0:0:
256,192,60993,1,0,0:0:0:0:
256,192,61181,1,8,0:0:0:0:
256,192,61368,1,8,0:0:0:0:
256,192,61556,1,8,0:0:0:0:
256,192,61931,1,8,0:0:0:0:
256,192,62118,1,0,0:0:0:0:
256,192,62681,1,8,0:0:0:0:
256,192,63056,1,8,0:0:0:0:
256,192,63243,1,0,0:0:0:0:
256,192,63431,1,0,0:0:0:0:
256,192,63618,1,8,0:0:0:0:
256,192,63993,1,4,0:0:0:0:
256,192,64368,1,4,0:0:0:0:
256,192,64556,1,12,0:0:0:0:
256,192,64931,1,4,0:0:0:0:
256,192,65118,1,12,0:0:0:0:
256,192,65681,1,12,0:0:0:0:
256,192,66243,1,12,0:0:0:0:
256,192,66618,1,8,0:0:0:0:
256,192,66712,1,8,0:0:0:0:
256,192,66806,1,4,0:0:0:0:
256,192,66993,1,4,0:0:0:0:
256,192,67368,1,4,0:0:0:0:
256,192,67556,1,12,0:0:0:0:
256,192,67743,1,4,0:0:0:0:
256,192,67931,1,12,0:0:0:0:
