osu file format v14

[General]
AudioFilename: audio.mp3
AudioLeadIn: 0
PreviewTime: 2274
Countdown: 1
SampleSet: Normal
StackLeniency: 0.7
Mode: 1
LetterboxInBreaks: 0
WidescreenStoryboard: 1

[Editor]
DistanceSpacing: 1.9
BeatDivisor: 4
GridSize: 4
TimelineZoom: 1.8

[Metadata]
Title:Yamada Denki no Uta
TitleUnicode:ヤマダ電機の唄
Artist:Yamada Denki
ArtistUnicode:ヤマダ電機
Creator:Front
Version:Kantan
Source:ヤマダ電機
Tags:ヤマダ電機 yamada denki
BeatmapID:1915686
BeatmapSetID:917286

[Difficulty]
HPDrainRate:5
CircleSize:2
OverallDifficulty:2
ApproachRate:5
SliderMultiplier:1.4
SliderTickRate:1

[Events]
//Background and Video events
0,0,"yamada.jpg",0,128
//Break Periods
2,11318,13106
2,23318,28106
2,38318,40106
2,50318,55106
//Storyboard Layer 0 (Background)
//Storyboard Layer 1 (Fail)
//Storyboard Layer 2 (Pass)
//Storyboard Layer 3 (Foreground)
//Storyboard Sound Samples

[TimingPoints]
806,375,4,1,0,100,1,0
66806,-66.6666666666667,4,1,0,100,0,1

[HitObjects]
256,192,2306,5,0,0:0:0:0:
256,192,3056,1,0,0:0:0:0:
256,192,3806,1,0,0:0:0:0:
256,192,4181,1,0,0:0:0:0:
256,192,4556,1,0,0:0:0:0:
256,192,5306,1,8,0:0:0:0:
256,192,6056,1,8,0:0:0:0:
256,192,6806,1,8,0:0:0:0:
256,192,7181,1,8,0:0:0:0:
256,192,7556,1,8,0:0:0:0:
256,192,8118,1,4,0:0:0:0:
256,192,9056,1,0,0:0:0:0:
256,192,9431,1,0,0:0:0:0:
256,192,9993,1,12,0:0:0:0:
256,192,10556,1,12,0:0:0:0:
256,192,11118,1,12,0:0:0:0:
256,192,14306,5,0,0:0:0:0:
256,192,15056,1,0,0:0:0:0:
256,192,15806,1,0,0:0:0:0:
256,192,16181,1,0,0:0:0:0:
256,192,16556,1,0,0:0:0:0:
256,192,17306,1,8,0:0:0:0:
256,192,18056,1,8,0:0:0:0:
256,192,18806,1,8,0:0:0:0:
256,192,19181,1,8,0:0:0:0:
256,192,19556,1,8,0:0:0:0:
256,192,20118,1,4,0:0:0:0:
256,192,21056,1,0,0:0:0:0:
256,192,21431,1,0,0:0:0:0:
256,192,21993,1,12,0:0:0:0:
256,192,22556,1,12,0:0:0:0:
256,192,23118,1,12,0:0:0:0:
256,192,29306,5,0,0:0:0:0:
256,192,30056,1,0,0:0:0:0:
256,192,30806,1,0,0:0:0:0:
256,192,31181,1,0,0:0:0:0:
256,192,31556,1,0,0:0:0:0:
256,192,32306,1,8,0:0:0:0:
256,192,33056,1,8,0:0:0:0:
256,192,33806,1,8,0:0:0:0:
256,192,34181,1,8,0:0:0:0:
256,192,34556,1,8,0:0:0:0:
256,192,35118,1,4,0:0:0:0:
256,192,36056,1,0,0:0:0:0:
256,192,36431,1,0,0:0:0:0:
256,192,36993,1,12,0:0:0:0:
256,192,37556,1,12,0:0:0:0:
256,192,38118,1,12,0:0:0:0:
256,192,41306,5,0,0:0:0:0:
256,192,42056,1,0,0:0:0:0:
256,192,42806,1,0,0:0:0:0:
256,192,43181,1,0,0:0:0:0:
256,192,43556,1,0,0:0:0:0:
256,192,44306,1,8,0:0:0:0:
256,192,45056,1,8,0:0:0:0:
256,192,45806,1,8,0:0:0:0:
256,192,46181,1,8,0:0:0:0:
256,192,46556,1,8,0:0:0:0:
256,192,47118,1,4,0:0:0:0:
256,192,48056,1,0,0:0:0:0:
256,192,48431,1,0,0:0:0:0:
256,192,48993,1,12,0:0:0:0:
256,192,49556,1,12,0:0:0:0:
256,192,50118,1,12,0:0:0:0:
256,192,56306,5,0,0:0:0:0:
256,192,57056,1,0,0:0:0:0:
256,192,57806,1,0,0:0:0:0:
256,192,58181,1,0,0:0:0:0:
256,192,58556,1,0,0:0:0:0:
256,192,59306,1,8,0:0:0:0:
256,192,60056,1,8,0:0:0:0:
256,192,60806,1,8,0:0:0:0:
256,192,61181,1,8,0:0:0:0:
256,192,61556,1,8,0:0:0:0:
256,192,62118,1,4,0:0:0:0:
256,192,63056,1,0,0:0:0:0:
256,192,63431,1,0,0:0:0:0:
256,192,63993,1,12,0:0:0:0:
256,192,64556,1,12,0:0:0:0:
256,192,65118,1,12,0:0:0:0:
256,192,66806,1,4,0:0:0:0:
256,192,67556,1,12,0:0:0:0:
256,192,67931,1,4,0:0:0:0:
