osu file format v14

[General]
AudioFilename: Tooi Ongaku ~HEART BEAT~.mp3
AudioLeadIn: 0
PreviewTime: 62014
Countdown: 0
SampleSet: Soft
StackLeniency: 0.4
Mode: 0
LetterboxInBreaks: 0
WidescreenStoryboard: 0

[Editor]
Bookmarks: 1843,18986,24700,36129,47557,53272,63272
DistanceSpacing: 0.8
BeatDivisor: 4
GridSize: 4
TimelineZoom: 2.799999

[Metadata]
Title:Tooi Ongaku ~HEART BEAT~
TitleUnicode:遠い音楽~ハートビート~
Artist:Yamabuki Saaya (CAST: Ohashi Ayaka)
ArtistUnicode:山吹沙綾 (CAST: 大橋彩香)
Creator:Hikan
Version:Underdogs's Hard
Source:BanG Dream! ガールズバンドパーティ!
Tags:Underdogs LeKhanhHoa LKH Garupa Bandori Girls Band Party Poppin'Party Distant Music ~Heartbeat~
BeatmapID:1373637
BeatmapSetID:647804

[Difficulty]
HPDrainRate:5.5
CircleSize:3.5
OverallDifficulty:6
ApproachRate:8
SliderMultiplier:1.4
SliderTickRate:1

[Events]
//Background and Video events
0,0,"Saaya.jpg",0,0
//Break Periods
//Storyboard Layer 0 (Background)
//Storyboard Layer 1 (Fail)
//Storyboard Layer 2 (Pass)
//Storyboard Layer 3 (Foreground)
//Storyboard Sound Samples

[TimingPoints]
407,357.142857142857,4,2,1,40,1,0
407,-83.3333333333333,4,2,1,40,0,0
1835,-133.333333333333,4,2,1,40,0,0
7549,-100,4,2,1,60,0,0
18978,-100,4,2,1,50,0,0
24692,-111.111111111111,4,2,1,50,0,0
36121,-100,4,2,1,50,0,0
47549,-166.666666666667,4,2,1,40,0,0
51656,-200,4,2,1,40,0,0
53264,-111.111111111111,4,2,1,40,0,0
54692,-111.111111111111,4,2,1,50,0,0
62817,-111.111111111111,4,2,1,5,0,0
62906,-111.111111111111,4,2,1,60,0,0
63264,-83.3333333333333,4,2,1,60,0,1
84514,-200,4,2,1,60,0,1
84871,-200,4,2,1,60,0,1
85228,-200,4,2,1,60,0,1
85406,-83.3333333333333,4,2,1,60,0,1
86121,-100,4,2,1,50,0,0
91835,-100,4,2,1,60,0,0
97549,-166.666666666667,4,2,1,40,0,0
104871,-166.666666666667,4,2,1,5,0,0

[Colours]
Combo1 : 221,125,179
Combo2 : 232,158,23
Combo3 : 121,210,236

[HitObjects]
426,66,407,6,0,L|334:86,1,83.9999974365235,8|0,0:2|3:2,0:0:0:0:
344,84,674,1,0,3:2:0:0:
344,84,764,1,0,3:2:0:0:
236,172,942,2,0,L|344:188,1,83.9999974365235,8|0,0:2|3:2,0:0:0:0:
320,184,1210,1,0,3:2:0:0:
320,184,1299,1,0,3:2:0:0:
444,244,1478,2,0,P|444:288|360:340,1,125.999996154785,4|0,0:2|0:2,0:0:0:0:
352,336,1835,6,0,L|284:332,1,52.5000020027161,2|0,3:3|0:2,0:0:0:0:
228,248,2192,2,0,L|296:244,1,52.5000020027161,0|2,3:2|2:3,0:0:0:0:
216,336,2549,2,0,L|148:332,1,52.5000020027161,0|0,3:2|0:2,0:0:0:0:
80,256,2906,2,0,L|148:252,1,52.5000020027161,2|0,3:3|0:2,0:0:0:0:
216,168,3264,6,0,P|220:128|216:104,1,52.5000020027161,2|0,3:3|0:2,0:0:0:0:
316,56,3621,2,0,P|312:96|316:120,1,52.5000020027161,0|2,3:2|2:3,0:0:0:0:
380,196,3978,2,0,L|444:196,1,52.5000020027161,0|0,3:2|0:2,0:0:0:0:
492,100,4335,2,0,L|428:100,1,52.5000020027161,2|2,3:3|0:3,0:0:0:0:
320,128,4692,6,0,P|292:164|300:236,1,105.000004005432,2|0,3:3|3:2,0:0:0:0:
356,320,5228,1,2,2:3:0:0:
420,228,5406,2,0,P|392:212|360:208,1,52.5000020027161,0|0,3:2|0:2,0:0:0:0:
352,108,5764,2,0,P|320:116|295:136,1,52.5000020027161,2|0,3:3|0:2,0:0:0:0:
208,208,6121,6,0,L|216:84,1,105.000004005432,4|8,0:2|0:2,0:0:0:0:
132,36,6656,1,8,0:2:0:0:
92,155,6835,1,8,0:2:0:0:
92,155,7014,1,8,0:2:0:0:
192,100,7192,1,8,0:2:0:0:
192,100,7371,1,8,0:2:0:0:
12,120,7549,6,0,P|4:168|64:240,1,140,6|8,3:2|0:2,0:0:0:0:
220,180,8085,2,0,B|184:148|184:148|84:156,1,140,2|0,0:2|3:2,0:0:0:0:
144,240,8621,2,0,L|148:320,1,70,10|0,0:2|0:2,0:0:0:0:
256,352,8978,6,0,P|312:360|376:296,1,140,2|8,3:2|0:2,0:0:0:0:
318,152,9514,2,0,P|283:199|300:287,1,140,2|0,0:2|3:2,0:0:0:0:
432,228,10049,2,0,L|344:228,1,70,10|0,0:2|0:2,0:0:0:0:
216,152,10406,6,0,L|140:140,2,70,2|0|8,3:2|0:0|0:2,0:0:0:0:
318,152,10942,1,2,0:2:0:0:
318,152,11031,1,8,0:2:0:0:
318,152,11121,2,0,L|330:72,1,70,0|0,3:2|3:2,0:0:0:0:
248,32,11478,2,0,L|228:160,1,105,10|8,0:2|0:2,0:0:0:0:
231,165,11835,6,0,P|191:181|99:145,1,140,2|8,3:2|0:2,0:0:0:0:
24,240,12371,1,2,0:2:0:0:
88,336,12549,2,0,L|96:380,2,35,0|8|0,3:2|0:2|3:2,0:0:0:0:
188,292,12906,2,0,L|188:196,1,70,10|0,0:2|0:2,0:0:0:0:
328,344,13264,6,0,P|384:356|456:292,1,140,6|10,3:2|0:2,0:0:0:0:
380,140,13799,2,0,B|360:228|360:228|380:288,1,140,0|0,0:2|3:2,0:0:0:0:
488,208,14335,2,0,L|476:140,1,70,10|0,0:2|0:0,0:0:0:0:
424,48,14692,6,0,P|376:32|296:76,1,140,2|10,3:2|0:2,0:0:0:0:
280,184,15228,1,2,0:2:0:0:
280,184,15317,1,8,0:2:0:0:
280,184,15406,2,0,L|288:264,2,70,2|0|8,3:2|3:2|0:2,0:0:0:0:
224,92,15942,1,0,0:0:0:0:
172,196,16121,6,0,P|128:200|100:188,1,70,2|0,3:2|3:2,0:0:0:0:
72,80,16478,2,0,P|116:76|144:88,1,70,10|0,0:2|0:0,0:0:0:0:
104,190,16835,2,0,L|111:329,1,140,2|10,3:2|0:2,0:0:0:0:
220,304,17371,1,0,0:2:0:0:
368,276,17549,6,0,L|360:360,1,70,10|0,0:2|0:2,0:0:0:0:
361,345,17817,1,8,0:2:0:0:
361,345,17906,1,0,3:2:0:0:
504,296,18085,2,0,L|435:247,1,70,10|0,0:2|3:2,0:0:0:0:
447,255,18353,1,8,0:2:0:0:
447,255,18442,1,0,3:2:0:0:
448,360,18621,1,10,0:2:0:0:
492,184,18978,6,0,P|444:176|368:232,1,140,6|2,0:2|2:3,0:0:0:0:
371,224,20049,1,2,2:3:0:0:
371,224,20764,1,2,2:3:0:0:
180,312,21299,2,0,L|272:324,1,70,2|10,0:2|0:2,0:0:0:0:
188,224,21656,1,2,0:2:0:0:
288,220,21835,6,0,P|276:172|192:128,1,140,6|0,0:2|0:2,0:0:0:0:
94,219,22371,2,0,P|106:267|192:316,1,140,0|0,0:0|0:2,0:0:0:0:
272,336,22906,2,0,L|340:332,3,35,8|0|0|0,0:2|0:2|0:2|0:0,0:0:0:0:
348,344,23264,5,8,0:2:0:0:
348,344,23442,1,8,0:2:0:0:
412,152,23799,1,8,0:2:0:0:
412,152,24692,6,0,L|420:84,1,62.9999980773926,2|0,0:2|0:2,0:0:0:0:
332,32,25049,2,0,L|324:94,1,62.9999980773926,0|2,0:2|0:2,0:0:0:0:
312,192,25406,2,0,L|232:180,1,62.9999980773926,0|0,0:2|0:2,0:0:0:0:
192,264,25764,2,0,L|272:276,1,62.9999980773926,2|0,0:2|0:2,0:0:0:0:
324,344,26121,1,0,0:2:0:0:
400,204,26299,6,0,P|392:152|316:104,1,125.999996154785,2|0,0:2|0:2,0:0:0:0:
248,168,26835,2,0,P|256:220|332:268,1,125.999996154785,2|2,0:2|0:2,0:0:0:0:
428,28,27549,6,0,L|300:36,1,125.999996154785,2|0,0:2|0:2,0:0:0:0:
224,96,28085,1,2,0:2:0:0:
120,100,28264,2,0,L|48:84,2,62.9999980773926,0|0|2,0:2|0:2|0:2,0:0:0:0:
172,180,28799,6,0,P|180:224|124:292,1,125.999996154785,0|2,0:2|0:2,0:0:0:0:
223,356,29335,2,0,P|258:326|346:341,1,125.999996154785,0|2,0:2|0:2,0:0:0:0:
424,338,29871,1,0,0:2:0:0:
474,264,30049,1,2,0:2:0:0:
434,183,30228,1,0,0:2:0:0:
345,178,30406,6,0,L|259:178,1,62.9999980773926,2|0,0:2|0:2,0:0:0:0:
204,128,30764,2,0,P|192:88|196:56,1,62.9999980773926,0|2,0:2|0:2,0:0:0:0:
280,20,31121,2,0,P|292:60|288:92,1,62.9999980773926,0|0,0:2|0:2,0:0:0:0:
204,128,31478,1,2,0:2:0:0:
112,92,31656,1,0,0:2:0:0:
40,200,31835,5,0,0:2:0:0:
40,200,32014,2,0,L|56:328,1,125.999996154785,2|2,0:2|0:2,0:0:0:0:
152,348,32549,2,0,L|140:276,1,62.9999980773926,2|0,0:2|0:0,0:0:0:0:
224,236,32906,2,0,L|236:308,1,62.9999980773926,2|0,0:2|0:0,0:0:0:0:
320,352,33264,6,0,P|360:352|412:284,1,125.999996154785,2|0,0:2|0:2,0:0:0:0:
272,124,33978,2,0,L|188:136,1,62.9999980773926,0|0,0:2|0:2,0:0:0:0:
260,220,34335,1,10,0:2:0:0:
360,144,34514,6,0,P|360:104|297:35,1,125.999996154785,4|0,0:2|0:2,0:0:0:0:
208,40,35049,1,8,0:2:0:0:
272,124,35228,1,0,0:2:0:0:
368,68,35406,2,0,L|360:0,2,62.9999980773926,0|8|8,0:2|0:2|0:2,0:0:0:0:
388,172,35942,1,8,0:2:0:0:
420,276,36121,6,0,P|372:284|292:220,1,140,4|8,3:2|0:2,0:0:0:0:
256,136,36656,1,0,0:2:0:0:
200,228,36835,2,0,L|220:324,1,70,0|0,3:2|3:2,0:0:0:0:
124,356,37192,1,8,0:2:0:0:
44,288,37371,2,0,L|76:132,1,140,0|0,0:2|0:2,0:0:0:0:
160,92,37906,2,0,P|128:60|30:53,2,140,8|0|8,0:2|3:2|0:2,0:0:0:0:
232,268,38978,6,0,L|224:352,2,70,0|0|8,3:2|0:0|0:2,0:0:0:0:
308,192,39514,1,0,0:2:0:0:
358,287,39692,2,0,P|408:293|487:225,1,140,0|8,3:2|0:2,0:0:0:0:
423,79,40228,6,0,P|392:119|411:222,1,140,0|0,0:2|3:2,0:0:0:0:
484,156,40764,1,8,0:2:0:0:
431,87,40942,1,0,0:2:0:0:
431,87,41031,1,0,0:0:0:0:
431,87,41121,2,0,L|355:103,1,70,8|0,0:2|0:2,0:0:0:0:
248,120,41478,1,8,0:2:0:0:
300,28,41656,1,0,0:2:0:0:
344,200,41835,5,4,0:2:0:0:
344,200,43085,1,0,3:2:0:0:
272,268,43264,2,0,L|184:256,2,70,12|0|0,0:2|0:2|0:2,0:0:0:0:
352,328,43799,2,0,L|440:316,2,70,12|0|0,0:2|0:2|0:2,0:0:0:0:
244,360,44335,1,12,0:2:0:0:
120,296,44514,1,0,0:2:0:0:
120,296,44603,1,0,0:2:0:0:
120,296,44692,6,0,P|104:248|164:172,1,140,0|12,3:2|0:2,0:0:0:0:
244,232,45228,2,0,L|252:280,2,35,0|0|0,0:0|0:2|3:2,0:0:0:0:
316,140,45585,1,8,0:2:0:0:
236,216,45764,1,0,3:2:0:0:
208,88,45942,1,12,0:2:0:0:
316,140,46121,6,0,B|420:140|420:140|392:176,1,140,0|8,3:2|0:2,0:0:0:0:
336,224,46656,1,8,0:2:0:0:
256,196,46835,2,0,P|235:156|271:68,2,140,0|0|4,3:0|3:2|3:2,0:0:0:0:
352,300,47906,5,0,0:2:0:0:
352,300,48264,2,0,L|252:288,1,83.9999974365235,8|0,0:2|0:2,0:0:0:0:
192,336,48799,2,0,P|180:296|200:240,1,83.9999974365235,0|8,0:2|0:2,0:0:0:0:
256,196,49335,2,0,L|248:144,2,41.9999987182618,0|0|8,3:2|0:0|0:2,0:0:0:0:
287,373,50049,1,0,0:2:0:0:
404,280,50406,6,0,P|420:244|404:184,1,83.9999974365235,4|0,3:2|0:2,0:0:0:0:
268,80,51121,2,0,P|291:111|351:128,1,83.9999974365235,8|0,0:2|0:2,0:0:0:0:
331,128,51656,6,0,B|284:148|284:148|244:136|244:136|195:169|195:169|230:68|145:28,1,315,4|4,0:2|0:2,0:0:0:0:
96,119,53621,1,4,0:2:0:0:
96,119,53978,2,0,L|92:191,1,62.9999980773926,4|0,0:2|3:2,0:0:0:0:
96,328,54335,2,0,P|146:333|208:320,1,94.499997116089,8|0,0:2|0:0,0:0:0:0:
217,304,54692,6,0,L|213:224,2,62.9999980773926,0|0|8,0:2|0:2|0:2,0:0:0:0:
336,316,55228,1,0,0:2:0:0:
336,316,55406,2,0,L|340:384,2,62.9999980773926,0|0|8,0:2|0:2|0:2,0:0:0:0:
424,232,55942,1,0,0:2:0:0:
424,232,56121,2,0,L|496:224,2,62.9999980773926,0|0|8,0:2|0:2|0:2,0:0:0:0:
352,144,56656,1,0,0:0:0:0:
352,144,56835,2,0,L|280:136,1,62.9999980773926,0|0,0:2|0:2,0:0:0:0:
200,96,57192,2,0,P|192:48|204:20,1,62.9999980773926,8|0,0:0|0:0,0:0:0:0:
337,18,57549,6,0,L|353:154,1,125.999996154785,4|8,0:2|0:2,0:0:0:0:
292,236,58085,1,0,0:2:0:0:
292,236,58174,1,0,0:2:0:0:
292,236,58264,2,0,L|220:248,1,62.9999980773926,0|0,0:2|0:2,0:0:0:0:
220,344,58621,2,0,L|292:332,1,62.9999980773926,8|0,0:2|0:2,0:0:0:0:
384,304,58978,2,0,P|432:292|496:340,2,125.999996154785,0|8|0,0:2|0:2|0:2,0:0:0:0:
296,352,59871,1,8,0:2:0:0:
248,268,60049,2,0,L|252:188,1,62.9999980773926,8|8,0:2|0:2,0:0:0:0:
348,144,60406,6,0,L|492:156,1,125.999996154785,4|8,0:2|0:2,0:0:0:0:
432,260,60942,1,8,0:2:0:0:
312,232,61121,2,0,L|236:220,1,62.9999980773926,8|8,0:2|0:2,0:0:0:0:
172,128,61478,2,0,L|248:116,1,62.9999980773926,8|8,0:2|0:2,0:0:0:0:
168,264,61835,1,4,0:2:0:0:
72,80,62728,1,0,3:2:0:0:
72,80,62906,1,12,0:2:0:0:
72,236,63264,6,0,P|56:288|124:372,1,167.999994873047,4|8,0:2|0:2,0:0:0:0:
216,308,63799,1,0,0:2:0:0:
180,200,63978,2,0,P|176:168|172:108,1,83.9999974365235,0|0,3:2|3:2,0:0:0:0:
264,48,64335,2,0,P|268:80|272:140,1,83.9999974365235,8|0,0:2|0:2,0:0:0:0:
324,236,64692,2,0,P|376:248|456:172,2,167.999994873047,0|8|0,3:2|0:2|3:2,0:0:0:0:
248,148,65585,1,0,3:2:0:0:
152,220,65764,2,0,L|164:312,1,83.9999974365235,8|0,0:2|0:0,0:0:0:0:
70,190,66121,6,0,P|118:142|222:170,1,167.999994873047,0|8,3:2|0:2,0:0:0:0:
280,248,66656,1,0,0:2:0:0:
280,248,66746,1,0,0:0:0:0:
280,248,66835,2,0,L|276:344,1,83.9999974365235,0|0,3:2|3:2,0:0:0:0:
384,364,67192,2,0,P|440:372|480:356,1,83.9999974365235,8|0,0:2|0:2,0:0:0:0:
492,256,67549,6,0,B|472:196|504:156|504:156|476:88,1,167.999994873047,0|8,3:2|0:2,0:0:0:0:
384,40,68085,1,0,0:2:0:0:
384,40,68174,1,0,0:2:0:0:
384,40,68264,2,0,P|340:48|288:48,1,83.9999974365235,0|0,3:2|3:2,0:0:0:0:
204,104,68621,2,0,P|160:96|120:97,1,83.9999974365235,8|0,0:2|0:2,0:0:0:0:
80,104,68889,1,0,0:2:0:0:
40,96,68978,6,0,P|28:148|112:232,1,167.999994873047,4|8,3:2|0:2,0:0:0:0:
208,232,69514,1,0,0:2:0:0:
208,232,69603,1,0,0:2:0:0:
208,232,69692,2,0,B|216:328,1,83.9999974365235,0|0,3:2|3:2,0:0:0:0:
324,352,70049,1,8,0:2:0:0:
324,352,70228,2,0,P|404:364|492:324,1,167.999994873047,0|0,0:2|0:2,0:0:0:0:
496,220,70764,2,0,B|508:88|508:88|460:132,1,167.999994873047,8|0,0:2|3:2,0:0:0:0:
384,164,71299,1,0,3:2:0:0:
288,96,71478,2,0,P|284:60|264:0,1,83.9999974365235,8|0,0:2|0:0,0:0:0:0:
300,188,71835,6,0,P|252:184|192:88,2,167.999994873047,4|8|0,3:2|0:2|3:2,0:0:0:0:
364,92,72728,1,0,3:2:0:0:
432,184,72906,2,0,L|420:272,1,83.9999974365235,8|0,0:2|0:2,0:0:0:0:
344,336,73264,1,0,3:2:0:0:
248,284,73442,1,0,3:2:0:0:
168,360,73621,2,0,L|76:364,1,83.9999974365235,12|0,0:2|0:2,0:0:0:0:
28,264,73978,1,0,3:2:0:0:
104,184,74156,1,0,3:2:0:0:
32,56,74335,2,0,L|144:56,1,83.9999974365235,12|0,0:2|0:2,0:0:0:0:
132,72,74603,1,0,0:2:0:0:
148,84,74692,6,0,P|208:100|288:32,1,167.999994873047,4|8,3:2|0:2,0:0:0:0:
360,108,75228,1,0,0:2:0:0:
360,108,75406,2,0,P|316:151|335:255,1,167.999994873047,0|8,3:2|0:2,0:0:0:0:
432,304,75942,1,0,0:2:0:0:
484,184,76121,2,0,L|392:188,1,83.9999974365235,0|0,3:2|0:2,0:0:0:0:
329,249,76478,2,0,L|237:253,1,83.9999974365235,8|0,0:2|0:2,0:0:0:0:
160,312,76835,2,0,L|164:364,2,41.9999987182618,0|8|0,0:2|0:2|3:2,0:0:0:0:
92,224,77192,2,0,L|100:132,1,83.9999974365235,8|0,0:2|0:0,0:0:0:0:
216,48,77549,6,0,P|264:36|320:124,1,167.999994873047,0|8,3:2|0:2,0:0:0:0:
256,212,78085,1,0,0:2:0:0:
256,212,78174,1,0,0:2:0:0:
256,212,78264,2,0,L|248:304,1,83.9999974365235,0|0,3:2|3:2,0:0:0:0:
345,353,78621,1,8,0:2:0:0:
429,279,78799,1,0,0:2:0:0:
384,176,78978,6,0,B|388:116|388:116|416:76|416:76|420:4,1,167.999994873047,0|8,3:2|0:2,0:0:0:0:
308,56,79514,1,0,0:2:0:0:
308,56,79603,1,0,0:2:0:0:
308,56,79692,2,0,L|204:60,1,83.9999974365235,0|0,3:2|3:2,0:0:0:0:
128,120,80049,1,8,0:2:0:0:
184,216,80228,1,8,0:2:0:0:
184,216,80317,1,8,0:2:0:0:
184,216,80406,6,0,L|376:220,1,167.999994873047,4|8,0:2|0:2,0:0:0:0:
440,152,80942,2,0,L|448:84,2,41.9999987182618,0|0|8,0:0|3:2|0:2,0:0:0:0:
472,260,81299,1,0,0:2:0:0:
472,260,81656,6,0,P|472:312|368:356,1,167.999994873047,4|0,3:2|3:2,0:0:0:0:
312,272,82192,1,8,0:2:0:0:
216,328,82371,2,0,L|144:324,2,41.9999987182618,0|0|0,0:0|0:2|3:2,0:0:0:0:
304,256,82728,1,0,3:2:0:0:
224,180,82906,2,0,L|232:88,1,83.9999974365235,8|0,0:2|0:2,0:0:0:0:
123,217,83264,6,0,L|139:33,1,167.999994873047,4|8,0:2|0:2,0:0:0:0:
236,4,83799,1,0,0:2:0:0:
332,64,83978,2,0,L|432:48,2,83.9999974365235,8|0|8,0:2|0:2|0:2,0:0:0:0:
332,64,84514,6,0,B|304:88|260:96|260:96|296:140|276:188,1,175,4|0,0:2|0:2,0:0:0:0:
208,248,85585,1,0,3:2:0:0:
136,184,85764,2,0,L|44:180,1,83.9999974365235,8|0,0:2|0:2,0:0:0:0:
132,290,86121,6,0,P|184:330|264:316,1,140,4|8,3:2|0:2,0:0:0:0:
320,256,86656,1,0,0:2:0:0:
320,256,86746,1,0,0:0:0:0:
320,256,86835,2,0,L|312:164,1,70,0|0,3:2|3:2,0:0:0:0:
404,224,87192,2,0,L|397:293,1,70,8|0,0:2|0:2,0:0:0:0:
344,368,87549,6,0,P|408:384|476:332,1,140,0|8,3:2|0:2,0:0:0:0:
496,256,88085,1,0,3:2:0:0:
496,256,88174,1,8,0:2:0:0:
496,256,88264,2,0,P|492:212|476:180,1,70,0|0,3:2|0:2,0:0:0:0:
392,160,88621,2,0,P|396:204|412:236,1,70,8|0,0:2|0:0,0:0:0:0:
456,101,88978,6,0,P|400:73|324:101,1,140,0|8,3:2|0:2,0:0:0:0:
276,184,89514,2,0,L|284:228,2,35,0|8|0,0:2|0:2|3:2,0:0:0:0:
224,104,89871,1,0,3:2:0:0:
180,184,90049,2,0,L|192:264,1,70,8|0,0:2|0:2,0:0:0:0:
265,312,90406,2,0,P|221:344|131:329,1,140,0|8,3:2|0:2,0:0:0:0:
88,256,90942,1,0,0:2:0:0:
80,160,91121,2,0,L|92:16,1,140,8|8,3:2|0:2,0:0:0:0:
192,80,91656,1,8,0:2:0:0:
192,80,91835,6,0,L|176:228,1,140,12|12,0:2|0:2,0:0:0:0:
216,320,92371,1,0,0:2:0:0:
216,320,92549,2,0,P|272:344|364:312,1,140,12|12,0:2|0:2,0:0:0:0:
416,248,93085,1,0,0:2:0:0:
416,248,93264,2,0,P|360:224|268:256,1,140,12|12,0:2|0:2,0:0:0:0:
346,326,93799,1,0,0:2:0:0:
416,248,93978,2,0,L|408:168,1,70,12|0,0:2|0:2,0:0:0:0:
324,104,94335,2,0,L|332:24,1,70,12|0,0:2|0:2,0:0:0:0:
240,148,94692,6,0,L|80:140,1,140,12|12,0:2|0:2,0:0:0:0:
60,244,95228,1,0,0:2:0:0:
60,244,95406,2,0,L|220:236,1,140,12|12,0:2|0:2,0:0:0:0:
284,308,95942,1,0,0:2:0:0:
372,240,96121,2,0,P|384:200|376:156,1,70,8|8,0:2|0:2,0:0:0:0:
328,92,96478,2,0,L|280:96,2,35,8|0|8,0:2|0:0|0:2,0:0:0:0:
436,48,96835,2,0,L|472:48,2,35,8|8|8,0:2|0:2|0:2,0:0:0:0:
408,148,97192,1,8,0:2:0:0:
332,68,97371,1,8,0:2:0:0:
232,160,97549,6,0,B|232:228|208:308|208:308|268:288|324:312|324:312|320:216|320:216|360:256|412:272|464:248|496:228|508:192,1,587.999982055665,4|4,0:2|0:2,0:0:0:0:
408,152,100406,1,4,0:2:0:0:
256,192,100496,12,0,104871,0:0:0:0:
