osu file format v14

[General]
AudioFilename: Tooi Ongaku ~HEART BEAT~.mp3
AudioLeadIn: 0
PreviewTime: 62014
Countdown: 0
SampleSet: Soft
StackLeniency: 0.4
Mode: 0
LetterboxInBreaks: 0
WidescreenStoryboard: 0

[Editor]
DistanceSpacing: 1.1
BeatDivisor: 2
GridSize: 4
TimelineZoom: 1.2

[Metadata]
Title:Tooi Ongaku ~HEART BEAT~
TitleUnicode:遠い音楽~ハートビート~
Artist:Yamabuki Saaya (CAST: Ohashi Ayaka)
ArtistUnicode:山吹沙綾 (CAST: 大橋彩香)
Creator:Hikan
Version:Easy
Source:BanG Dream! ガールズバンドパーティ!
Tags:Underdogs LeKhanhHoa LKH Garupa Bandori Girls Band Party Poppin'Party Distant Music ~Heartbeat~
BeatmapID:1372610
BeatmapSetID:647804

[Difficulty]
HPDrainRate:2
CircleSize:2.6
OverallDifficulty:2
ApproachRate:4
SliderMultiplier:0.799999999999999
SliderTickRate:1

[Events]
//Background and Video events
0,0,"Saaya.jpg",0,0
//Break Periods
//Storyboard Layer 0 (Background)
//Storyboard Layer 1 (Fail)
//Storyboard Layer 2 (Pass)
//Storyboard Layer 3 (Foreground)
//Storyboard Sound Samples

[TimingPoints]
407,357.142857142857,4,2,1,50,1,0
407,-100,4,2,1,50,0,0
63264,-100,4,2,1,60,0,1
86121,-100,4,2,1,50,0,0
97549,-100,4,2,1,35,0,0

[Colours]
Combo1 : 221,125,179
Combo2 : 232,158,23
Combo3 : 121,210,236

[HitObjects]
352,106,407,6,0,P|410:108|464:78,2,120,8|8|4,0:2|0:2|0:2,0:0:0:0:
279,56,1835,6,0,P|178:20|67:87,1,240,2|2,3:3|3:3,0:0:0:0:
147,123,3264,2,0,B|157:217|157:217|133:265|133:265|146:366,1,240,2|2,3:3|3:3,0:0:0:0:
228,329,4692,2,0,B|354:297|317:396|467:361,1,240,2|2,3:3|3:3,0:0:0:0:
493,283,6121,1,4,0:2:0:0:
237,62,7549,6,0,P|249:104|245:157,2,79.9999999999999,6|8|0,3:2|0:2|3:2,0:0:0:0:
161,15,8621,1,10,0:2:0:0:
101,77,8978,2,0,L|6:83,1,79.9999999999999,2|8,3:2|0:2,0:0:0:0:
26,169,9692,2,0,L|105:163,1,79.9999999999999,0|10,3:2|0:2,0:0:0:0:
181,208,10406,6,0,L|177:373,1,160,2|0,3:2|3:2,0:0:0:0:
260,337,11478,1,10,0:2:0:0:
341,369,11835,2,0,P|389:366|428:362,2,79.9999999999999,2|8|0,3:2|0:2|3:2,0:0:0:0:
332,281,12906,1,10,0:2:0:0:
274,217,13264,6,0,L|280:118,2,79.9999999999999,6|10|2,3:2|0:2|3:2,0:0:0:0:
206,273,14335,1,10,0:2:0:0:
136,219,14692,2,0,L|47:214,1,79.9999999999999,2|10,3:2|0:2,0:0:0:0:
62,126,15406,2,0,L|141:130,1,79.9999999999999,2|8,3:2|0:2,0:0:0:0:
211,76,16121,6,0,B|242:77|267:88|267:88|311:53|370:68,1,160,2|2,3:2|3:2,0:0:0:0:
442,105,17192,1,10,0:2:0:0:
369,155,17549,2,0,P|367:224|375:299,2,120,10|10|10,0:2|0:2|0:2,0:0:0:0:
315,84,18978,6,0,B|301:11|220:4|186:38|180:80|178:102|201:138|201:138|138:110|62:115|12:173|12:173|-1:238|58:298,1,559.999999999999,6|10,0:2|0:2,0:0:0:0:
125,287,21835,2,0,B|217:277|217:277|273:299|273:299|386:288,1,240,6|8,0:2|0:2,0:0:0:0:
438,251,23264,2,0,P|400:212|306:225,1,120,8|8,0:2|0:2,0:0:0:0:
161,339,24692,6,0,L|20:348,2,120,2|2|2,0:2|0:2|0:2,0:0:0:0:
248,345,26121,2,0,P|235:246|239:178,1,160,0|2,0:2|0:2,0:0:0:0:
319,152,27192,1,2,0:2:0:0:
248,96,27549,6,0,L|80:110,1,160,2|0,0:2|0:2,0:0:0:0:
22,51,28621,1,2,0:2:0:0:
12,136,28978,2,0,P|22:180|22:247,1,79.9999999999999,0|0,0:2|0:2,0:0:0:0:
109,213,29692,2,0,P|98:257|99:324,1,79.9999999999999,2|2,0:2|0:2,0:0:0:0:
156,355,30406,6,0,P|116:341|34:365,2,120,2|2|2,0:2|0:2|0:2,0:0:0:0:
243,347,31835,2,0,P|299:365|394:328,1,160,0|2,0:2|0:2,0:0:0:0:
421,248,32906,1,2,0:2:0:0:
367,178,33264,6,0,P|370:123|398:70,2,79.9999999999999,2|0|0,0:2|0:2|0:2,0:0:0:0:
284,281,34514,2,0,B|215:268|215:268|158:292|158:292|82:279,1,200,4|0,0:2|0:2,0:0:0:0:
27,219,35764,1,8,0:2:0:0:
72,143,36121,6,0,L|65:3,2,120,4|0|8,3:2|0:2|0:2,0:0:0:0:
156,168,37549,2,0,P|237:179|296:135,1,160,0|0,3:2|3:2,0:0:0:0:
312,47,38620,1,8,0:2:0:0:
378,104,38977,6,0,L|388:276,1,160,0|0,3:2|3:2,0:0:0:0:
329,330,40049,1,8,0:2:0:0:
261,276,40406,2,0,P|229:274|179:287,1,79.9999999999999,0|8,3:2|0:2,0:0:0:0:
119,346,41121,2,0,P|87:348|37:335,1,79.9999999999999,8|8,0:2|0:2,0:0:0:0:
3,257,41835,1,4,0:2:0:0:
297,64,43264,6,0,P|329:106|335:188,2,120,12|12|12,0:2|0:2|0:2,0:0:0:0:
210,47,44692,2,0,P|166:59|127:61,2,79.9999999999999,0|12|0,3:2|0:2|3:2,0:0:0:0:
236,131,45764,1,0,3:2:0:0:
171,191,46121,2,0,P|112:179|3:180,1,160,0|0,3:2|3:0,0:0:0:0:
105,328,47549,6,0,P|164:316|273:317,1,160,4|8,3:2|0:2,0:0:0:0:
437,343,48978,2,0,L|428:226,1,79.9999999999999,0|0,3:2|3:2,0:0:0:0:
456,179,49692,1,8,0:2:0:0:
335,50,50406,6,0,P|250:29|172:83,1,160,4|8,3:2|0:2,0:0:0:0:
60,28,51656,1,4,0:2:0:0:
50,45,53264,6,0,L|45:137,2,79.9999999999999,4|4|4,0:2|0:2|0:2,0:0:0:0:
129,7,54335,1,8,0:2:0:0:
193,66,54692,6,0,L|283:61,1,79.9999999999999,0|8,0:2|0:2,0:0:0:0:
260,148,55406,2,0,L|350:143,1,79.9999999999999,0|8,0:2|0:2,0:0:0:0:
424,168,56121,2,0,L|429:258,1,79.9999999999999,0|8,0:2|0:2,0:0:0:0:
342,235,56835,2,0,L|347:325,1,79.9999999999999,0|8,0:2|0:2,0:0:0:0:
266,350,57549,6,0,P|204:356|117:276,1,160,4|0,0:2|0:2,0:0:0:0:
144,214,58621,1,8,0:2:0:0:
59,236,58978,2,0,L|43:75,1,160,0|0,0:2|0:2,0:0:0:0:
112,23,60049,1,8,0:2:0:0:
256,192,60406,12,4,61835,0:2:0:0:
216,261,63264,6,0,L|211:170,1,79.9999999999999,4|8,0:2|0:2,0:0:0:0:
127,156,63978,2,0,P|177:101|268:116,1,160,0|0,3:2|3:2,0:0:0:0:
297,185,65049,1,8,0:2:0:0:
346,112,65406,6,0,L|337:21,1,79.9999999999999,0|8,3:2|0:2,0:0:0:0:
425,24,66121,2,0,L|432:103,1,79.9999999999999,0|8,3:2|0:2,0:0:0:0:
399,185,66835,2,0,L|391:264,1,79.9999999999999,0|8,3:2|0:2,0:0:0:0:
428,344,67549,2,0,P|383:304|278:313,1,160,0|0,3:2|3:2,0:0:0:0:
216,358,68621,1,8,0:2:0:0:
138,315,68978,6,0,P|138:261|144:224,1,79.9999999999999,4|8,3:2|0:2,0:0:0:0:
78,174,69692,2,0,P|77:120|72:83,1,79.9999999999999,0|8,3:2|0:2,0:0:0:0:
145,42,70406,6,0,L|230:47,2,79.9999999999999,0|8|0,3:2|0:2|3:2,0:0:0:0:
62,10,71478,1,8,0:2:0:0:
73,94,71835,2,0,P|74:148|79:185,1,79.9999999999999,4|8,3:2|0:2,0:0:0:0:
141,235,72549,2,0,P|195:234|232:229,1,79.9999999999999,0|8,3:2|0:2,0:0:0:0:
293,181,73264,6,0,P|337:171|386:180,1,79.9999999999999,0|12,3:2|0:2,0:0:0:0:
379,262,73978,2,0,P|335:272|286:263,1,79.9999999999999,0|12,3:2|0:2,0:0:0:0:
220,230,74692,6,0,P|206:201|214:143,1,79.9999999999999,4|8,3:2|0:2,0:0:0:0:
271,93,75406,2,0,B|312:95|348:72|348:72|382:107|426:119,1,160,0|0,3:2|3:2,0:0:0:0:
500,104,76478,1,8,0:2:0:0:
466,185,76835,6,0,L|462:275,1,79.9999999999999,0|8,0:2|0:2,0:0:0:0:
374,260,77549,2,0,L|378:350,1,79.9999999999999,0|8,3:2|0:2,0:0:0:0:
293,311,78264,2,0,P|267:304|209:319,1,79.9999999999999,0|8,3:2|0:2,0:0:0:0:
141,360,78978,2,0,P|66:356|16:280,1,160,0|0,3:2|3:2,0:0:0:0:
65,218,80049,1,8,0:2:0:0:
21,141,80406,6,0,L|25:51,1,79.9999999999999,4|8,0:2|0:2,0:0:0:0:
99,14,81121,1,8,0:2:0:0:
225,50,81656,2,0,B|278:59|278:59|353:48,1,120,4|8,3:2|0:2,0:0:0:0:
422,8,82549,2,0,P|430:61|418:98,1,79.9999999999999,0|8,3:2|0:2,0:0:0:0:
483,150,83264,1,4,0:2:0:0:
398,172,83621,2,0,L|300:167,1,79.9999999999999,8|8,0:2|0:2,0:0:0:0:
307,299,84514,6,0,B|151:259|198:372|36:329,1,280,4|8,0:2|0:2,0:0:0:0:
9,247,86121,6,0,L|-3:149,2,79.9999999999999,4|8|0,3:2|0:2|3:2,0:0:0:0:
96,246,87192,1,8,0:2:0:0:
166,193,87549,2,0,L|261:187,1,79.9999999999999,0|8,3:2|0:2,0:0:0:0:
241,99,88264,2,0,L|161:104,1,79.9999999999999,0|8,3:2|0:2,0:0:0:0:
88,153,88978,6,0,P|84:222|151:279,1,160,0|0,3:2|3:2,0:0:0:0:
231,251,90049,2,0,L|318:257,1,79.9999999999999,8|0,0:2|3:2,0:0:0:0:
390,294,90764,2,0,P|397:238|382:201,2,79.9999999999999,8|8|8,0:2|3:2|0:2,0:0:0:0:
318,344,91835,6,0,L|238:338,1,79.9999999999999,12|12,0:2|0:2,0:0:0:0:
169,282,92549,2,0,L|89:287,1,79.9999999999999,12|12,0:2|0:2,0:0:0:0:
2,295,93264,1,12,0:2:0:0:
2,295,93621,1,12,0:2:0:0:
42,217,93978,1,12,0:2:0:0:
42,217,94335,1,12,0:2:0:0:
83,139,94692,6,0,L|162:144,1,79.9999999999999,12|12,0:2|0:2,0:0:0:0:
241,184,95406,2,0,L|320:178,1,79.9999999999999,12|12,0:2|0:2,0:0:0:0:
394,129,96121,2,0,B|341:150|331:226|355:267|355:267|394:254|439:277,1,240,8|8,0:2|0:2,0:0:0:0:
387,352,97549,6,0,B|328:365|285:335|276:305|276:305|240:337|192:326|192:326|138:306|95:330|95:330|160:292|174:188|95:175|32:200|61:259,1,559.999999999999,4|4,0:2|0:2,0:0:0:0:
256,192,100406,12,0,105049,0:2:0:0:
