osu file format v14

[General]
AudioFilename: Tooi Ongaku ~HEART BEAT~.mp3
AudioLeadIn: 0
PreviewTime: 62014
Countdown: 0
SampleSet: Soft
StackLeniency: 0.4
Mode: 0
LetterboxInBreaks: 0
WidescreenStoryboard: 0

[Editor]
DistanceSpacing: 1.1
BeatDivisor: 2
GridSize: 4
TimelineZoom: 1.2

[Metadata]
Title:Tooi Ongaku ~HEART BEAT~
TitleUnicode:遠い音楽~ハートビート~
Artist:Yamabuki Saaya (CAST: Ohashi Ayaka)
ArtistUnicode:山吹沙綾 (CAST: 大橋彩香)
Creator:Hikan
Version:Normal
Source:BanG Dream! ガールズバンドパーティ!
Tags:Underdogs LeKhanhHoa LKH Garupa Bandori Girls Band Party Poppin'Party Distant Music ~Heartbeat~
BeatmapID:1373590
BeatmapSetID:647804

[Difficulty]
HPDrainRate:3.2
CircleSize:3
OverallDifficulty:4
ApproachRate:5.5
SliderMultiplier:0.999999999999999
SliderTickRate:1

[Events]
//Background and Video events
0,0,"Saaya.jpg",0,0
//Break Periods
//Storyboard Layer 0 (Background)
//Storyboard Layer 1 (Fail)
//Storyboard Layer 2 (Pass)
//Storyboard Layer 3 (Foreground)
//Storyboard Sound Samples

[TimingPoints]
407,357.142857142857,4,2,1,50,1,0
407,-100,4,2,1,50,0,0
63264,-100,4,2,1,60,0,1
86121,-100,4,2,1,50,0,0
97549,-100,4,2,1,35,0,0

[Colours]
Combo1 : 221,125,179
Combo2 : 232,158,23
Combo3 : 121,210,236

[HitObjects]
86,70,407,6,0,P|139:78|218:78,1,99.9999999999999,8|0,0:2|3:2,0:0:0:0:
240,79,942,2,0,P|262:133|247:187,1,99.9999999999999,8|0,0:2|3:2,0:0:0:0:
206,199,1478,1,4,0:2:0:0:
270,287,1835,6,0,L|378:291,1,99.9999999999999,2|0,3:3|3:2,0:0:0:0:
417,191,2549,2,0,L|309:195,1,99.9999999999999,0|2,3:2|3:3,0:0:0:0:
206,199,3264,1,2,3:3:0:0:
206,199,3621,1,0,3:2:0:0:
114,138,3978,1,0,3:2:0:0:
114,138,4335,1,2,3:3:0:0:
28,206,4692,6,0,P|53:251|50:331,1,99.9999999999999,2|0,3:3|3:2,0:0:0:0:
165,275,5406,2,0,P|140:320|143:400,1,99.9999999999999,0|2,3:2|3:3,0:0:0:0:
244,352,6121,2,0,L|349:346,2,99.9999999999999,4|8|8,0:2|0:2|0:2,0:0:0:0:
165,275,7192,2,0,L|173:211,1,50,8|8,0:2|0:2,0:0:0:0:
181,171,7549,6,0,P|247:196|305:183,1,99.9999999999999,6|8,3:2|0:2,0:0:0:0:
372,139,8264,1,0,3:2:0:0:
370,248,8621,1,10,0:2:0:0:
466,194,8978,2,0,L|457:89,2,99.9999999999999,2|8|0,3:2|0:2|3:2,0:0:0:0:
464,303,10049,1,10,0:2:0:0:
370,248,10406,6,0,P|325:236|253:257,1,99.9999999999999,2|8,3:2|0:2,0:0:0:0:
226,345,11121,2,0,P|181:357|109:336,1,99.9999999999999,0|10,3:2|0:2,0:0:0:0:
35,289,11835,1,2,3:2:0:0:
87,192,12192,2,0,L|74:58,1,99.9999999999999,8|0,0:2|3:2,0:0:0:0:
161,21,12906,1,10,0:2:0:0:
259,71,13264,6,0,P|308:70|353:48,1,99.9999999999999,6|10,3:2|0:2,0:0:0:0:
460,23,13979,1,2,3:2:0:0:
436,130,14336,1,10,0:2:0:0:
503,216,14692,2,0,L|496:323,2,99.9999999999999,2|10|2,3:2|0:2|3:2,0:0:0:0:
393,228,15764,1,8,0:2:0:0:
302,291,16121,6,0,P|283:229|296:169,1,99.9999999999999,2|10,3:2|0:2,0:0:0:0:
179,169,16835,2,0,P|198:231|185:291,1,99.9999999999999,2|10,3:2|0:2,0:0:0:0:
142,361,17549,2,0,P|67:331|-4:340,2,150,10|10|10,0:2|0:2|0:2,0:0:0:0:
247,329,18978,6,0,B|294:311|346:323,1,99.9999999999999,6|2,0:2|2:3,0:0:0:0:
441,125,20049,1,2,2:3:0:0:
244,29,20764,1,2,2:3:0:0:
148,226,21478,1,10,0:2:0:0:
246,274,21835,6,0,P|241:169|145:117,1,200,6|2,0:2|2:3,0:0:0:0:
93,198,22906,2,0,L|22:191,1,50,8|0,0:2|0:2,0:0:0:0:
5,152,23264,1,8,0:2:0:0:
5,152,23442,1,8,0:2:0:0:
32,44,23799,1,8,0:2:0:0:
305,74,24692,6,0,P|382:89|441:85,1,99.9999999999999,2|0,0:2|0:2,0:0:0:0:
458,183,25406,2,0,P|408:185|359:198,1,99.9999999999999,0|2,0:2|0:2,0:0:0:0:
261,244,26121,2,0,P|258:194|245:145,1,99.9999999999999,0|0,0:2|0:2,0:0:0:0:
137,124,26835,2,0,P|140:174|152:223,1,99.9999999999999,2|2,0:2|0:2,0:0:0:0:
214,313,27549,6,0,P|135:307|77:318,2,99.9999999999999,2|0|0,0:2|0:2|0:2,0:0:0:0:
297,241,28621,1,2,0:2:0:0:
391,297,28978,2,0,B|431:191|360:211|393:89,1,200,0|2,0:2|0:2,0:0:0:0:
313,23,30049,1,2,0:2:0:0:
232,97,30406,6,0,P|180:97|98:73,1,99.9999999999999,2|0,0:2|0:2,0:0:0:0:
123,196,31121,2,0,P|171:185|221:186,1,99.9999999999999,0|2,0:2|0:2,0:0:0:0:
309,252,31835,2,0,P|308:322|319:383,1,99.9999999999999,0|0,0:2|0:2,0:0:0:0:
421,344,32549,2,0,P|422:274|411:213,1,99.9999999999999,2|2,0:2|0:2,0:0:0:0:
358,151,33264,6,0,L|366:38,2,99.9999999999999,2|0|0,0:2|0:2|0:2,0:0:0:0:
309,252,34335,1,10,0:2:0:0:
309,252,34514,2,0,P|254:225|176:253,1,99.9999999999999,4|0,0:2|0:2,0:0:0:0:
165,246,35049,2,0,P|110:273|32:245,2,99.9999999999999,8|0|8,0:2|0:2|0:2,0:0:0:0:
175,135,36121,6,0,L|151:-7,1,99.9999999999999,4|8,3:2|0:2,0:0:0:0:
266,16,36835,2,0,L|282:114,1,99.9999999999999,0|8,3:2|0:2,0:0:0:0:
352,199,37549,2,0,P|422:217|461:216,1,99.9999999999999,0|8,3:2|0:2,0:0:0:0:
512,306,38264,2,0,P|442:324|403:323,1,99.9999999999999,0|8,3:2|0:2,0:0:0:0:
313,281,38978,6,0,P|320:227|321:139,2,99.9999999999999,0|8|0,3:2|0:2|3:2,0:0:0:0:
246,368,40049,1,8,0:2:0:0:
139,345,40406,2,0,B|127:323|99:303|99:303|138:241|119:161,1,200,0|8,3:2|0:2,0:0:0:0:
27,107,41478,1,8,0:2:0:0:
123,55,41835,1,4,0:2:0:0:
381,235,43085,5,0,3:2:0:0:
381,235,43264,2,0,L|249:227,1,99.9999999999999,12|0,0:2|0:2,0:0:0:0:
227,226,43799,2,0,P|205:172|220:118,1,99.9999999999999,12|0,0:2|0:2,0:0:0:0:
261,106,44335,1,12,0:2:0:0:
370,106,44692,6,0,P|364:65|316:9,1,99.9999999999999,0|12,3:2|0:2,0:0:0:0:
221,5,45406,2,0,P|175:25|126:23,1,99.9999999999999,0|0,3:2|3:2,0:0:0:0:
16,33,46121,2,0,B|20:80|65:116|65:116|35:169|45:230,1,200,0|0,3:2|3:0,0:0:0:0:
133,273,47192,1,0,3:2:0:0:
35,323,47549,6,0,P|125:324|233:382,1,200,4|8,3:2|0:2,0:0:0:0:
416,217,48978,2,0,P|326:218|218:276,1,200,0|8,3:2|0:2,0:0:0:0:
124,230,50049,1,0,0:2:0:0:
124,230,50406,6,0,P|89:163|86:127,1,99.9999999999999,4|0,3:2|0:2,0:0:0:0:
159,56,51121,2,0,B|240:32|222:99|330:70,1,150,8|4,0:2|0:2,0:0:0:0:
444,241,53264,6,0,P|435:184|435:120,2,99.9999999999999,4|4|4,0:2|0:2|0:2,0:0:0:0:
479,283,54156,1,0,3:2:0:0:
479,283,54335,1,8,0:2:0:0:
397,356,54692,6,0,P|353:348|286:348,1,99.9999999999999,0|8,0:2|0:2,0:0:0:0:
198,300,55406,2,0,P|155:315|97:348,1,99.9999999999999,0|8,0:2|0:2,0:0:0:0:
20,273,56121,2,0,P|28:228|28:161,1,99.9999999999999,0|8,0:2|0:2,0:0:0:0:
119,110,56835,2,0,P|104:67|71:9,1,99.9999999999999,0|8,0:2|0:2,0:0:0:0:
187,33,57549,6,0,B|238:44|238:44|291:27,1,99.9999999999999,4|8,0:2|0:2,0:0:0:0:
337,14,58085,1,0,0:2:0:0:
337,14,58264,2,0,P|410:23|442:23,1,99.9999999999999,0|8,0:2|0:2,0:0:0:0:
487,120,58978,2,0,P|437:121|387:129,1,99.9999999999999,0|8,0:2|0:2,0:0:0:0:
277,124,59692,2,0,L|288:287,1,150,0|8,0:2|0:2,0:0:0:0:
252,316,60406,6,0,P|320:316|371:333,1,99.9999999999999,4|8,0:2|0:2,0:0:0:0:
398,351,60942,1,8,0:2:0:0:
398,351,61121,2,0,L|390:275,1,50,8|8,0:2|0:2,0:0:0:0:
412,249,61478,2,0,L|404:173,1,50,8|8,0:2|0:2,0:0:0:0:
426,147,61835,1,4,0:2:0:0:
71,194,62728,5,0,3:2:0:0:
71,194,62906,1,12,0:2:0:0:
144,111,63264,6,0,P|238:114|299:124,1,150,4|0,0:2|0:2,0:0:0:0:
347,112,63978,2,0,P|323:167|320:226,1,99.9999999999999,0|8,3:2|0:2,0:0:0:0:
371,302,64692,1,0,3:2:0:0:
261,299,65049,2,0,L|152:286,1,99.9999999999999,8|0,0:2|3:2,0:0:0:0:
60,328,65764,1,8,0:2:0:0:
75,219,66121,6,0,P|85:143|80:100,1,99.9999999999999,0|8,3:2|0:2,0:0:0:0:
58,69,66656,2,0,P|108:73|158:79,1,99.9999999999999,0|0,0:2|3:2,0:0:0:0:
201,44,67192,1,8,0:2:0:0:
264,134,67549,2,0,P|313:127|363:124,2,99.9999999999999,0|8|0,3:2|0:2|3:2,0:0:0:0:
159,170,68621,2,0,L|172:275,1,99.9999999999999,8|4,0:2|3:2,0:0:0:0:
274,311,69335,6,0,L|287:206,2,99.9999999999999,8|0|8,0:2|3:2|0:2,0:0:0:0:
265,365,70228,1,0,0:2:0:0:
265,365,70406,2,0,P|346:330|373:335,1,99.9999999999999,0|8,3:2|0:2,0:0:0:0:
462,306,71121,2,0,P|409:235|383:226,1,99.9999999999999,0|8,3:2|0:2,0:0:0:0:
303,181,71835,2,0,P|339:140|398:123,1,99.9999999999999,4|8,3:2|0:2,0:0:0:0:
450,39,72549,2,0,P|402:15|334:21,1,99.9999999999999,0|8,3:2|0:2,0:0:0:0:
262,67,73264,5,0,3:2:0:0:
154,45,73621,1,12,0:2:0:0:
111,148,73978,5,0,3:2:0:0:
4,169,74335,1,12,0:2:0:0:
74,253,74692,6,0,P|170:273|219:320,1,150,4|0,3:2|0:2,0:0:0:0:
250,340,75406,2,0,P|251:286|269:234,1,99.9999999999999,0|8,3:2|0:2,0:0:0:0:
355,180,76121,1,0,3:2:0:0:
256,130,76478,2,0,L|148:124,1,99.9999999999999,8|0,0:2|0:2,0:0:0:0:
66,60,77193,1,8,0:2:0:0:
56,169,77549,6,0,P|63:225|83:281,1,99.9999999999999,0|8,3:2|0:2,0:0:0:0:
117,302,78085,2,0,P|166:290|215:281,1,99.9999999999999,0|0,0:2|3:2,0:0:0:0:
255,320,78621,1,8,0:2:0:0:
364,309,78978,2,0,P|413:316|463:322,2,99.9999999999999,0|8|0,3:2|0:2|3:2,0:0:0:0:
303,223,80049,2,0,L|297:108,1,99.9999999999999,8|4,0:2|0:2,0:0:0:0:
228,37,80764,6,0,P|178:23|126:41,1,99.9999999999999,8|8,0:2|0:2,0:0:0:0:
93,73,81299,2,0,L|35:69,1,50,0|8,0:2|0:2,0:0:0:0:
7,111,81656,2,0,P|13:192|22:231,1,99.9999999999999,4|0,3:2|3:2,0:0:0:0:
51,253,82192,2,0,P|115:229|163:239,2,99.9999999999999,8|0|8,0:2|3:2|0:2,0:0:0:0:
118,339,83264,1,4,0:2:0:0:
215,287,83621,2,0,P|234:229|217:177,2,99.9999999999999,8|8|8,0:2|0:2|0:2,0:0:0:0:
200,340,84514,6,0,B|341:307|298:405|461:368,1,250,4|0,0:2|0:2,0:0:0:0:
488,344,85585,1,0,3:2:0:0:
488,344,85764,1,8,0:2:0:0:
403,273,86121,6,0,L|411:156,1,99.9999999999999,4|8,3:2|0:2,0:0:0:0:
507,121,86836,1,0,3:2:0:0:
413,63,87192,1,8,0:2:0:0:
315,115,87549,2,0,P|249:114|208:97,2,99.9999999999999,0|8|0,3:2|0:2|3:2,0:0:0:0:
409,173,88621,1,8,0:2:0:0:
311,224,88978,6,0,L|320:334,1,99.9999999999999,0|8,3:2|0:2,0:0:0:0:
225,266,89692,2,0,L|216:376,1,99.9999999999999,0|8,3:2|0:2,0:0:0:0:
139,308,90406,1,0,3:2:0:0:
160,199,90764,6,0,P|225:173|268:186,2,99.9999999999999,8|8|8,0:2|3:2|0:2,0:0:0:0:
117,233,91656,1,8,0:2:0:0:
117,233,91835,1,12,0:2:0:0:
60,138,92192,1,12,0:2:0:0:
132,54,92549,1,12,0:2:0:0:
234,97,92906,1,12,0:2:0:0:
225,208,93263,1,12,0:2:0:0:
117,233,93621,6,0,L|11:222,2,99.9999999999999,12|12|12,0:2|0:2|0:2,0:0:0:0:
157,270,94514,1,0,0:2:0:0:
157,270,94692,1,12,0:2:0:0:
264,294,95049,1,12,0:2:0:0:
320,200,95406,1,12,0:2:0:0:
247,117,95764,1,12,0:2:0:0:
146,160,96121,2,0,B|152:205|176:238|176:238|178:285|152:322|152:322|217:279|312:320,1,300,8|8,0:2|0:2,0:0:0:0:
383,295,97549,6,0,B|431:329|479:311|479:311|496:230|420:184|355:202|355:202|294:229|249:193|231:171|223:106|243:65|310:33|370:70|383:102,1,599.999999999999,4|0,0:2|0:0,0:0:0:0:
399,99,99871,1,0,3:2:0:0:
399,99,100049,2,0,P|404:64|407:-25,1,99.9999999999999,4|4,0:2|0:2,0:0:0:0:
256,192,100585,12,0,105049,0:2:0:0:
