osu file format v14

[General]
AudioFilename: Tooi Ongaku ~HEART BEAT~.mp3
AudioLeadIn: 0
PreviewTime: 62014
Countdown: 0
SampleSet: Soft
StackLeniency: 0.4
Mode: 0
LetterboxInBreaks: 0
WidescreenStoryboard: 0

[Editor]
Bookmarks: 1843,18986,24700,36129,47557,53272,63272
DistanceSpacing: 5.1
BeatDivisor: 4
GridSize: 4
TimelineZoom: 2.799999

[Metadata]
Title:Tooi Ongaku ~HEART BEAT~
TitleUnicode:遠い音楽~ハートビート~
Artist:Yamabuki Saaya (CAST: Ohashi Ayaka)
ArtistUnicode:山吹沙綾 (CAST: 大橋彩香)
Creator:Hikan
Version:Hoa's Expert
Source:BanG Dream! ガールズバンドパーティ!
Tags:Underdogs LeKhanhHoa LKH Garupa Bandori Girls Band Party Poppin'Party Distant Music ~Heartbeat~
BeatmapID:1372528
BeatmapSetID:647804

[Difficulty]
HPDrainRate:6
CircleSize:4
OverallDifficulty:8
ApproachRate:9
SliderMultiplier:1.6
SliderTickRate:1

[Events]
//Background and Video events
0,0,"Saaya.jpg",0,0
//Break Periods
//Storyboard Layer 0 (Background)
//Storyboard Layer 1 (Fail)
//Storyboard Layer 2 (Pass)
//Storyboard Layer 3 (Foreground)
//Storyboard Sound Samples

[TimingPoints]
407,357.142857142857,4,2,1,40,1,0
407,-83.3333333333333,4,2,1,40,0,0
1835,-133.333333333333,4,2,1,40,0,0
7549,-100,4,2,1,60,0,0
18978,-100,4,2,1,40,0,0
24692,-111.111111111111,4,2,1,50,0,0
47549,-166.666666666667,4,2,1,40,0,0
51656,-400,4,2,1,40,0,0
52014,-400,4,2,1,5,0,0
53264,-111.111111111111,4,2,1,40,0,0
54692,-111.111111111111,4,2,1,50,0,0
62192,-111.111111111111,4,2,1,5,0,0
62728,-111.111111111111,4,2,1,50,0,0
63264,-83.3333333333333,4,2,1,60,0,1
84514,-200,4,2,1,60,0,1
84871,-200,4,2,1,5,0,1
85228,-200,4,2,1,60,0,1
85406,-111.111111111111,4,2,1,60,0,1
86121,-100,4,2,1,50,0,0
97549,-400,4,2,1,50,0,0
97906,-400,4,2,1,5,0,0
99692,-400,4,2,1,50,0,0
100228,-100,4,2,1,50,0,0

[Colours]
Combo1 : 221,125,179
Combo2 : 232,158,23
Combo3 : 121,210,236

[HitObjects]
145,43,407,5,8,0:2:0:0:
77,156,585,5,0,3:2:0:0:
79,185,674,1,0,3:2:0:0:
81,215,763,1,0,3:2:0:0:
84,245,852,1,0,0:0:0:0:
86,275,942,2,0,L|89:328,1,47.9999985351563,8|0,0:2|0:0,0:0:0:0:
201,315,1121,5,0,3:2:0:0:
203,285,1210,1,0,3:2:0:0:
205,255,1299,1,0,3:2:0:0:
208,225,1388,1,0,0:2:0:0:
209,195,1478,2,0,L|217:93,1,95.9999970703126,4|0,0:2|0:0,0:0:0:0:
366,60,1835,6,0,L|359:132,1,60.0000022888184,2|0,3:3|0:2,0:0:0:0:
384,268,2192,2,0,L|390:195,1,60.0000022888184,0|2,3:2|2:3,0:0:0:0:
390,54,2549,2,0,L|383:126,1,60.0000022888184,0|0,3:2|0:2,0:0:0:0:
408,262,2906,2,0,L|414:189,1,60.0000022888184,2|0,3:3|0:2,0:0:0:0:
281,155,3264,6,0,P|246:149|210:156,1,60.0000022888184,2|0,3:3|0:2,0:0:0:0:
45,207,3621,2,0,P|80:213|116:206,1,60.0000022888184,0|2,3:2|2:3,0:0:0:0:
274,174,3978,2,0,P|239:168|203:175,1,60.0000022888184,0|0,3:2|0:2,0:0:0:0:
38,226,4335,2,0,P|73:232|109:225,1,60.0000022888184,2|2,3:3|0:3,0:0:0:0:
99,249,4603,1,2,0:3:0:0:
102,269,4692,6,0,L|108:342,1,60.0000022888184,2|0,3:3|0:2,0:0:0:0:
133,141,5049,2,0,L|127:68,1,60.0000022888184,0|2,3:2|2:3,0:0:0:0:
122,278,5406,2,0,L|128:351,1,60.0000022888184,0|0,3:2|0:2,0:0:0:0:
154,129,5763,2,0,L|148:56,1,60.0000022888184,2|0,3:3|0:2,0:0:0:0:
272,194,6121,6,0,L|345:188,1,60.0000022888184,4|0,0:2|0:0,0:0:0:0:
436,108,6478,1,8,0:2:0:0:
385,291,6656,1,8,0:2:0:0:
338,113,6835,1,8,0:2:0:0:
512,168,7014,1,8,0:2:0:0:
385,291,7192,5,8,0:2:0:0:
347,303,7281,1,8,0:2:0:0:
307,303,7370,1,8,0:2:0:0:
270,289,7459,1,8,0:2:0:0:
233,276,7549,6,0,P|179:266|129:278,1,80,6|0,3:2|0:0,0:0:0:0:
42,333,7906,1,8,0:2:0:0:
137,191,8085,2,0,L|144:95,1,80,2|0,0:2|3:2,0:0:0:0:
35,173,8442,1,0,3:2:0:0:
84,45,8621,2,0,B|149:36|149:36|205:51,1,120,10|0,0:2|0:0,0:0:0:0:
227,75,8978,6,0,P|270:84|317:76,1,80,2|0,3:2|0:0,0:0:0:0:
383,16,9335,1,8,0:2:0:0:
423,160,9514,2,0,L|327:153,1,80,2|0,0:2|3:2,0:0:0:0:
233,203,9871,1,0,3:2:0:0:
334,274,10049,2,0,L|339:353,1,80,10|0,0:2|0:2,0:0:0:0:
210,300,10406,6,0,L|217:204,1,80,2|0,3:2|0:0,0:0:0:0:
227,75,10764,1,8,0:2:0:0:
68,127,10942,2,0,P|111:136|158:128,1,80,2|0,0:2|3:2,0:0:0:0:
142,28,11299,1,0,3:2:0:0:
303,118,11478,2,0,P|312:161|304:208,1,80,10|0,0:2|0:2,0:0:0:0:
241,306,11835,5,2,3:2:0:0:
380,270,12014,1,0,0:2:0:0:
222,228,12192,5,8,0:2:0:0:
382,353,12371,1,2,0:2:0:0:
316,203,12549,5,0,3:2:0:0:
316,203,12639,1,8,0:2:0:0:
316,203,12728,2,0,L|366:198,1,40,0|0,3:2|0:2,0:0:0:0:
455,279,12906,2,0,L|404:274,1,40,10|0,0:2|0:0,0:0:0:0:
455,168,13084,1,0,0:2:0:0:
452,136,13173,1,8,0:2:0:0:
447,99,13264,6,0,P|404:90|357:98,1,80,6|0,3:2|0:0,0:0:0:0:
198,149,13621,1,10,0:2:0:0:
277,37,13799,2,0,L|284:133,1,80,0|2,0:2|3:2,0:0:0:0:
316,230,14156,1,0,3:2:0:0:
196,176,14335,2,0,L|184:302,1,120,10|0,0:2|0:2,0:0:0:0:
183,315,14692,6,0,L|279:308,1,80,2|0,3:2|0:2,0:0:0:0:
314,204,15049,1,10,0:2:0:0:
461,232,15228,2,0,P|470:189|462:142,1,80,2|2,0:2|3:2,0:0:0:0:
402,67,15585,1,0,3:2:0:0:
337,202,15764,2,0,L|330:106,1,80,8|0,0:2|0:0,0:0:0:0:
206,44,16121,6,0,L|199:140,1,80,2|0,3:2|3:2,0:0:0:0:
130,214,16478,1,10,0:2:0:0:
12,108,16656,2,0,P|63:94|110:106,1,80,0|2,0:0|3:2,0:0:0:0:
123,239,17014,1,0,3:2:0:0:
310,203,17192,2,0,L|303:107,1,80,10|0,0:2|0:2,0:0:0:0:
225,223,17549,6,0,L|232:319,1,80,10|0,0:2|0:2,0:0:0:0:
232,318,17817,1,8,0:2:0:0:
234,333,17906,1,0,3:2:0:0:
395,228,18085,2,0,L|388:324,1,80,10|0,0:2|3:2,0:0:0:0:
388,323,18353,1,8,0:2:0:0:
386,338,18442,1,0,3:2:0:0:
312,222,18621,1,10,0:2:0:0:
472,195,18799,2,0,L|529:199,1,40,0|0,0:2|0:2,0:0:0:0:
444,116,18978,1,6,0:2:0:0:
444,116,19335,5,2,2:3:0:0:
158,80,20049,1,2,2:3:0:0:
446,87,20764,1,2,2:3:0:0:
247,41,21299,5,2,0:2:0:0:
241,142,21478,1,10,0:2:0:0:
126,100,21835,5,6,0:2:0:0:
127,115,22192,5,0,0:2:0:0:
128,130,22549,5,2,2:3:0:0:
84,291,22728,1,0,0:2:0:0:
64,211,22906,1,8,0:2:0:0:
83,207,22995,1,0,0:2:0:0:
102,210,23084,1,0,0:2:0:0:
178,310,23263,5,8,0:2:0:0:
287,270,23442,1,8,0:2:0:0:
287,270,23799,1,8,0:2:0:0:
458,277,24692,6,0,L|452:202,1,71.9999978027344,2|0,0:2|0:2,0:0:0:0:
411,90,25049,1,0,0:2:0:0:
489,125,25228,1,2,0:2:0:0:
375,169,25406,2,0,P|328:174|288:169,1,71.9999978027344,0|0,0:2|0:2,0:0:0:0:
251,89,25764,1,2,0:2:0:0:
203,185,25942,1,0,0:2:0:0:
143,93,26121,6,0,P|96:88|56:93,1,71.9999978027344,0|2,0:2|0:2,0:0:0:0:
98,193,26478,2,0,L|90:279,1,71.9999978027344,0|0,0:2|0:2,0:0:0:0:
198,345,26835,2,0,L|190:258,1,71.9999978027344,2|0,0:2|0:2,0:0:0:0:
242,185,27192,2,0,P|237:138|242:98,1,71.9999978027344,2|0,0:2|0:2,0:0:0:0:
346,58,27549,6,0,P|400:79|427:131,1,107.999996704102,2|0,0:2|0:0,0:0:0:0:
405,136,27906,2,0,L|330:142,1,71.9999978027344,0|2,0:2|0:2,0:0:0:0:
246,208,28264,2,0,L|171:202,1,71.9999978027344,0|0,0:2|0:2,0:0:0:0:
388,268,28621,2,0,L|313:274,1,71.9999978027344,2|0,0:2|0:2,0:0:0:0:
430,140,28978,6,0,P|435:93|430:53,1,71.9999978027344,0|2,0:2|0:2,0:0:0:0:
308,0,29335,2,0,P|303:47|308:87,1,71.9999978027344,0|0,0:2|0:2,0:0:0:0:
338,166,29692,1,2,0:2:0:0:
222,97,29871,1,0,0:2:0:0:
222,97,30049,1,2,0:2:0:0:
183,212,30228,1,0,0:2:0:0:
183,212,30406,6,0,L|258:206,1,71.9999978027344,2|0,0:2|0:2,0:0:0:0:
320,272,30764,1,0,0:2:0:0:
348,181,30942,1,2,0:2:0:0:
442,217,31121,2,0,P|447:170|442:130,1,71.9999978027344,0|0,0:2|0:2,0:0:0:0:
431,16,31478,1,2,0:2:0:0:
499,68,31656,1,0,0:2:0:0:
372,86,31835,6,0,P|325:91|285:86,1,71.9999978027344,0|2,0:2|0:2,0:0:0:0:
139,32,32192,2,0,P|186:27|226:32,1,71.9999978027344,0|2,0:2|0:2,0:0:0:0:
176,123,32549,2,0,L|170:198,1,71.9999978027344,2|0,0:2|0:0,0:0:0:0:
252,295,32906,2,0,L|246:220,1,71.9999978027344,2|0,0:2|0:0,0:0:0:0:
251,198,33174,1,0,0:2:0:0:
267,178,33264,6,0,P|314:173|354:178,1,71.9999978027344,2|0,0:2|0:2,0:0:0:0:
170,209,33621,2,0,P|123:214|83:209,1,71.9999978027344,0|2,0:2|0:2,0:0:0:0:
42,62,33978,1,0,0:2:0:0:
139,129,34156,1,0,0:2:0:0:
139,129,34246,1,0,0:0:0:0:
139,129,34334,1,10,0:2:0:0:
15,174,34514,6,0,P|10:221|15:261,1,71.9999978027344,4|0,0:2|0:0,0:0:0:0:
66,361,34871,1,0,0:2:0:0:
161,293,35049,2,0,L|236:287,1,71.9999978027344,8|0,0:2|0:2,0:0:0:0:
349,186,35406,1,0,0:2:0:0:
404,251,35585,1,8,0:2:0:0:
382,263,35674,1,8,0:2:0:0:
357,271,35764,1,8,0:2:0:0:
331,270,35853,1,8,0:2:0:0:
307,260,35942,1,8,0:2:0:0:
266,146,36121,6,0,L|272:71,1,71.9999978027344,4|0,3:2|0:2,0:0:0:0:
168,11,36478,2,0,L|174:86,1,71.9999978027344,8|0,0:2|0:2,0:0:0:0:
264,169,36835,1,0,3:2:0:0:
273,54,37014,1,0,3:2:0:0:
175,105,37192,2,0,P|128:101|90:111,1,71.9999978027344,8|0,0:2|0:2,0:0:0:0:
134,259,37549,6,0,L|140:188,1,71.9999978027344,0|0,3:2|0:2,0:0:0:0:
220,306,37906,2,0,L|328:315,1,107.999996704102,8|0,0:2|0:2,0:0:0:0:
329,282,38264,1,0,3:2:0:0:
437,307,38442,1,0,3:2:0:0:
451,197,38621,2,0,P|456:150|451:110,1,71.9999978027344,8|0,0:2|0:2,0:0:0:0:
361,28,38978,6,0,L|353:114,1,71.9999978027344,0|0,3:2|0:0,0:0:0:0:
265,165,39335,2,0,L|190:159,1,71.9999978027344,8|0,0:2|0:2,0:0:0:0:
378,213,39692,2,0,L|453:219,1,71.9999978027344,0|0,3:2|3:2,0:0:0:0:
381,314,40049,5,8,0:2:0:0:
283,264,40228,2,0,L|208:270,1,71.9999978027344,0|0,0:2|3:2,0:0:0:0:
161,169,40585,1,0,3:2:0:0:
102,263,40764,2,0,L|94:337,1,71.9999978027344,8|0,0:2|0:2,0:0:0:0:
18,229,41121,1,8,0:2:0:0:
16,211,41210,1,0,0:2:0:0:
14,193,41299,1,0,0:2:0:0:
60,31,41478,2,0,L|67:112,1,71.9999978027344,8|0,0:2|0:2,0:0:0:0:
179,83,41834,5,4,0:2:0:0:
179,83,43085,1,0,3:2:0:0:
338,224,43264,5,12,0:2:0:0:
213,222,43442,1,0,0:2:0:0:
279,123,43621,1,0,0:2:0:0:
281,318,43799,5,12,0:2:0:0:
221,211,43978,1,0,0:2:0:0:
351,214,44156,1,0,0:2:0:0:
172,273,44335,5,12,0:2:0:0:
404,272,44514,1,0,0:2:0:0:
418,261,44603,1,0,0:2:0:0:
425,245,44692,2,0,P|430:199|419:172,1,71.9999978027344,0|0,3:2|0:0,0:0:0:0:
273,28,45049,2,0,L|281:102,1,71.9999978027344,12|0,0:2|0:0,0:0:0:0:
284,117,45317,1,0,0:2:0:0:
286,134,45406,5,0,3:2:0:0:
144,254,45585,1,8,0:2:0:0:
186,79,45764,1,0,3:2:0:0:
260,243,45942,1,12,0:2:0:0:
106,151,46121,1,0,3:2:0:0:
260,243,46299,5,8,0:2:0:0:
258,261,46388,1,8,0:2:0:0:
256,279,46477,1,8,0:2:0:0:
372,350,46656,1,8,0:2:0:0:
374,331,46745,1,8,0:2:0:0:
376,313,46835,6,0,L|383:255,1,35.9999989013672,0|0,3:0|3:2,0:0:0:0:
463,246,47014,2,0,L|456:188,1,35.9999989013672,0|0,3:2|3:2,0:0:0:0:
351,197,47192,2,0,L|358:139,3,35.9999989013672,0|0|0|0,3:2|3:2|3:2|3:2,0:0:0:0:
415,108,47549,6,0,P|429:57|419:9,1,95.9999970703126,4|0,3:2|0:2,0:0:0:0:
240,52,48264,2,0,L|177:57,1,47.9999985351563,8|0,0:2|0:0,0:0:0:0:
118,101,48621,1,0,0:2:0:0:
128,186,48799,1,0,0:2:0:0:
204,139,48978,1,0,3:2:0:0:
46,152,49156,1,8,0:2:0:0:
204,139,49335,1,0,3:2:0:0:
259,358,49692,6,0,L|211:363,1,47.9999985351563,8|0,0:2|0:0,0:0:0:0:
134,280,50049,2,0,L|182:286,1,47.9999985351563,0|0,0:2|0:2,0:0:0:0:
49,332,50406,2,0,P|38:290|52:224,1,95.9999970703126,4|0,3:2|0:2,0:0:0:0:
128,186,50942,1,0,0:0:0:0:
128,186,51121,2,0,P|139:144|125:78,1,95.9999970703126,8|0,0:2|0:2,0:0:0:0:
203,35,51656,6,0,L|362:48,1,160,4|0,0:2|0:2,0:0:0:0:
471,112,53264,5,4,0:2:0:0:
456,114,53621,5,4,0:2:0:0:
441,116,53978,5,4,0:2:0:0:
345,129,54156,1,0,3:2:0:0:
397,269,54335,2,0,L|402:179,1,71.9999978027344,8|0,0:2|0:2,0:0:0:0:
378,40,54692,5,0,0:2:0:0:
331,160,54871,1,0,0:2:0:0:
241,57,55049,2,0,L|153:64,1,71.9999978027344,8|0,0:2|0:2,0:0:0:0:
102,214,55406,5,0,0:2:0:0:
161,87,55585,1,0,0:2:0:0:
246,190,55764,2,0,L|238:278,1,71.9999978027344,8|0,0:2|0:2,0:0:0:0:
448,241,56121,5,0,0:2:0:0:
274,262,56299,1,0,0:2:0:0:
341,83,56478,1,8,0:2:0:0:
411,176,56657,1,0,0:2:0:0:
394,179,56746,1,8,0:2:0:0:
377,181,56835,5,0,0:2:0:0:
252,162,57014,1,0,0:2:0:0:
319,100,57192,1,8,0:2:0:0:
350,183,57371,1,0,0:2:0:0:
418,40,57549,2,0,P|367:6|307:2,1,107.999996704102,4|0,0:2|0:2,0:0:0:0:
298,10,57906,1,8,0:2:0:0:
240,178,58085,5,0,0:2:0:0:
135,59,58264,1,0,0:2:0:0:
285,34,58442,1,0,0:2:0:0:
217,181,58621,2,0,L|223:252,1,71.9999978027344,8|0,0:2|0:2,0:0:0:0:
439,208,58978,5,0,0:2:0:0:
317,112,59156,1,0,0:2:0:0:
301,275,59335,1,8,0:2:0:0:
422,112,59514,1,0,0:2:0:0:
440,110,59603,1,8,0:2:0:0:
458,108,59692,1,0,0:2:0:0:
343,33,59871,5,8,0:2:0:0:
319,16,59960,1,8,0:2:0:0:
292,6,60049,1,8,0:2:0:0:
264,3,60138,1,8,0:2:0:0:
235,7,60228,1,8,0:2:0:0:
209,19,60317,1,8,0:2:0:0:
187,38,60406,6,0,P|170:72|173:114,1,71.9999978027344,4|0,0:2|0:0,0:0:0:0:
250,217,60764,1,8,0:2:0:0:
306,135,60942,1,8,0:2:0:0:
141,186,61121,1,8,0:2:0:0:
166,300,61299,5,8,0:2:0:0:
189,301,61388,1,8,0:2:0:0:
213,303,61477,1,8,0:2:0:0:
237,305,61566,1,8,0:2:0:0:
261,307,61656,1,8,0:2:0:0:
285,308,61745,1,8,0:2:0:0:
308,310,61835,2,0,L|463:324,1,143.999995605469,4|0,0:2|0:0,0:0:0:0:
452,324,62728,5,0,3:2:0:0:
489,230,62906,2,0,L|478:109,1,107.999996704102,12|0,0:2|0:0,0:0:0:0:
472,98,63264,6,0,P|415:89|375:95,1,95.9999970703126,4|0,0:2|0:0,0:0:0:0:
217,173,63621,1,8,0:2:0:0:
291,56,63799,1,0,0:2:0:0:
398,200,63978,1,0,3:2:0:0:
191,169,64156,1,0,3:2:0:0:
304,141,64335,2,0,L|293:247,1,95.9999970703126,8|0,0:2|0:2,0:0:0:0:
200,356,64692,6,0,L|189:249,1,95.9999970703126,0|0,3:2|0:2,0:0:0:0:
91,139,65049,2,0,L|80:246,1,95.9999970703126,8|0,0:2|0:2,0:0:0:0:
217,258,65406,1,0,3:2:0:0:
171,165,65585,1,0,3:2:0:0:
35,308,65764,2,0,P|92:318|128:307,1,95.9999970703126,8|0,0:2|0:0,0:0:0:0:
191,169,66121,6,0,L|202:62,1,95.9999970703126,0|0,3:2|0:2,0:0:0:0:
395,117,66478,1,8,0:2:0:0:
306,202,66656,1,0,0:2:0:0:
302,178,66746,1,0,0:0:0:0:
296,154,66835,1,0,3:2:0:0:
396,148,67014,1,0,3:2:0:0:
232,233,67192,1,8,0:2:0:0:
405,276,67371,1,0,0:2:0:0:
416,256,67460,1,0,0:2:0:0:
423,233,67549,6,0,P|428:178|416:133,1,95.9999970703126,0|0,3:2|3:2,0:0:0:0:
281,71,67906,1,8,0:2:0:0:
206,196,68085,1,0,0:2:0:0:
208,229,68174,1,0,0:2:0:0:
211,262,68264,2,0,L|216:326,2,47.9999985351563,0|0|0,3:2|0:2|3:2,0:0:0:0:
353,95,68621,1,8,0:2:0:0:
191,109,68799,1,0,0:2:0:0:
166,111,68889,1,0,0:2:0:0:
142,115,68978,6,0,L|35:126,1,95.9999970703126,4|0,3:2|0:2,0:0:0:0:
185,18,69335,1,8,0:2:0:0:
282,115,69514,1,0,0:2:0:0:
284,138,69603,1,0,0:2:0:0:
286,161,69692,1,0,3:2:0:0:
221,313,69871,1,0,3:2:0:0:
96,212,70049,2,0,P|147:198|191:204,1,95.9999970703126,8|0,0:2|0:2,0:0:0:0:
212,214,70317,1,0,0:0:0:0:
233,224,70406,6,0,P|285:240|328:232,1,95.9999970703126,0|0,3:2|0:2,0:0:0:0:
458,128,70764,1,8,0:2:0:0:
364,16,70942,1,0,0:2:0:0:
362,39,71031,1,8,0:2:0:0:
360,62,71120,1,0,3:2:0:0:
408,272,71299,1,0,3:2:0:0:
458,151,71478,2,0,L|351:140,1,95.9999970703126,8|0,0:2|0:0,0:0:0:0:
188,42,71835,6,0,L|295:31,1,95.9999970703126,4|0,3:2|3:2,0:0:0:0:
363,159,72192,1,8,0:2:0:0:
233,224,72371,1,0,0:2:0:0:
210,226,72460,1,8,0:2:0:0:
187,228,72549,1,0,3:2:0:0:
189,76,72728,1,0,3:2:0:0:
336,176,72906,2,0,P|340:228|325:283,1,95.9999970703126,8|0,0:2|0:2,0:0:0:0:
177,332,73264,5,0,3:2:0:0:
162,230,73442,1,0,3:2:0:0:
271,51,73621,2,0,L|261:150,1,95.9999970703126,12|0,0:2|0:2,0:0:0:0:
348,268,73978,5,0,3:2:0:0:
336,176,74156,1,0,3:2:0:0:
206,324,74335,1,12,0:2:0:0:
157,151,74514,1,0,0:2:0:0:
133,154,74603,1,0,0:2:0:0:
109,158,74692,6,0,L|2:169,1,95.9999970703126,4|0,3:2|0:0,0:0:0:0:
112,332,75049,1,8,0:2:0:0:
171,235,75228,1,0,0:2:0:0:
23,254,75406,1,0,3:2:0:0:
126,344,75585,1,0,3:2:0:0:
262,209,75764,2,0,L|253:112,1,95.9999970703126,8|0,0:2|0:2,0:0:0:0:
388,62,76121,6,0,L|379:158,1,95.9999970703126,0|0,3:2|0:2,0:0:0:0:
272,326,76478,2,0,L|263:229,1,95.9999970703126,8|0,0:2|0:2,0:0:0:0:
422,228,76835,1,0,0:2:0:0:
423,251,76924,1,8,0:2:0:0:
424,275,77014,1,0,3:2:0:0:
276,343,77192,2,0,L|180:334,1,95.9999970703126,8|0,0:2|0:0,0:0:0:0:
52,251,77549,6,0,L|148:242,1,95.9999970703126,0|0,3:2|0:2,0:0:0:0:
253,113,77906,1,8,0:2:0:0:
143,78,78085,1,0,0:2:0:0:
145,101,78174,1,0,0:2:0:0:
147,125,78264,1,0,3:2:0:0:
248,93,78442,1,0,3:2:0:0:
55,162,78621,1,8,0:2:0:0:
249,202,78799,1,0,0:2:0:0:
255,225,78888,1,0,0:2:0:0:
258,248,78977,6,0,P|263:303|251:348,1,95.9999970703126,0|0,3:2|0:2,0:0:0:0:
150,262,79335,1,8,0:2:0:0:
253,113,79514,1,0,0:2:0:0:
286,110,79603,1,0,0:2:0:0:
319,108,79692,2,0,L|385:102,2,47.9999985351563,0|0|0,3:2|0:0|3:2,0:0:0:0:
350,262,80049,1,8,0:2:0:0:
153,290,80228,1,8,0:2:0:0:
151,266,80317,1,8,0:2:0:0:
147,242,80406,6,0,L|156:146,1,95.9999970703126,4|0,0:2|0:2,0:0:0:0:
67,33,80764,1,8,0:2:0:0:
6,158,80942,1,0,0:0:0:0:
29,160,81031,1,0,3:2:0:0:
52,162,81120,1,8,0:2:0:0:
238,103,81299,1,0,0:2:0:0:
71,163,81478,1,8,0:2:0:0:
271,266,81656,6,0,L|127:253,1,143.999995605469,4|0,3:2|0:2,0:0:0:0:
103,250,82014,1,0,3:2:0:0:
228,78,82192,2,0,P|177:64|133:70,1,95.9999970703126,8|0,0:2|0:0,0:0:0:0:
112,78,82460,1,0,0:2:0:0:
90,89,82549,1,0,3:2:0:0:
169,179,82728,1,0,3:2:0:0:
303,141,82906,2,0,L|311:39,1,95.9999970703126,8|0,0:2|0:2,0:0:0:0:
400,190,83264,6,0,P|414:241|408:285,1,95.9999970703126,4|0,0:2|0:2,0:0:0:0:
236,298,83621,1,8,0:2:0:0:
301,160,83799,1,0,0:2:0:0:
334,335,83978,2,0,L|232:326,1,95.9999970703126,8|0,0:2|0:2,0:0:0:0:
103,250,84335,1,8,0:2:0:0:
215,145,84514,6,0,L|46:130,1,160,4|0,0:2|0:0,0:0:0:0:
178,66,85406,2,0,P|226:60|279:79,1,71.9999978027344,0|0,0:2|3:2,0:0:0:0:
249,219,85764,2,0,P|201:225|148:206,1,71.9999978027344,8|0,0:2|0:2,0:0:0:0:
215,145,86121,6,0,L|309:137,1,80,4|0,3:2|0:0,0:0:0:0:
422,153,86478,1,8,0:2:0:0:
359,298,86656,2,0,L|349:191,1,80,0|0,0:2|3:2,0:0:0:0:
446,128,87014,1,0,3:2:0:0:
349,67,87192,2,0,L|254:59,1,80,8|0,0:2|0:2,0:0:0:0:
119,153,87549,6,0,L|213:145,1,80,0|0,3:2|0:2,0:0:0:0:
259,244,87906,1,8,0:2:0:0:
168,360,88085,2,0,P|159:317|167:270,1,80,0|0,3:2|3:2,0:0:0:0:
215,145,88442,1,0,0:2:0:0:
357,253,88621,2,0,L|250:243,1,80,8|0,0:2|0:0,0:0:0:0:
237,143,88978,6,0,L|227:36,1,80,0|0,3:2|0:2,0:0:0:0:
360,0,89335,1,8,0:2:0:0:
387,161,89514,1,0,0:2:0:0:
368,159,89603,1,8,0:2:0:0:
349,157,89692,1,0,3:2:0:0:
470,119,89871,1,0,3:2:0:0:
373,256,90049,2,0,L|366:348,1,80,8|0,0:2|0:2,0:0:0:0:
172,304,90406,5,0,3:2:0:0:
343,259,90585,1,0,0:2:0:0:
215,230,90764,2,0,P|174:221|120:236,1,80,8|0,0:2|0:2,0:0:0:0:
121,239,91031,1,0,0:2:0:0:
105,251,91121,5,8,3:2:0:0:
107,223,91210,1,8,0:2:0:0:
109,194,91299,1,8,3:2:0:0:
111,166,91388,1,8,0:2:0:0:
114,137,91477,1,8,0:2:0:0:
116,109,91567,1,8,0:2:0:0:
118,80,91656,1,8,0:2:0:0:
121,52,91745,1,8,0:2:0:0:
123,23,91834,5,12,0:2:0:0:
287,111,92014,1,0,0:2:0:0:
187,129,92192,5,12,0:2:0:0:
310,10,92371,1,0,0:2:0:0:
276,211,92549,1,12,0:2:0:0:
206,37,92728,1,0,0:2:0:0:
378,86,92906,1,12,0:2:0:0:
257,215,93085,1,0,0:2:0:0:
237,218,93174,1,0,0:2:0:0:
217,221,93264,6,12,L|133:229,1,80,12|0,0:2|0:2,0:0:0:0:
237,371,93621,1,12,0:2:0:0:
361,242,93799,1,0,0:2:0:0:
212,299,93978,1,12,0:2:0:0:
389,329,94156,1,0,0:2:0:0:
318,149,94335,1,12,0:2:0:0:
184,303,94514,1,0,0:2:0:0:
165,145,94692,5,12,0:2:0:0:
335,240,94871,1,0,0:2:0:0:
160,308,95049,1,12,0:2:0:0:
250,187,95228,1,0,0:2:0:0:
308,330,95406,1,12,0:2:0:0:
174,226,95585,1,0,0:2:0:0:
365,235,95764,1,12,0:2:0:0:
225,360,95942,1,0,0:2:0:0:
246,166,96121,6,0,L|237:78,1,80,8|8,0:2|0:2,0:0:0:0:
217,85,96389,1,8,0:2:0:0:
197,81,96478,1,8,0:2:0:0:
177,78,96567,1,8,0:2:0:0:
157,76,96656,1,8,0:2:0:0:
136,74,96746,1,8,0:2:0:0:
104,70,96835,5,8,0:2:0:0:
79,90,96924,1,8,0:2:0:0:
64,118,97014,1,8,0:2:0:0:
58,149,97103,1,8,0:2:0:0:
59,180,97192,2,0,L|66:237,1,40,8|8,0:2|0:2,0:0:0:0:
121,323,97371,2,0,L|125:266,1,40,8|8,0:2|0:2,0:0:0:0:
198,224,97549,6,0,L|436:203,1,240,4|0,0:2|0:0,0:0:0:0:
484,84,99871,5,0,3:2:0:0:
385,44,100049,1,4,0:2:0:0:
259,123,100228,2,0,P|302:127|347:112,1,80,0|4,0:2|0:2,0:0:0:0:
256,192,100496,12,0,105049,0:2:0:0:
