osu file format v14

[General]
AudioFilename: audio.mp3
AudioLeadIn: 0
PreviewTime: 61835
Countdown: 1
SampleSet: Soft
StackLeniency: 0.7
Mode: 0
LetterboxInBreaks: 0
WidescreenStoryboard: 1

[Editor]
DistanceSpacing: 0.6
BeatDivisor: 4
GridSize: 4
TimelineZoom: 1.9

[Metadata]
Title:Tooi Ongaku ~HEART BEAT~
TitleUnicode:遠い音楽 〜HEART BEAT〜
Artist:Yamabuki Saaya (CV.Ohashi Ayaka)
ArtistUnicode:山吹沙綾 (CV:大橋彩香)
Creator:Evanescent-
Version:Insane
Source:BanG Dream! ガールズバンドパーティー
Tags:bang dream yamabuki saaya character song ohashi ayaka tooi ongaku
BeatmapID:1421781
BeatmapSetID:671567

[Difficulty]
HPDrainRate:7
CircleSize:4
OverallDifficulty:8.5
ApproachRate:9.2
SliderMultiplier:1.78
SliderTickRate:1

[Events]
//Background and Video events
0,0,"516Saaya-Yamabuki-Pure-9CbJCI.png",0,0
//Break Periods
2,23999,62694
//Storyboard Layer 0 (Background)
//Storyboard Layer 1 (Fail)
//Storyboard Layer 2 (Pass)
//Storyboard Layer 3 (Foreground)
//Storyboard Sound Samples

[TimingPoints]
407,357.142857142857,4,2,1,100,1,0
1478,-80,4,2,1,100,0,0
1835,-100,4,2,1,100,0,0

[Colours]
Combo1 : 252,183,146
Combo2 : 253,205,200
Combo3 : 251,234,77
Combo4 : 255,196,225
Combo5 : 200,219,251

[HitObjects]
140,96,407,6,0,L|240:88,1,89,6|0,0:0|0:0,0:0:0:0:
312,84,674,1,0,0:0:0:0:
312,84,764,2,0,L|300:144,1,44.5
444,240,942,6,0,L|344:232,1,89,6|0,0:0|0:0,0:0:0:0:
272,228,1209,1,0,0:0:0:0:
272,228,1299,2,0,L|284:288,1,44.5
120,360,1478,6,0,B|136:304|136:304|120:248|120:248|140:188,1,166.875,6|0,0:0|0:0,0:0:0:0:
104,164,1835,6,0,L|208:148,1,89
272,68,2192,2,0,L|168:52,1,89
292,152,2549,2,0,P|340:136|360:88,1,89
212,212,2906,2,0,L|224:304,1,89
312,360,3264,5,0,0:0:0:0:
380,256,3442,1,0,0:0:0:0:
496,352,3621,2,0,P|440:344|400:340,1,89
291,267,3978,2,0,P|335:262|379:255,1,89
236,344,4335,2,0,P|200:300|196:256,1,89
260,180,4692,6,0,P|212:172|172:164,1,89
20,52,5049,2,0,P|12:96|32:136,1,89
104,220,5406,1,0,0:0:0:0:
116,80,5585,1,0,0:0:0:0:
12,160,5764,2,0,L|0:264,1,89
68,316,6121,6,0,P|140:304|220:296,1,133.5,4|0,0:0|0:0,0:0:0:0:
256,312,6478,1,8,0:0:0:0:
176,160,6656,1,8,0:0:0:0:
144,352,6835,1,8,0:0:0:0:
304,216,7014,1,8,0:0:0:0:
120,28,7192,5,8,0:0:0:0:
104,56,7281,1,0,0:0:0:0:
100,88,7371,1,0,0:0:0:0:
108,116,7460,1,0,0:0:0:0:
128,140,7549,6,0,P|184:132|236:128,1,89,4|0,0:0|0:0,0:0:0:0:
392,296,7906,2,0,P|336:288|284:284,1,89,8|0,0:0|0:0,0:0:0:0:
260,264,8174,1,0,0:0:0:0:
260,264,8264,1,0,0:0:0:0:
380,136,8442,1,0,0:0:0:0:
464,232,8621,2,0,P|484:284|476:344,1,89,8|0,0:0|0:0,0:0:0:0:
284,360,8978,6,0,P|312:272|292:228,1,133.5
252,196,9335,1,8,0:0:0:0:
176,348,9514,1,0,0:0:0:0:
176,348,9603,1,0,0:0:0:0:
176,348,9692,1,0,0:0:0:0:
352,200,9871,1,0,0:0:0:0:
220,116,10049,2,0,P|172:110|116:104,1,89,8|0,0:0|0:0,0:0:0:0:
20,232,10406,6,0,B|56:268|56:268|160:252,1,133.5
192,224,10764,1,8,0:0:0:0:
80,148,10942,1,0,0:0:0:0:
80,148,11031,1,0,0:0:0:0:
80,148,11121,1,0,0:0:0:0:
140,340,11299,1,0,0:0:0:0:
348,288,11478,2,0,P|292:276|248:268,1,89,8|0,0:0|0:0,0:0:0:0:
220,132,11835,6,0,P|296:120|384:104,1,133.5
456,72,12192,2,0,P|432:120|432:168,1,89,8|0,0:0|0:0,0:0:0:0:
452,212,12460,1,0,0:0:0:0:
452,212,12549,2,0,L|444:268,1,44.5,0|8,0:0|0:0,0:0:0:0:
464,304,12728,1,0,0:0:0:0:
332,212,12906,1,8,0:0:0:0:
244,348,13085,1,0,0:0:0:0:
244,348,13174,1,0,0:0:0:0:
244,348,13264,6,0,P|144:332|84:328,1,133.5
56,304,13621,1,8,0:0:0:0:
212,152,13799,1,0,0:0:0:0:
212,152,13889,1,0,0:0:0:0:
212,152,13978,2,0,P|264:160|316:168,1,89
164,44,14335,2,0,P|128:49|72:56,1,89,8|0,0:0|0:0,0:0:0:0:
80,192,14692,6,0,B|92:260|96:336|96:336|124:280,1,178,0|8,0:0|0:0,0:0:0:0:
316,240,15228,1,0,0:0:0:0:
316,240,15317,1,0,0:0:0:0:
316,240,15406,1,0,0:0:0:0:
212,352,15585,1,0,0:0:0:0:
176,248,15764,2,0,P|180:196|208:160,1,89,8|0,0:0|0:0,0:0:0:0:
280,48,16121,6,0,P|320:68|432:88,1,133.5
464,64,16478,1,8,0:0:0:0:
320,264,16656,1,0,0:0:0:0:
320,264,16746,1,0,0:0:0:0:
320,264,16835,1,0,0:0:0:0:
288,152,17014,1,0,0:0:0:0:
440,248,17192,2,0,P|448:304|424:348,1,89,8|0,0:0|0:0,0:0:0:0:
168,352,17549,6,0,P|220:348|268:344,1,89
320,264,17817,1,0,0:0:0:0:
320,264,17906,2,0,L|256:256,1,44.5
96,276,18085,6,0,P|100:224|104:176,1,89
184,124,18353,1,0,0:0:0:0:
184,124,18442,2,0,L|192:188,1,44.5
84,76,18621,5,0,0:0:0:0:
84,76,18710,1,0,0:0:0:0:
84,76,18799,1,0,0:0:0:0:
84,76,18889,1,0,0:0:0:0:
84,76,18978,1,0,0:0:0:0:
88,80,19335,5,0,0:0:0:0:
288,60,20049,1,0,0:0:0:0:
288,60,20764,1,0,0:0:0:0:
288,60,21299,5,0,0:0:0:0:
224,260,21477,1,0,0:0:0:0:
168,140,21656,1,0,0:0:0:0:
344,188,21835,5,0,0:0:0:0:
344,188,22192,1,0,0:0:0:0:
344,188,22549,1,0,0:0:0:0:
300,344,22906,1,8,0:0:0:0:
300,344,22995,1,0,0:0:0:0:
300,344,23084,1,0,0:0:0:0:
452,304,23264,5,8,0:0:0:0:
248,128,23442,1,8,0:0:0:0:
248,128,23799,1,8,0:0:0:0:
344,140,63264,6,0,P|348:228|352:288,1,133.5,4|0,0:0|0:0,0:0:0:0:
320,340,63621,1,8,0:0:0:0:
144,184,63799,1,0,0:0:0:0:
144,184,63889,1,0,0:0:0:0:
144,184,63978,2,0,P|196:176|244:168,1,89
424,80,64335,2,0,P|444:128|440:168,1,89,8|0,0:0|0:0,0:0:0:0:
324,280,64692,6,0,P|392:264|452:320,1,133.5
464,356,65049,1,8,0:0:0:0:
256,320,65228,1,0,0:0:0:0:
312,172,65406,1,0,0:0:0:0:
312,172,65496,1,8,0:0:0:0:
312,172,65585,1,0,0:0:0:0:
368,272,65764,2,0,P|380:328|368:376,1,89,8|0,0:0|0:0,0:0:0:0:
224,288,66121,6,0,B|172:272|172:272|120:280|120:280|68:264,1,133.5
44,236,66478,1,8,0:0:0:0:
196,180,66656,1,0,0:0:0:0:
196,180,66746,1,0,0:0:0:0:
196,180,66835,1,0,0:0:0:0:
144,352,67014,1,0,0:0:0:0:
44,236,67192,2,0,P|56:184|68:136,1,89,8|0,0:0|0:0,0:0:0:0:
284,64,67549,6,0,P|220:84|152:52,1,133.5
128,20,67906,1,8,0:0:0:0:
92,196,68085,1,0,0:0:0:0:
92,196,68174,1,8,0:0:0:0:
92,196,68264,2,0,P|144:188|188:184,1,89
392,236,68621,2,0,P|332:220|272:268,1,133.5,8|0,0:0|0:0,0:0:0:0:
224,320,68978,6,0,B|344:348|344:348|368:324|340:288,1,178,0|8,0:0|0:0,0:0:0:0:
288,176,69514,1,0,0:0:0:0:
288,176,69603,1,0,0:0:0:0:
288,176,69692,2,0,P|340:160|384:156,1,89
476,232,70049,1,8,0:0:0:0:
360,364,70228,2,0,P|368:296|380:196,1,133.5
348,176,70585,1,0,0:0:0:0:
192,272,70764,6,0,P|240:264|292:260,1,89,8|0,0:0|0:0,0:0:0:0:
116,84,71121,2,0,P|104:140|120:172,1,89
196,272,71478,1,8,0:0:0:0:
268,132,71656,1,0,0:0:0:0:
88,200,71835,6,0,P|76:268|64:352,1,133.5,4|0,0:0|0:0,0:0:0:0:
96,368,72192,1,8,0:0:0:0:
224,256,72371,1,0,0:0:0:0:
224,256,72460,1,0,0:0:0:0:
224,256,72549,2,0,P|284:248|328:244,1,89
160,88,72906,2,0,P|100:96|56:100,1,89,8|0,0:0|0:0,0:0:0:0:
240,200,73264,5,0,0:0:0:0:
240,200,73442,1,0,0:0:0:0:
332,108,73621,2,0,P|396:100|432:96,1,89,8|0,0:0|0:0,0:0:0:0:
268,352,73978,5,0,0:0:0:0:
268,352,74156,1,0,0:0:0:0:
156,228,74335,2,0,P|156:180|188:132,1,89,8|0,0:0|0:0,0:0:0:0:
272,48,74603,1,8,0:0:0:0:
272,48,74692,6,0,P|168:56|112:60,1,133.5
76,44,75049,1,8,0:0:0:0:
176,216,75228,1,0,0:0:0:0:
176,216,75317,1,0,0:0:0:0:
176,216,75406,1,0,0:0:0:0:
316,116,75585,1,0,0:0:0:0:
400,300,75764,2,0,P|340:288|300:280,1,89,8|0,0:0|0:0,0:0:0:0:
100,200,76121,6,0,P|152:220|232:152,1,133.5
256,136,76478,1,8,0:0:0:0:
280,352,76656,1,0,0:0:0:0:
200,280,76835,1,0,0:0:0:0:
200,280,76924,1,8,0:0:0:0:
200,280,77014,1,0,0:0:0:0:
380,252,77192,2,0,P|436:260|478:266,1,89,8|0,0:0|0:0,0:0:0:0:
252,40,77549,6,0,P|204:88|224:164,1,133.5
240,204,77906,1,8,0:0:0:0:
80,136,78085,1,0,0:0:0:0:
80,136,78174,1,0,0:0:0:0:
80,136,78264,1,0,0:0:0:0:
116,296,78442,1,0,0:0:0:0:
324,194,78621,2,0,P|268:190|228:214,1,89,8|0,0:0|0:0,0:0:0:0:
112,356,78978,6,0,P|184:340|276:320,1,133.5
304,344,79335,1,8,0:0:0:0:
216,156,79514,1,0,0:0:0:0:
216,156,79603,1,0,0:0:0:0:
216,156,79692,2,0,P|204:208|220:244,1,89
440,128,80049,2,0,P|388:116|344:100,1,89,8|0,0:0|0:0,0:0:0:0:
252,20,80317,1,8,0:0:0:0:
252,20,80406,6,0,B|124:36|124:36|112:64|128:84,1,178,4|8,0:0|0:0,0:0:0:0:
212,220,80942,1,0,0:0:0:0:
212,220,81031,1,0,0:0:0:0:
212,220,81121,1,8,0:0:0:0:
64,340,81299,2,0,L|72:288,1,44.5
60,256,81478,1,8,0:0:0:0:
288,128,81656,6,0,P|240:180|280:284,1,178,4|0,0:0|0:0,0:0:0:0:
472,368,82192,2,0,P|484:316|460:272,1,89,8|0,0:0|0:0,0:0:0:0:
324,208,82549,2,0,P|384:204|420:196,1,89,8|0,0:0|0:0,0:0:0:0:
456,156,82817,1,0,0:0:0:0:
456,156,82906,1,8,0:0:0:0:
312,56,83085,1,0,0:0:0:0:
236,156,83264,6,0,P|216:216|224:252,1,89,4|0,0:0|0:0,0:0:0:0:
276,376,83621,1,0,0:0:0:0:
96,288,83799,1,0,0:0:0:0:
96,288,83889,1,0,0:0:0:0:
96,288,83978,1,8,0:0:0:0:
324,208,84156,1,0,0:0:0:0:
116,112,84335,1,8,0:0:0:0:
176,352,84514,1,12,0:0:0:0:
176,352,85585,5,0,0:0:0:0:
236,64,85764,1,8,0:0:0:0:
236,64,86121,6,0,P|336:56|408:48,1,133.5,4|0,0:0|0:0,0:0:0:0:
428,32,86478,1,8,0:0:0:0:
320,268,86656,1,0,0:0:0:0:
320,268,86746,1,0,0:0:0:0:
320,268,86835,1,0,0:0:0:0:
256,140,87014,1,0,0:0:0:0:
420,180,87192,2,0,P|468:192|512:204,1,89,8|0,0:0|0:0,0:0:0:0:
336,348,87549,6,0,P|304:296|204:308,1,133.5
176,328,87906,1,8,0:0:0:0:
112,200,88085,1,0,0:0:0:0:
112,200,88174,1,0,0:0:0:0:
112,200,88264,1,0,0:0:0:0:
64,360,88442,1,0,0:0:0:0:
212,236,88621,2,0,P|224:188|212:148,1,89,8|0,0:0|0:0,0:0:0:0:
84,16,88978,6,0,P|92:104|100:176,1,133.5
80,208,89335,1,8,0:0:0:0:
264,76,89514,1,0,0:0:0:0:
264,76,89603,1,0,0:0:0:0:
264,76,89692,2,0,P|324:64|376:52,1,89
224,288,90049,2,0,P|208:236|228:192,1,89,8|0,0:0|0:0,0:0:0:0:
480,224,90406,6,0,P|420:236|372:188,1,133.5,4|0,0:0|0:0,0:0:0:0:
336,148,90764,6,0,L|352:300,1,133.5,4|0,0:0|0:0,0:0:0:0:
308,356,91121,5,12,0:0:0:0:
308,356,91210,1,0,0:0:0:0:
308,356,91299,1,0,0:0:0:0:
308,356,91389,1,0,0:0:0:0:
308,356,91478,1,12,0:0:0:0:
472,268,91656,1,0,0:0:0:0:
152,236,91835,6,0,P|212:228|248:224,1,89,12|0,0:0|0:0,0:0:0:0:
452,352,92192,2,0,P|392:344|356:340,1,89,12|0,0:0|0:0,0:0:0:0:
188,124,92549,5,12,0:0:0:0:
224,308,92728,1,0,0:0:0:0:
400,76,92906,5,12,0:0:0:0:
376,260,93085,1,0,0:0:0:0:
116,168,93264,6,0,P|104:116|124:72,1,89,12|0,0:0|0:0,0:0:0:0:
296,264,93621,2,0,P|308:316|288:360,1,89,12|0,0:0|0:0,0:0:0:0:
108,292,93978,5,12,0:0:0:0:
292,116,94156,1,0,0:0:0:0:
72,216,94335,5,12,0:0:0:0:
360,276,94514,1,0,0:0:0:0:
92,136,94692,6,0,P|148:148|200:156,1,89,12|0,0:0|0:0,0:0:0:0:
444,56,95049,2,0,P|388:68|336:76,1,89,12|0,0:0|0:0,0:0:0:0:
196,72,95406,5,12,0:0:0:0:
320,232,95585,1,0,0:0:0:0:
304,36,95764,5,12,0:0:0:0:
216,284,95942,1,0,0:0:0:0:
456,228,96121,1,12,0:0:0:0:
272,148,96299,5,8,0:0:0:0:
244,152,96389,1,8,0:0:0:0:
216,156,96478,1,8,0:0:0:0:
188,160,96567,1,8,0:0:0:0:
160,164,96656,1,8,0:0:0:0:
132,168,96746,1,8,0:0:0:0:
108,172,96835,2,0,L|56:180,3,44.5,8|0|0|0,0:0|0:0|0:0|0:0,0:0:0:0:
178,325,97192,2,0,L|230:333,3,44.5
132,286,97549,5,0,0:0:0:0:
