osu file format v14

[General]
AudioFilename: audio.mp3
AudioLeadIn: 0
PreviewTime: 146851
Countdown: 0
SampleSet: Soft
StackLeniency: 0.7
Mode: 0
LetterboxInBreaks: 0
WidescreenStoryboard: 0

[Editor]
Bookmarks: 10057,19029,28001,32487,36973,41459,43702,45945,50431,52674,61646,70618,81833,90805,93048,106477,110963,119935,128907,132832,137879,142365,146851,148533,148568,148603,148638,148673,148708,148743,148778,148814,148849,148884,148919,148954,148989,149024,149059,149094,151337,160309,169281,171524,180496,189468,193954,198440,202926,203486,204047,204608,204643,204678,204713,204748,204783,204818,204853,204888,204923,204958,204993,205028,205064,205099,205134,205169,205204,205239,205274,205309,205344,205379,205414,205449,205484,205519,205554,205589,205624,205659,205694,205729,205764,205799,205835,205870,205905,205940,205975,206010,206045,206080,206115,206150,206185,206220,206255,206290,206325,206360,206395,206430,206465,206500,206535,206571,206606,206641,206676,206711,206746,206781,206816,206851,206886,206921,206956,206991,207026,207061,207096,207131,207166,207201,207236,207271,207307,207342,207377,207412,207447,207482,207517,207552,207587,207622,207657,207692,207727,207762,207797,207832,207867,207902,207937,207972,208007,208042,208078,208113,208148,208183,208218,208253,208288,208323,208358,208393,208428,208463,208498,208533,208568,208603,208638,208673,208708,208743,208778,208814,208849,208884,208919,208954,208989,209024,209059,209094,209129,209164,209199,209234,209269,209304,209339,209374,209409,209444,209479,209514,209549,209585,209620,209655,209690,209725,209760,209795,209830,209865,209900,209935,209970,210005,210040,210075,210110,210145,210180,210215,210250,210285,210321,210356,210391,210426,210461,210496,210531,210566,210601,210636,210671,210706,210741,210776,210811,210846,210881,210916,210951,210986,211021,211057,211092,211127,211162,211197,211232,211267,211302,211337,211372,211407,211442,211477,211512,211547,211582,211617,211652,211687,211722,211757,211792,211828,211863
DistanceSpacing: 1
BeatDivisor: 4
GridSize: 32
TimelineZoom: 0.8

[Metadata]
Title:Ruru
TitleUnicode:Ruru
Artist:Yakushimaru Etsuko
ArtistUnicode:Yakushimaru Etsuko
Creator:Yonoshix
Version:Aliens
Source:電波女と青春男
Tags:Anime Ending Denpa Onna to Seishun Otoko 電波女と青春男 blue hair japanese girl
BeatmapID:1994907
BeatmapSetID:955261

[Difficulty]
HPDrainRate:3
CircleSize:3.5
OverallDifficulty:6
ApproachRate:8
SliderMultiplier:1.5
SliderTickRate:1

[Events]
//Background and Video events
0,0,"cuuuuuuuute af.jpg",0,0
//Break Periods
2,45916,49561
2,110963,118393
2,146851,148344
//Storyboard Layer 0 (Background)
//Storyboard Layer 1 (Fail)
//Storyboard Layer 2 (Pass)
//Storyboard Layer 3 (Foreground)
//Storyboard Sound Samples

[TimingPoints]
1057,560.747663551402,4,2,2,50,1,0
10028,-100,4,2,2,40,0,0
12271,-105.263157894737,4,2,2,40,0,0
14514,-100,4,2,2,40,0,0
17318,-105.263157894737,4,2,2,40,0,0
19000,-95.2380952380954,4,2,2,55,0,0
21243,-105.263157894737,4,2,2,55,0,0
23486,-100,4,2,2,55,0,0
27972,-86.9565217391304,4,2,2,65,0,0
30215,-95.2380952380952,4,2,2,65,0,0
31057,-100,4,2,2,65,0,0
31898,-111.111111111111,4,2,2,65,0,0
32458,-105.263157894737,4,2,2,65,0,0
33019,-111.111111111111,4,2,2,65,0,0
34701,-100,4,2,2,65,0,0
36944,-90.9090909090909,4,2,2,70,0,0
39187,-100,4,2,2,70,0,0
41430,-95.2380952380952,4,2,2,70,0,0
50402,-117.647058823529,4,2,2,75,0,0
50963,-117.647058823529,4,2,2,80,0,0
51524,-117.647058823529,4,2,2,85,0,0
52085,-117.647058823529,4,2,2,90,0,0
52645,-76.9230769230769,4,2,2,95,0,1
59374,-71.4285714285714,4,2,2,95,0,1
63860,-76.9230769230769,4,2,2,95,0,1
66103,-71.4285714285714,4,2,2,95,0,1
68346,-83.3333333333333,4,2,2,90,0,1
69468,-83.3333333333333,4,2,2,85,0,1
70589,-100,4,2,2,80,0,0
77318,-111.111111111111,4,2,2,80,0,0
78440,-117.647058823529,4,2,2,80,0,0
79000,-125,4,2,2,80,0,0
79561,-142.857142857143,4,2,2,80,0,0
81804,-100,4,2,2,85,0,0
85169,-105.263157894737,4,2,2,85,0,0
90215,-111.111111111111,4,2,2,85,0,0
90776,-100,4,2,2,80,0,0
91057,-100,4,2,2,85,0,0
91197,-100,4,2,2,90,0,0
91337,-100,4,2,2,95,0,0
91617,-100,4,2,2,90,0,0
91757,-100,4,2,2,95,0,0
91898,-100,4,2,2,100,0,0
92458,-95.2380952380952,4,2,2,100,0,0
93019,-95.2380952380952,4,2,2,85,0,0
95262,-105.263157894737,4,2,2,85,0,0
101991,-100,4,2,2,85,0,0
106477,-100,4,2,2,65,0,0
119655,-142.857142857143,4,2,2,40,0,0
126664,-133.333333333333,4,2,2,50,0,0
127505,-133.333333333333,4,2,2,47,0,0
127645,-133.333333333333,4,2,2,44,0,0
127785,-133.333333333333,4,2,2,41,0,0
127926,-133.333333333333,4,2,2,38,0,0
128066,-133.333333333333,4,2,2,35,0,0
128206,-133.333333333333,4,2,2,32,0,0
128346,-133.333333333333,4,2,2,29,0,0
128486,-133.333333333333,4,2,2,26,0,0
128627,-133.333333333333,4,2,2,23,0,0
128767,-133.333333333333,4,2,2,20,0,0
128907,-125,4,2,2,50,0,0
132832,-133.333333333333,4,2,2,50,0,0
135636,-125,4,2,2,50,0,0
137879,-111.111111111111,4,2,2,60,0,0
142365,-105.263157894737,4,2,2,65,0,0
149374,-105.263157894737,4,2,2,55,0,0
149655,-105.263157894737,4,2,2,60,0,0
149935,-105.263157894737,4,2,2,50,0,0
150496,-105.263157894737,4,2,2,60,0,0
150776,-105.263157894737,4,2,2,70,0,0
151057,-105.263157894737,4,2,2,80,0,0
151337,-71.4285714285714,4,2,2,95,0,1
154982,-71.4285714285714,4,2,2,5,0,1
155262,-71.4285714285714,4,2,2,95,0,1
158066,-66.6666666666667,4,2,2,95,0,1
162552,-71.4285714285714,4,2,2,95,0,1
164094,-71.4285714285714,4,2,2,5,0,1
164234,-71.4285714285714,4,2,2,95,0,1
164795,-68.9655172413793,4,2,2,95,0,1
167038,-74.0740740740741,4,2,2,90,0,1
168159,-74.0740740740741,4,2,2,85,0,1
169281,-71.4285714285714,4,2,2,80,0,0
170963,-66.6666666666667,4,2,2,80,0,0
171524,-62.5,4,2,2,100,0,1
178253,-58.8235294117647,4,2,2,100,0,1
182739,-62.5,4,2,2,100,0,1
184281,-62.5,4,2,2,100,0,1
184421,-62.5,4,2,2,100,0,1
184982,-60.6060606060606,4,2,2,100,0,1
187225,-64.5161290322581,4,2,2,100,0,1
189468,-66.6666666666667,4,2,2,100,0,0
193954,-64.5161290322581,4,2,2,100,0,1
198440,-66.6666666666667,4,2,2,100,0,0
203486,-133.333333333333,4,2,2,100,0,0

[Colours]
Combo1 : 125,30,60
Combo2 : 255,90,200
Combo3 : 0,128,192

[HitObjects]
192,192,1057,5,8,0:1:0:0:
256,320,2458,5,0,0:0:0:0:
256,320,3019,5,0,0:0:0:0:
192,192,3299,1,8,0:1:0:0:
256,320,4701,5,0,0:0:0:0:
256,320,5262,5,0,0:0:0:0:
320,192,5542,2,0,P|386:152|406:147,1,75,8|0,0:1|0:0,0:0:0:0:
483,292,6103,1,0,0:0:0:0:
377,250,6384,1,0,0:0:0:0:
377,250,6664,2,0,L|357:343,2,75,0|0|0,0:0|0:0|0:0,0:0:0:0:
461,137,7505,5,0,0:0:0:0:
320,192,7785,2,0,P|258:202|213:198,1,75,8|0,0:1|0:0,0:0:0:0:
258,48,8346,1,0,0:0:0:0:
172,159,8627,1,0,0:0:0:0:
172,159,8907,2,0,P|137:192|107:215,2,75,0|0|0,0:0|0:0|0:0,0:0:0:0:
31,66,9748,5,0,0:0:0:0:
31,66,10028,2,0,L|17:153,1,75,8|0,0:1|0:0,0:0:0:0:
115,208,10589,2,0,L|129:295,1,75,0|0,0:0|0:0,0:0:0:0:
0,384,11150,5,8,0:1:0:0:
20,239,11430,1,0,0:0:0:0:
127,384,11711,1,0,0:0:0:0:
217,282,11991,1,0,0:0:0:0:
295,384,12271,2,0,B|349:409|387:365|434:381,2,142.49999619484,8|8|0,0:1|0:1|0:0,0:0:0:0:
278,120,13954,5,8,0:1:0:0:
278,120,14234,1,0,0:0:0:0:
278,120,14514,2,0,L|287:208,1,75,8|0,0:1|0:0,0:0:0:0:
448,3,15356,5,0,0:0:0:0:
373,182,15636,1,8,0:1:0:0:
341,54,15916,1,0,0:0:0:0:
476,93,16197,1,0,0:0:0:0:
397,108,16477,1,0,0:0:0:0:
493,212,16757,6,0,L|499:290,1,75,8|0,0:1|0:0,0:0:0:0:
336,316,17318,2,0,L|341:241,1,71.2499980974198,8|0,0:1|0:0,0:0:0:0:
97,44,18440,5,0,0:0:0:0:
97,44,19000,6,0,P|104:110|115:136,1,78.7499975967408,8|0,0:1|0:0,0:0:0:0:
189,231,19561,2,0,P|182:297|171:323,1,78.7499975967408,0|0,0:0|0:0,0:0:0:0:
51,242,20122,5,8,0:1:0:0:
196,143,20402,1,0,0:0:0:0:
257,311,20683,1,0,0:0:0:0:
331,196,20963,1,0,0:0:0:0:
362,319,21243,2,0,P|406:366|490:384,2,142.49999619484,8|8|0,0:1|0:1|0:0,0:0:0:0:
512,139,22926,5,0,0:0:0:0:
512,117,23206,1,0,0:0:0:0:
512,95,23486,2,0,L|506:6,1,75,8|0,0:1|0:0,0:0:0:0:
276,123,24328,5,0,0:0:0:0:
276,123,24608,2,0,P|236:81|215:67,1,75,8|0,0:1|0:0,0:0:0:0:
108,121,25169,2,0,P|148:163|169:177,1,75,0|0,0:0|0:0,0:0:0:0:
100,0,25729,6,0,P|43:13|21:24,2,75,8|0|10,0:1|0:0|0:1,0:0:0:0:
18,112,26571,2,0,L|13:200,1,75,2|2,0:1|0:1,0:0:0:0:
84,280,27131,1,2,0:1:0:0:
252,187,27412,5,8,0:1:0:0:
251,332,27692,1,0,0:0:0:0:
251,332,27832,1,0,0:0:0:0:
251,332,27972,2,0,P|306:381|344:388,1,86.2500016450882,8|0,0:1|0:0,0:0:0:0:
447,268,28533,1,0,0:0:0:0:
326,296,28814,1,0,0:0:0:0:
293,120,29374,5,0,0:0:0:0:
424,0,29655,1,0,0:0:0:0:
401,119,29935,1,0,0:0:0:0:
397,131,30075,1,0,0:0:0:0:
393,143,30215,6,0,P|377:194|370:246,2,78.7499975967408,8|0|0,0:1|0:0|0:0,0:0:0:0:
485,218,31057,2,0,L|502:307,1,75,0|0,0:0|0:0,0:0:0:0:
408,382,31617,1,0,0:0:0:0:
245,247,31898,6,0,P|235:187|224:160,1,67.4999979400635,0|0,0:0|0:0,0:0:0:0:
149,0,32458,2,0,L|132:72,1,71.2499980974198,8|0,0:1|0:0,0:0:0:0:
83,225,33019,2,0,L|67:156,1,67.4999979400635,8|0,0:1|0:0,0:0:0:0:
269,48,33580,5,0,0:0:0:0:
269,48,33860,1,0,0:0:0:0:
310,157,34141,1,0,0:0:0:0:
358,9,34421,1,0,0:0:0:0:
313,180,34701,6,0,B|292:248|341:255|322:326,1,150,8|0,0:1|0:0,0:0:0:0:
386,216,35542,1,8,0:1:0:0:
251,291,35823,2,0,P|212:305|171:303,1,75,8|0,0:1|0:0,0:0:0:0:
44,140,36384,6,0,L|124:150,1,75,8|0,0:1|0:0,0:0:0:0:
30,359,36944,1,8,0:1:0:0:
24,348,37085,1,0,0:0:0:0:
18,336,37225,2,0,P|0:272|1:243,1,82.5000025177003,0|0,0:0|0:0,0:0:0:0:
178,304,37785,1,0,0:0:0:0:
448,204,38346,5,8,0:1:0:0:
360,94,38627,1,8,0:1:0:0:
350,206,38907,1,0,0:1:0:0:
347,216,39047,1,0,0:0:0:0:
344,226,39187,6,0,P|323:277|303:301,2,75,8|0|0,0:1|0:0|0:0,0:0:0:0:
236,110,40028,2,0,L|241:184,1,75,8|8,0:1|0:1,0:0:0:0:
433,359,40870,5,0,0:0:0:0:
433,359,41430,2,0,B|437:301|437:301|445:251|445:251|449:187,1,157.499995193482,8|0,0:1|0:0,0:0:0:0:
390,29,42271,5,8,0:1:0:0:
500,144,42552,1,8,0:1:0:0:
344,162,42832,1,8,0:1:0:0:
411,111,43113,1,8,0:1:0:0:
332,82,43393,1,8,0:1:0:0:
321,249,43673,5,10,0:1:0:0:
256,32,44234,5,10,0:1:0:0:
191,249,44795,5,10,0:1:0:0:
215,0,50402,6,0,L|170:70,1,63.7500012159348,2|2,0:1|0:1,0:0:0:0:
142,118,50823,1,2,0:1:0:0:
127,145,50963,1,2,0:1:0:0:
125,177,51103,1,2,0:1:0:0:
138,205,51243,5,2,0:1:0:0:
162,225,51383,1,2,0:1:0:0:
193,232,51524,5,2,0:1:0:0:
209,258,51665,1,2,0:1:0:0:
212,290,51805,5,2,0:1:0:0:
201,320,51945,1,2,0:1:0:0:
180,344,52085,6,0,L|123:391,1,63.7500012159348,2|2,0:0|0:0,0:0:0:0:
338,221,52645,5,12,0:1:0:0:
428,384,52926,1,0,0:0:0:0:
512,203,53206,1,4,0:0:0:0:
424,269,53486,1,0,0:0:0:0:
403,98,53767,5,2,0:0:0:0:
338,221,54047,1,0,0:0:0:0:
255,30,54328,1,4,0:0:0:0:
364,22,54608,1,0,0:0:0:0:
338,232,54888,6,0,P|292:269|245:283,1,97.4999955368044,2|2,0:0|0:0,0:0:0:0:
173,79,55449,2,0,P|219:42|266:28,1,97.4999955368044,4|0,0:0|0:0,0:0:0:0:
138,205,56010,2,0,P|82:183|47:149,1,97.4999955368044,2|0,0:0|0:0,0:0:0:0:
259,120,56571,5,4,0:0:0:0:
256,281,56851,1,0,0:0:0:0:
107,98,57131,5,10,0:0:0:0:
168,280,57412,1,0,0:0:0:0:
3,229,57692,1,4,0:0:0:0:
91,356,57972,1,0,0:0:0:0:
344,138,58253,5,2,0:0:0:0:
214,204,58533,1,2,0:0:0:0:
357,320,58814,1,4,0:0:0:0:
306,212,59094,1,4,0:0:0:0:
184,365,59374,6,0,P|124:370|72:339,1,104.999996795654,2|0,0:0|0:0,0:0:0:0:
120,194,59935,2,0,P|180:189|232:220,1,104.999996795654,4|0,0:0|0:0,0:0:0:0:
5,349,60496,5,2,0:0:0:0:
151,280,60776,1,2,0:0:0:0:
54,158,61057,1,4,0:0:0:0:
54,158,61337,1,4,0:0:0:0:
271,0,61617,5,12,0:1:0:0:
111,11,61898,1,0,0:0:0:0:
316,107,62178,1,4,0:0:0:0:
179,87,62458,1,0,0:0:0:0:
424,0,62739,5,2,0:0:0:0:
468,181,63019,1,0,0:0:0:0:
348,0,63299,1,4,0:0:0:0:
383,151,63580,1,0,0:0:0:0:
179,87,63860,5,2,0:0:0:0:
179,87,64141,2,0,P|171:142|174:200,2,97.4999955368044,2|4|0,0:0|0:0|0:0,0:0:0:0:
283,192,64982,2,0,L|278:296,1,97.4999955368044,2|0,0:0|0:0,0:0:0:0:
92,384,65542,6,0,P|45:368|6:340,1,97.4999955368044,4|0,0:0|0:0,0:0:0:0:
171,183,66103,2,0,P|195:232|204:286,2,104.999996795654,10|0|4,0:0|0:0|0:0,0:0:0:0:
46,91,66944,5,0,0:0:0:0:
275,112,67225,1,2,0:0:0:0:
154,9,67505,1,2,0:0:0:0:
268,128,67785,1,4,0:0:0:0:
348,0,68066,1,4,0:0:0:0:
430,146,68346,6,0,B|470:227|403:258|440:320,1,179.999994506836,2|4,0:0|0:0,0:0:0:0:
71,320,69468,6,0,B|109:258|42:227|82:146,1,179.999994506836,2|4,0:0|0:0,0:0:0:0:
159,217,70309,1,4,0:0:0:0:
333,176,70589,6,0,L|317:281,1,75,4|0,0:1|0:0,0:0:0:0:
222,356,71150,2,0,L|211:282,1,75,4|0,0:0|0:0,0:0:0:0:
328,374,71711,5,2,0:0:0:0:
234,196,71991,1,2,0:0:0:0:
356,103,72271,1,4,0:0:0:0:
356,103,72552,1,4,0:0:0:0:
143,362,72832,6,0,B|86:341|115:278|59:244,2,150,12|4|2,0:1|0:0|0:0,0:0:0:0:
11,324,74234,5,0,0:0:0:0:
112,167,74514,1,4,0:0:0:0:
176,287,74795,1,0,0:0:0:0:
98,159,75075,6,0,P|86:90|122:7,2,150,10|4|2,0:0|0:0|0:0,0:0:0:0:
193,35,76477,5,0,0:0:0:0:
234,196,76757,1,4,0:0:0:0:
165,113,77038,1,0,0:0:0:0:
336,76,77318,6,0,P|392:53|451:-16,1,134.999995880127,10|4,0:0|0:0,0:0:0:0:
489,191,78159,1,0,0:0:0:0:
489,191,78440,6,0,L|468:270,1,63.7500012159348,10|2,0:0|0:0,0:0:0:0:
328,374,79000,2,0,L|348:294,1,60,12|4,0:0|0:0,0:0:0:0:
234,196,79561,6,0,B|192:174|164:214|133:188,2,104.999996795654,2|4|2,0:0|0:0|0:0,0:0:0:0:
229,360,80963,2,0,P|190:346|163:325,1,52.4999983978272,2|4,0:0|0:0,0:0:0:0:
331,237,81524,1,4,0:0:0:0:
294,93,81804,6,0,B|255:75|242:44|242:44|151:18,1,150,12|4,0:1|0:0,0:0:0:0:
51,127,82645,1,0,0:0:0:0:
87,28,82926,1,2,0:0:0:0:
133,188,83206,5,0,0:0:0:0:
8,57,83486,1,4,0:0:0:0:
0,196,83767,1,0,0:0:0:0:
220,104,84047,6,0,P|280:92|320:98,1,75,2|0,0:0|0:0,0:0:0:0:
391,210,84608,2,0,P|330:221|290:215,1,75,2|0,0:0|0:0,0:0:0:0:
448,96,85169,2,0,P|465:128|475:165,1,71.2499980974198,2|0,0:0|0:0,0:0:0:0:
293,92,85729,2,0,P|275:59|265:22,1,71.2499980974198,4|0,0:0|0:0,0:0:0:0:
469,228,86290,6,0,P|475:334|471:396,1,142.49999619484,10|4,0:0|0:0,0:0:0:0:
391,210,87131,1,0,0:0:0:0:
346,344,87412,1,2,0:0:0:0:
212,186,87692,5,2,0:0:0:0:
366,120,87972,1,4,0:0:0:0:
193,271,88253,1,4,0:0:0:0:
133,85,88533,6,0,P|102:42|60:14,1,71.2499980974198,2|0,0:0|0:0,0:0:0:0:
147,214,89094,2,0,P|177:256|219:284,1,71.2499980974198,2|0,0:0|0:0,0:0:0:0:
212,67,89655,1,2,0:0:0:0:
74,154,89935,1,2,0:0:0:0:
203,46,90215,2,0,P|261:22|294:18,1,67.4999979400635,4|0,0:0|0:0,0:0:0:0:
379,268,90776,5,4,0:1:0:0:
372,194,91057,5,2,0:0:0:0:
375,231,91197,1,2,0:0:0:0:
379,268,91337,1,12,0:0:0:0:
366,120,91617,5,2,0:0:0:0:
369,157,91757,1,2,0:0:0:0:
372,194,91898,2,0,B|380:293,1,75,12|2,0:0|0:0,0:0:0:0:
218,141,92458,2,0,B|209:41,1,78.7499975967408,12|0,0:0|0:0,0:0:0:0:
271,310,93019,6,0,P|222:371|138:380,1,157.499995193482,12|4,0:1|0:0,0:0:0:0:
154,251,93860,1,0,0:0:0:0:
51,368,94141,1,2,0:0:0:0:
0,190,94421,5,0,0:0:0:0:
154,251,94701,1,4,0:0:0:0:
23,282,94982,1,0,0:0:0:0:
147,162,95262,6,0,B|162:108|117:79|144:21,1,142.49999619484,2|2,0:0|0:0,0:0:0:0:
248,59,96103,1,0,0:0:0:0:
64,125,96384,6,0,P|27:78|23:47,1,71.2499980974198,2|0,0:0|0:0,0:0:0:0:
251,72,96944,2,0,P|288:119|292:150,1,71.2499980974198,4|0,0:0|0:0,0:0:0:0:
351,301,97505,6,0,P|400:246|428:160,1,142.49999619484,10|4,0:0|0:0,0:0:0:0:
339,26,98346,2,0,P|327:60|320:98,1,71.2499980974198,0|2,0:0|0:0,0:0:0:0:
506,141,98907,5,2,0:0:0:0:
325,202,99187,1,4,0:0:0:0:
468,283,99468,1,4,0:0:0:0:
303,193,99748,5,2,0:0:0:0:
286,349,100028,1,0,0:0:0:0:
205,147,100309,5,2,0:0:0:0:
250,275,100589,1,0,0:0:0:0:
55,263,100870,5,2,0:0:0:0:
115,153,101150,1,2,0:0:0:0:
119,330,101430,5,4,0:0:0:0:
142,233,101711,1,4,0:0:0:0:
16,153,101991,6,0,P|20:86|67:-1,2,150,2|12|12,0:2|0:0|0:0,0:0:0:0:
180,58,103393,1,2,0:0:0:0:
180,58,103673,2,0,P|250:67|275:74,1,75,12|4,0:0|0:0,0:0:0:0:
399,212,104234,2,0,P|329:203|304:196,1,75,2|0,0:0|0:0,0:0:0:0:
142,233,104795,6,0,P|197:276|220:288,1,75,12|0,0:0|0:0,0:0:0:0:
368,370,105356,5,12,0:0:0:0:
324,201,105636,1,2,0:0:0:0:
190,384,105916,1,12,0:0:0:0:
303,308,106197,1,2,0:0:0:0:
16,153,106477,5,4,0:1:0:0:
192,96,107879,1,2,0:1:0:0:
192,192,108159,1,2,0:1:0:0:
288,45,108440,5,10,0:1:0:0:
506,231,110122,1,2,0:1:0:0:
391,173,110402,1,2,0:1:0:0:
452,333,110683,5,10,0:1:0:0:
249,270,119655,5,0,0:0:0:0:
239,254,119795,1,0,0:0:0:0:
234,236,119935,2,0,P|224:206|220:182,1,52.4999983978272,8|0,0:1|0:0,0:0:0:0:
288,113,120496,2,0,P|297:83|302:59,1,52.4999983978272,0|0,0:0|0:0,0:0:0:0:
183,32,121057,5,0,0:0:0:0:
200,108,121337,1,0,0:0:0:0:
111,8,121617,1,0,0:0:0:0:
94,84,121897,1,0,0:0:0:0:
94,84,122178,6,0,L|82:202,2,104.999996795654,8|8|0,0:1|0:1|0:0,0:0:0:0:
303,264,123860,6,0,P|329:217|336:198,1,52.4999983978272,0|0,0:0|0:0,0:0:0:0:
411,129,124421,2,0,L|416:195,2,52.4999983978272,8|0|0,0:1|0:0|0:0,0:0:0:0:
304,64,125262,5,0,0:0:0:0:
304,64,125542,2,0,P|274:114|234:158,1,104.999996795654,8|0,0:1|0:0,0:0:0:0:
124,243,126384,1,0,0:0:0:0:
341,357,126664,2,0,P|286:368|229:366,1,112.500004291535,8|8,0:1|0:1,0:0:0:0:
328,218,127505,5,2,0:1:0:0:
355,224,127645,1,2,0:1:0:0:
378,234,127785,1,2,0:1:0:0:
397,245,127926,1,2,0:1:0:0:
411,258,128066,1,2,0:1:0:0:
423,269,128206,1,2,0:1:0:0:
431,279,128346,5,10,0:1:0:0:
436,288,128486,1,2,0:1:0:0:
436,296,128627,1,2,0:1:0:0:
436,304,128767,1,2,0:1:0:0:
435,310,128907,6,0,P|434:233|441:189,1,120,8|0,0:1|0:0,0:0:0:0:
510,59,129748,1,0,0:0:0:0:
510,59,130309,6,0,L|453:77,2,60,0|0|0,0:0|0:0|0:0,0:0:0:0:
328,218,131150,1,8,0:1:0:0:
292,124,131430,1,0,0:0:0:0:
250,252,131711,5,0,0:0:0:0:
160,140,131991,2,0,P|142:106|134:75,2,60,0|8|0,0:0|0:1|0:0,0:0:0:0:
114,327,132832,6,0,P|102:363|86:391,1,56.2500021457673,0|0,0:0|0:0,0:0:0:0:
8,178,133393,2,0,P|45:169|77:169,1,56.2500021457673,8|0,0:1|0:0,0:0:0:0:
194,269,133954,2,0,P|222:266|249:259,1,56.2500021457673,8|0,0:1|0:0,0:0:0:0:
273,259,134374,1,0,0:0:0:0:
273,259,134514,1,0,0:0:0:0:
384,384,134795,5,0,0:0:0:0:
413,298,135075,1,0,0:0:0:0:
332,196,135356,1,0,0:0:0:0:
466,108,135636,6,0,P|500:56|502:-9,1,120,8|0,0:1|0:0,0:0:0:0:
321,19,136477,1,8,0:1:0:0:
321,19,136757,2,0,L|316:91,1,60,8|0,0:1|0:0,0:0:0:0:
141,173,137318,6,0,P|143:144|136:101,1,60,8|0,0:1|0:0,0:0:0:0:
6,338,137879,2,0,B|4:309|4:309|11:266,1,67.4999979400635,8|0,0:1|0:0,0:0:0:0:
17,136,138440,5,0,0:0:0:0:
59,69,138720,1,0,0:0:0:0:
150,41,139000,1,0,0:0:0:0:
222,196,139281,5,8,0:1:0:0:
231,58,139561,1,8,0:1:0:0:
322,126,139842,1,8,0:1:0:0:
322,126,140122,6,0,P|378:157|458:178,1,134.999995880127,8|0,0:1|0:0,0:0:0:0:
422,61,140963,1,8,0:1:0:0:
397,246,141243,2,0,L|387:328,1,67.4999979400635,8|0,0:1|0:0,0:0:0:0:
141,173,141804,5,0,0:0:0:0:
141,173,142365,2,0,B|141:224|141:224|150:270|150:270|151:319,1,142.49999619484,8|0,0:1|0:0,0:0:0:0:
12,307,143206,5,8,0:1:0:0:
53,187,143486,1,8,0:1:0:0:
81,351,143767,1,8,0:1:0:0:
221,215,144047,1,8,0:1:0:0:
53,187,144328,1,8,0:1:0:0:
256,384,144608,5,10,0:1:0:0:
256,0,145169,5,10,0:1:0:0:
256,192,145729,5,10,0:1:0:0:
256,192,149094,5,2,0:0:0:0:
194,246,149374,1,2,0:0:0:0:
249,340,149655,1,4,0:0:0:0:
372,220,149935,5,2,0:0:0:0:
372,220,150215,1,2,0:0:0:0:
345,113,150496,1,2,0:0:0:0:
243,63,150776,1,2,0:0:0:0:
112,142,151057,1,2,0:0:0:0:
352,90,151337,6,0,P|418:90|487:102,1,104.999996795654,12|0,0:1|0:0,0:0:0:0:
326,269,151898,2,0,P|279:222|239:165,1,104.999996795654,4|0,0:0|0:0,0:0:0:0:
171,17,152458,5,2,0:0:0:0:
162,186,152739,1,0,0:0:0:0:
21,78,153019,1,4,0:0:0:0:
219,85,153299,1,0,0:0:0:0:
0,219,153580,5,2,0:0:0:0:
113,308,153860,1,2,0:0:0:0:
255,191,154141,2,0,P|310:158|365:144,1,104.999996795654,4|0,0:0|0:0,0:0:0:0:
473,321,154701,6,0,B|492:250|428:235|451:169,1,157.499995193482,2|0,0:0|0:0,0:0:0:0:
460,132,155262,5,4,0:0:0:0:
375,296,155542,1,0,0:0:0:0:
410,67,155823,1,10,0:0:0:0:
373,267,156103,1,0,0:0:0:0:
303,161,156384,1,4,0:0:0:0:
265,320,156664,1,0,0:0:0:0:
103,190,156944,5,2,0:0:0:0:
139,341,157225,1,2,0:0:0:0:
190,154,157505,5,4,0:0:0:0:
71,287,157785,1,4,0:0:0:0:
71,111,158066,6,0,P|131:66|179:53,1,112.500004291535,2|0,0:0|0:0,0:0:0:0:
398,105,158627,2,0,P|338:150|290:163,1,112.500004291535,4|0,0:0|0:0,0:0:0:0:
299,1,159187,5,2,0:0:0:0:
457,35,159468,1,2,0:0:0:0:
512,174,159748,1,4,0:0:0:0:
512,174,160028,1,4,0:0:0:0:
396,384,160309,5,12,0:1:0:0:
404,230,160589,1,0,0:0:0:0:
396,384,160870,1,4,0:0:0:0:
388,230,161150,1,0,0:0:0:0:
179,325,161430,5,2,0:0:0:0:
232,196,161711,1,0,0:0:0:0:
276,384,161991,1,4,0:0:0:0:
137,242,162271,1,0,0:0:0:0:
30,356,162552,6,0,P|19:271|31:213,1,104.999996795654,2|2,0:0|0:0,0:0:0:0:
156,106,163113,2,0,P|157:158|147:209,1,104.999996795654,4|0,0:0|0:0,0:0:0:0:
66,24,163673,2,0,B|141:-5|161:55|218:18,1,157.499995193482,2|0,0:0|0:0,0:0:0:0:
242,0,164234,5,4,0:0:0:0:
258,143,164514,1,0,0:0:0:0:
405,17,164795,2,0,P|464:4|518:-1,1,108.750003318787,10|0,0:0|0:0,0:0:0:0:
432,198,165356,2,0,P|391:153|359:109,1,108.750003318787,4|0,0:0|0:0,0:0:0:0:
66,24,165916,5,2,0:0:0:0:
163,159,166197,1,2,0:0:0:0:
242,0,166477,1,4,0:0:0:0:
183,161,166757,1,4,0:0:0:0:
51,27,167038,6,0,P|26:129|183:162,1,303.750001158714,2|0,0:0|0:0,0:0:0:0:
512,0,168159,6,0,P|537:102|380:135,1,303.750001158714,2|4,0:0|0:0,0:0:0:0:
256,0,169281,6,0,B|221:87|288:128|261:205,1,209.999993591309,4|4,0:1|0:0,0:0:0:0:
183,161,170122,1,0,0:0:0:0:
230,357,170402,6,0,P|298:352|348:330,1,104.999996795654,2|2,0:0|0:0,0:0:0:0:
487,112,170963,2,0,P|419:117|369:139,1,112.500004291535,4|4,0:0|0:0,0:0:0:0:
150,286,171524,5,12,0:1:0:0:
326,82,171804,1,0,0:0:0:0:
331,260,172085,1,4,0:0:0:0:
183,161,172365,1,0,0:0:0:0:
43,338,172645,5,2,0:0:0:0:
55,172,172926,1,0,0:0:0:0:
261,205,173206,5,4,0:0:0:0:
192,65,173487,1,0,0:0:0:0:
395,15,173767,6,0,P|387:98|367:166,1,120,2|2,0:0|0:0,0:0:0:0:
277,323,174328,2,0,P|264:264|260:204,1,120,4|0,0:0|0:0,0:0:0:0:
443,311,174888,6,0,P|369:345|265:314,1,180,2|0,0:0|0:0,0:0:0:0:
249,301,175449,1,4,0:0:0:0:
160,384,175729,1,0,0:0:0:0:
120,237,176010,5,10,0:0:0:0:
235,123,176290,1,0,0:0:0:0:
75,137,176571,1,4,0:0:0:0:
261,205,176851,1,0,0:0:0:0:
115,35,177131,5,2,0:0:0:0:
271,24,177412,1,2,0:0:0:0:
261,205,177692,5,4,0:0:0:0:
351,48,177972,1,4,0:0:0:0:
377,264,178253,6,0,P|395:344|432:410,1,127.50000243187,2|0,0:0|0:0,0:0:0:0:
512,120,178814,2,0,P|494:40|457:-26,1,127.50000243187,4|0,0:0|0:0,0:0:0:0:
438,210,179374,5,2,0:0:0:0:
355,49,179655,1,2,0:0:0:0:
377,264,179935,1,4,0:0:0:0:
377,264,180215,1,4,0:0:0:0:
256,384,180496,5,12,0:1:0:0:
224,192,180776,1,0,0:0:0:0:
128,384,181057,1,4,0:0:0:0:
64,224,181337,1,0,0:0:0:0:
0,384,181617,5,2,0:0:0:0:
64,226,181897,1,0,0:0:0:0:
128,384,182178,1,4,0:0:0:0:
224,192,182458,1,0,0:0:0:0:
311,363,182739,5,2,0:0:0:0:
311,363,183019,2,0,P|337:308|353:247,2,120,2|4|0,0:0|0:0|0:0,0:0:0:0:
224,192,183860,2,0,P|274:123|324:221,1,180,2|0,0:0|0:0,0:0:0:0:
343,187,184421,5,4,0:0:0:0:
361,16,184701,1,0,0:0:0:0:
119,146,184982,2,0,P|40:159|-13:141,1,123.750001180172,10|0,0:0|0:0,0:0:0:0:
65,0,185542,1,4,0:0:0:0:
119,146,185823,5,0,0:0:0:0:
285,5,186103,1,2,0:0:0:0:
343,187,186384,1,2,0:0:0:0:
429,43,186664,1,4,0:0:0:0:
265,96,186944,1,4,0:0:0:0:
372,197,187225,6,0,P|363:275|340:337,1,116.250000886917,2|0,0:0|0:0,0:0:0:0:
142,318,187785,1,4,0:0:0:0:
262,209,188066,1,0,0:0:0:0:
32,186,188346,6,0,P|41:264|64:326,1,116.250000886917,2|2,0:0|0:0,0:0:0:0:
262,307,188906,1,4,0:0:0:0:
142,198,189187,1,4,0:0:0:0:
430,132,189468,5,4,0:1:0:0:
285,5,189748,1,0,0:0:0:0:
441,259,190028,5,4,0:0:0:0:
385,43,190309,1,0,0:0:0:0:
262,209,190589,6,0,P|161:262|62:224,1,225.000008583069,2|4,0:0|0:0,0:0:0:0:
156,107,191430,1,4,0:0:0:0:
352,296,191711,5,4,0:1:0:0:
144,349,191991,1,0,0:0:0:0:
306,142,192271,5,4,0:0:0:0:
241,384,192552,1,0,0:0:0:0:
435,298,192832,6,0,P|415:212|298:141,1,225.000008583069,2|4,0:0|0:0,0:0:0:0:
512,160,193673,1,4,0:0:0:0:
244,34,193954,5,12,0:1:0:0:
99,208,194234,2,0,P|98:147|105:88,1,116.250000886917,0|4,0:0|0:0,0:0:0:0:
262,209,194795,1,0,0:0:0:0:
366,53,195075,5,2,0:0:0:0:
403,196,195356,1,0,0:0:0:0:
362,19,195636,1,4,0:0:0:0:
332,248,195916,1,0,0:0:0:0:
244,34,196197,6,0,P|181:-6|55:66,1,232.500001773834,2|4,0:0|0:0,0:0:0:0:
165,126,197038,1,0,0:0:0:0:
332,248,197318,6,0,P|269:288|143:216,1,232.500001773834,2|4,0:0|0:0,0:0:0:0:
201,384,198159,1,4,0:0:0:0:
457,198,198440,5,10,0:0:0:0:
457,197,198720,1,0,0:0:0:0:
424,384,199000,1,4,0:0:0:0:
424,384,199281,5,0,0:0:0:0:
377,174,199561,1,2,0:0:0:0:
371,384,199842,5,2,0:0:0:0:
422,153,200122,1,4,0:0:0:0:
332,248,200402,1,4,0:0:0:0:
240,80,200683,5,2,0:0:0:0:
241,57,200823,1,0,0:0:0:0:
244,34,200963,5,0,0:0:0:0:
100,125,201243,1,4,0:0:0:0:
100,125,201524,5,0,0:0:0:0:
56,288,201804,1,2,0:0:0:0:
62,106,202085,5,2,0:0:0:0:
110,285,202365,1,4,0:0:0:0:
292,150,202645,5,6,0:1:0:0:
316,164,202785,1,2,0:1:0:0:
340,187,202926,1,2,0:1:0:0:
354,223,203066,1,2,0:1:0:0:
347,267,203206,1,2,0:1:0:0:
315,306,203346,1,2,0:1:0:0:
260,320,203486,6,0,L|156:328,1,84.3750032186509,2|0,0:0|0:0,0:0:0:0:
144,330,204047,5,4,0:0:0:0:
144,330,204608,5,2,0:0:0:0:
