osu file format v14

[General]
AudioFilename: audio.mp3
AudioLeadIn: 0
PreviewTime: 52621
Countdown: 0
SampleSet: Soft
StackLeniency: 0.7
Mode: 0
LetterboxInBreaks: 0
WidescreenStoryboard: 1

[Editor]
DistanceSpacing: 1.5
BeatDivisor: 8
GridSize: 4
TimelineZoom: 3.199999

[Metadata]
Title:Ruru (TV Size)
TitleUnicode:ルル (TV Size)
Artist:Yakushimaru Etsuko
ArtistUnicode:やくしまるえつこ
Creator:DayDreamkwy
Version:Hard
Source:電波女と青春男
Tags:japanese anime ground control to psychoelectric girl denpa onna to seishun otoko kuse kubsnia_zhoyl_ pop lulu
BeatmapID:2552814
BeatmapSetID:1227324

[Difficulty]
HPDrainRate:4
CircleSize:3
OverallDifficulty:5.5
ApproachRate:6.5
SliderMultiplier:1.07
SliderTickRate:1

[Events]
//Background and Video events
0,0,"753903.jpg",0,0
//Break Periods
2,46032,49824
//Storyboard Layer 0 (Background)
//Storyboard Layer 1 (Fail)
//Storyboard Layer 2 (Pass)
//Storyboard Layer 3 (Foreground)
//Storyboard Layer 4 (Overlay)
//Storyboard Sound Samples

[TimingPoints]
1173,560.747663551402,4,2,1,30,1,0
2598,526.315789473684,4,2,1,30,1,0
3419,560.747663551402,4,2,1,30,1,0
4822,540.540540540541,4,2,1,30,1,0
5651,560.747663551402,4,2,1,30,1,0
7883,560.747663551402,4,2,1,30,1,0
12929,-100,4,2,2,30,0,0
13310,560.747663551402,4,2,2,30,1,0
13527,540.540540540541,4,2,2,30,1,0
14067,-100,4,2,1,30,0,0
14612,560.747663551402,4,2,1,30,1,0
17415,-100,4,2,2,30,0,0
17725,560.747663551402,4,2,2,30,1,0
17912,560.747663551402,4,2,2,30,1,0
19098,560.747663551402,4,2,1,30,1,0
19116,-83.3333333333333,4,2,1,30,0,0
21363,560.747663551402,4,2,1,30,1,0
21363,-83.3333333333333,4,2,1,30,0,0
22503,560.747663551402,4,2,1,30,1,0
23062,560.747663551402,4,2,1,30,1,0
23356,560.747663551402,4,2,1,30,1,0
23600,666.666666666667,4,2,1,30,1,0
24197,560.747663551402,4,2,1,30,1,0
24757,-83.3333333333333,4,2,1,30,0,0
25267,574.162679425837,4,2,1,30,1,0
25267,-83.3333333333333,4,2,1,30,0,0
26406,500,4,2,1,30,1,0
26656,545.454545454546,4,2,1,30,1,0
26928,535.714285714286,4,2,1,30,1,0
27195,666.666666666667,4,2,1,30,1,0
27528,560.747663551402,4,2,1,30,1,0
27528,-83.3333333333333,4,2,1,30,0,0
28088,560.747663551402,4,2,1,40,1,0
28088,-83.3333333333333,4,2,3,40,0,0
43789,-83.3333333333333,4,2,2,50,0,0
46032,-133.333333333333,4,2,1,20,0,0
50518,-133.333333333333,4,2,2,35,0,0
51359,-100,4,2,2,45,0,0
52201,-100,4,2,2,65,0,0
52760,-66.6666666666667,4,2,2,80,0,1
69583,-50,4,2,2,80,0,0
70704,-66.6666666666667,4,2,2,80,0,1
77434,-57.1428571428571,4,2,2,80,0,1
78556,-50,4,2,2,80,0,1
79677,-57.1428571428571,4,2,2,80,0,1
81359,-100,4,2,1,80,0,1
81920,-50,4,2,1,80,0,1
82201,-57.1428571428571,4,2,2,80,0,1
83602,-50,4,2,1,80,0,1
83883,-50,4,3,2,50,0,1
84724,-50,4,2,1,80,0,1
85845,-40,4,2,1,80,0,0

[Colours]
Combo1 : 240,240,240
Combo2 : 0,255,255
Combo3 : 255,79,79
Combo4 : 89,172,255

[HitObjects]
160,99,1173,5,2,0:0:0:0:
160,99,2598,2,0,P|208:82|287:87,1,107,2|2,0:0|0:0,0:0:0:0:
346,97,3419,1,2,0:0:0:0:
460,52,4822,2,0,P|481:104|477:168,1,107,2|2,0:0|0:0,0:0:0:0:
441,254,5651,6,0,P|401:241|383:241,1,53.5,2|0,0:0|0:0,0:0:0:0:
303,304,6211,2,0,P|334:331|351:338,1,53.5,2|0,0:0|0:0,0:0:0:0:
451,351,6772,1,2,0:0:0:0:
190,345,7883,6,0,P|175:298|175:277,1,53.5,2|0,0:0|0:0,0:0:0:0:
80,242,8443,2,0,P|90:217|95:191,1,53.5,2|0,0:0|0:0,0:0:0:0:
112,85,9004,1,2,0:0:0:0:
325,32,10125,6,0,L|339:83,1,53.5,2|0,0:0|0:0,0:0:0:0:
318,188,10686,2,0,P|362:190|417:149,1,107,0|2,0:0|0:0,0:0:0:0:
473,67,11527,1,0,0:0:0:0:
509,167,11808,2,0,L|509:231,1,53.5
485,324,12368,6,0,P|448:313|381:327,1,107,2|2,0:0|0:0,0:0:0:0:
263,368,13310,2,0,P|284:359|306:357,1,40,2|2,0:0|0:0,0:0:0:0:
184,278,14067,2,0,P|158:272|130:274,1,53.5,2|0,0:0|0:0,0:0:0:0:
24,271,14612,1,2,0:0:0:0:
82,122,15453,5,2,0:0:0:0:
82,122,15733,2,0,L|88:62,1,53.5,2|0,0:0|0:0,0:0:0:0:
189,25,16294,2,0,L|183:85,1,53.5,0|2,0:0|0:0,0:0:0:0:
237,173,16854,2,0,P|204:194|167:195,2,53.5,2|0|2,0:0|0:0|0:0,0:0:0:0:
291,67,17725,2,0,L|334:88,1,36,2|2,0:0|0:0,0:0:0:0:
464,68,19098,5,4,0:0:0:0:
464,68,19378,1,0,0:0:0:0:
464,68,19658,2,0,L|460:159,1,64.1999980407715,2|0,0:0|0:0,0:0:0:0:
355,200,20219,1,0,0:0:0:0:
355,200,20499,1,0,0:0:0:0:
355,200,20780,2,0,L|434:200,1,64.1999980407715,2|0,0:0|0:0,0:0:0:0:
483,310,21363,2,0,P|471:367|438:332,1,128.399996081543,0|2,0:0|0:0,0:0:0:0:
437,336,22503,1,2,0:0:0:0:
437,336,23062,2,0,L|368:338,1,56.2,2|0,0:0|0:0,0:0:0:0:
180,347,23600,6,0,L|248:332,1,53.5,2|0,0:0|0:0,0:0:0:0:
363,249,24757,2,0,L|235:222,1,117,2|0,0:0|0:0,0:0:0:0:
143,245,25554,1,0,0:0:0:0:
53,279,25841,2,0,P|40:246|38:204,1,64.1999980407715,2|0,0:0|0:0,0:0:0:0:
77,107,26406,1,2,0:0:0:0:
77,107,26656,1,2,0:0:0:0:
77,107,26928,2,0,P|113:105|138:92,1,53.5,2|2,0:0|0:0,0:0:0:0:
271,45,27528,1,2,0:0:0:0:
484,68,27948,6,0,L|476:40,2,16.0499995101929,0|0|6,0:0|0:0|0:0,0:0:0:0:
484,68,28648,1,0,0:0:0:0:
384,167,29489,1,2,0:0:0:0:
511,150,29771,1,2,0:0:0:0:
499,277,30050,1,2,0:0:0:0:
371,294,30331,1,2,0:0:0:0:
371,294,30892,1,0,0:0:0:0:
87,250,32014,6,0,P|152:263|224:238,1,128.399996081543,2|2,0:0|0:0,0:0:0:0:
354,192,33134,1,2,0:0:0:0:
148,172,33695,1,0,0:0:0:0:
261,67,34257,1,2,0:0:0:0:
397,123,34817,1,2,0:0:0:0:
397,123,35097,2,0,B|376:177|376:177|417:254,1,128.399996081543,0|2,0:0|0:0,0:0:0:0:
509,250,35939,1,2,0:0:0:0:
509,250,36499,1,2,0:0:0:0:
391,345,37060,6,0,L|256:346,1,128.399996081543,6|0,0:0|0:0,0:0:0:0:
260,346,37901,1,0,0:0:0:0:
7,346,38461,1,2,0:0:0:0:
7,346,38743,2,0,L|77:346,1,64.1999980407715,2|2,0:0|0:0,0:0:0:0:
151,246,39303,2,0,B|108:221|95:169|95:169|120:117|120:117|165:143,1,192.599994122315,2|2,0:0|0:0,0:0:0:0:
262,211,40425,1,2,0:0:0:0:
262,211,40986,5,2,0:0:0:0:
262,211,41546,2,0,P|318:221|392:205,1,128.399996081543,2|0,0:0|0:0,0:0:0:0:
485,123,42387,1,2,0:0:0:0:
485,123,42668,2,0,L|469:60,2,64.1999980407715,2|2|2,0:0|0:0|0:0,0:0:0:0:
483,251,43509,1,2,0:0:0:0:
361,291,43789,5,2,0:0:0:0:
469,60,44350,1,2,0:0:0:0:
212,79,44911,1,2,0:0:0:0:
256,192,50799,12,0,52201,3:0:0:0:
90,43,52761,6,0,L|69:139,1,80.2500030612947,4|0,0:0|0:0,0:0:0:0:
12,225,53322,2,0,P|52:243|97:244,1,80.2500030612947,8|0,0:1|0:0,0:0:0:0:
209,232,53883,1,4,0:3:0:0:
146,334,54163,1,0,0:0:0:0:
266,324,54444,2,0,P|296:304|344:292,1,80.2500030612947,8|0,0:1|0:0,0:0:0:0:
455,320,55004,5,4,0:3:0:0:
434,210,55285,1,0,0:0:0:0:
434,210,55425,1,0,0:0:0:0:
434,210,55565,2,0,L|432:118,1,80.2500030612947,8|0,0:1|0:0,0:0:0:0:
497,28,56126,1,4,0:3:0:0:
377,41,56406,2,0,L|371:-4,2,40.1250015306473,2|2|2,0:0|0:0|0:0,0:0:0:0:
258,55,56967,1,2,0:0:0:0:
201,162,57247,6,0,P|149:124|54:119,1,160.500006122589,4|8,0:0|0:1,0:0:0:0:
9,234,58088,1,0,0:0:0:0:
9,234,58229,1,0,0:0:0:0:
9,234,58369,1,4,0:3:0:0:
36,351,58649,1,0,0:0:0:0:
157,355,58930,2,0,L|239:340,1,80.2500030612947,8|0,0:1|0:0,0:0:0:0:
356,339,59490,6,0,P|364:255|356:174,1,160.500006122589,4|8,0:3|0:1,0:0:0:0:
349,68,60331,1,0,0:0:0:0:
349,68,60472,1,0,0:0:0:0:
349,68,60612,1,4,0:3:0:0:
244,127,60892,1,4,0:3:0:0:
193,17,61173,2,0,L|98:3,1,80.2500030612947,8|0,0:1|0:0,0:0:0:0:
24,86,61733,6,0,B|-7:153|65:185|8:277,1,160.500006122589,4|8,0:0|0:1,0:0:0:0:
18,367,62574,1,0,0:0:0:0:
18,367,62715,1,0,0:0:0:0:
18,367,62855,2,0,P|60:381|103:376,1,80.2500030612947,4|0,0:3|0:0,0:0:0:0:
109,262,63415,2,0,P|151:248|194:253,1,80.2500030612947,8|0,0:1|0:0,0:0:0:0:
221,261,63836,1,0,0:0:0:0:
221,261,63976,5,4,0:3:0:0:
328,327,64257,1,0,0:0:0:0:
328,327,64537,2,0,P|354:272|332:176,1,160.500006122589,8|4,0:1|0:3,0:0:0:0:
283,80,65378,1,2,0:0:0:0:
283,80,65518,1,2,0:0:0:0:
283,80,65658,2,0,L|371:55,1,80.2500030612947,2|2,1:2|0:0,0:0:0:0:
505,157,66219,6,0,L|417:132,2,80.2500030612947,4|0|8,0:3|0:0|0:1,0:0:0:0:
456,267,67060,1,0,0:0:0:0:
336,251,67341,1,4,0:3:0:0:
252,172,67621,1,0,0:0:0:0:
252,172,67901,2,0,B|224:134|172:116,1,80.2500030612947,8|0,0:1|0:0,0:0:0:0:
44,163,68462,22,0,B|27:323|27:323|129:328,1,240.750009183884,12|0,0:3|0:0,0:0:0:0:
218,196,69584,2,0,B|205:269|257:342|257:342|328:302|331:193,1,321,4|0,0:3|0:3,0:0:0:0:
363,78,70705,5,6,0:1:0:0:
426,180,70986,1,2,0:1:0:0:
491,79,71266,2,0,L|469:2,1,80.2500030612947,10|2,0:1|0:1,0:0:0:0:
363,78,71827,2,2,L|201:61,1,160.500006122589,2|8,0:1|0:1,0:1:0:0:
35,277,72948,5,6,0:1:0:0:
43,157,73229,1,2,0:1:0:0:
139,228,73509,2,0,B|182:225|182:225|215:208,1,80.2500030612947,10|2,0:1|0:1,0:0:0:0:
296,119,74070,2,2,B|334:193|334:193|311:277,1,160.500006122589,2|8,0:1|0:1,0:1:0:0:
313,267,74911,1,4,0:3:0:0:
204,216,75191,6,0,L|228:321,1,80.2500030612947,4|0,0:0|0:0,0:0:0:0:
127,369,75752,1,8,0:1:0:0:
221,294,76032,1,0,0:0:0:0:
316,367,76313,2,0,L|395:384,1,80.2500030612947,4|0,0:3|0:0,0:0:0:0:
478,297,76873,2,0,L|399:279,1,80.2500030612947,8|0,0:1|0:0,0:0:0:0:
417,171,77434,6,0,B|451:101|513:167|578:10|459:-68|387:23,1,327.687503125072,4|0,0:3|0:0,0:0:0:0:
386,23,78556,2,0,B|282:-26|208:94|335:206|363:119|420:173,1,321,4|0,0:3|0:0,0:0:0:0:
399,277,79677,5,4,0:0:0:0:
399,277,79958,2,0,L|354:287,2,46.8125004464388,2|0|0,0:0|0:0|0:0,0:0:0:0:
509,364,80518,2,0,L|463:373,2,46.8125004464388,2|0|0,0:0|0:0|0:0,0:0:0:0:
373,384,81079,1,2,0:0:0:0:
373,384,81359,1,4,0:0:0:0:
44,238,81920,5,4,0:0:0:0:
44,238,82201,2,0,L|-19:223,2,46.8125004464388,2|0|0,0:0|0:0|0:0,0:0:0:0:
158,157,82761,2,0,L|95:142,2,46.8125004464388,2|0|0,0:0|0:0|0:0,0:0:0:0:
103,33,83322,1,2,0:0:0:0:
103,33,83602,1,4,0:0:0:0:
261,7,83883,6,0,L|310:2,8,26.75
425,12,84724,5,2,0:0:0:0:
425,12,85285,5,2,0:0:0:0:
367,276,85845,6,0,L|425:286,1,33.4375,4|0,0:3|0:0,0:0:0:0:
