osu file format v14

[General]
AudioFilename: ruru.mp3
AudioLeadIn: 0
PreviewTime: 51105
Countdown: 0
SampleSet: Soft
StackLeniency: 0.7
Mode: 0
LetterboxInBreaks: 0
WidescreenStoryboard: 0

[Editor]
DistanceSpacing: 1.2
BeatDivisor: 4
GridSize: 8
TimelineZoom: 0.6999999

[Metadata]
Title:Lulu (tv-size)
TitleUnicode:ルル(tv-size)
Artist:Yakushimaru Etsuko
ArtistUnicode:やくしまるえつこ
Creator:Lyric
Version:Normal
Source:電波女と青春男
Tags:Denpa Onna to Seishun Otoko Electrowave Girl and Youthful Boy Light novel Buriki 入間人間 Hitoma Iruma ASCII Media Works 丹羽真 Niwa Makoto 藤和エリオ 藤和女々 Towa Touwa Erio Meme 御船流子 Mifune Ryuuko 前川 Maekawa 星宮社 Hoshimiya Yashiro ED ending TV Size tvsize
BeatmapID:888103
BeatmapSetID:409023

[Difficulty]
HPDrainRate:2
CircleSize:3
OverallDifficulty:3
ApproachRate:4
SliderMultiplier:0.9
SliderTickRate:1

[Events]
//Background and Video events
0,0,"TE9.jpg",0,0
//Break Periods
//Storyboard Layer 0 (Background)
//Storyboard Layer 1 (Fail)
//Storyboard Layer 2 (Pass)
//Storyboard Layer 3 (Foreground)
//Storyboard Sound Samples

[TimingPoints]
95,560.747663551402,4,2,1,13,1,0
1520,526.315789473684,4,2,1,13,1,0
2341,560.747663551402,4,2,1,13,1,0
3744,540.540540540541,4,2,1,13,1,0
4573,560.747663551402,4,2,1,13,1,0
6008,521.739130434783,4,2,1,13,1,0
6805,560.747663551402,4,2,1,13,1,0
8238,521.739130434783,4,2,1,13,1,0
9048,560.747663551402,4,2,1,13,1,0
12232,560.747663551402,4,2,1,13,1,0
12449,540.540540540541,4,2,1,13,1,0
13534,560.747663551402,4,2,1,13,1,0
16647,560.747663551402,4,2,1,13,1,0
16834,560.747663551402,4,2,1,13,1,0
18020,560.747663551402,4,2,1,13,1,0
20285,560.747663551402,4,2,1,13,1,0
21425,560.747663551402,4,2,1,13,1,0
21984,560.747663551402,4,2,1,13,1,0
22278,560.747663551402,4,2,1,13,1,0
22522,666.666666666667,4,2,1,13,1,0
23119,560.747663551402,4,2,1,13,1,0
24189,574.162679425837,4,2,1,13,1,0
25337,480,4,2,1,13,1,0
25847,517.241379310345,4,2,1,13,1,0
26444,560.747663551402,4,2,1,13,1,0
26852,560.747663551402,4,2,1,13,1,0
26992,560.747663551402,4,2,1,18,1,0
44936,-100,4,2,1,13,0,0
51664,-89.2857142857143,4,2,1,40,0,1
69608,-89.2857142857143,4,2,1,35,0,0

[Colours]
Combo1 : 64,168,0
Combo2 : 0,168,64
Combo3 : 0,64,168
Combo4 : 0,128,128

[HitObjects]
325,149,95,5,2,0:0:0:0:
325,149,1520,2,0,P|325:193|329:255,1,90
332,292,2341,5,2,0:0:0:0:
68,349,3744,2,0,P|68:305|64:243,1,90
50,207,4573,6,0,L|57:142,1,45,2|0,0:0|0:0,0:0:0:0:
60,108,5133,2,0,L|50:53,2,45,8|0|0,0:0|0:0|0:0,0:0:0:0:
258,23,6805,6,0,L|323:30,1,45,2|0,0:0|0:0,0:0:0:0:
350,53,7365,2,0,L|412:50,1,45,8|0,0:0|0:0,0:0:0:0:
446,33,7927,1,0,0:0:0:0:
341,221,9048,6,0,P|336:251|343:282,1,45,2|0,0:0|0:0,0:0:0:0:
363,312,9609,2,0,L|258:309,1,90,8|0,0:0|0:0,0:0:0:0:
219,319,10450,1,0,0:0:0:0:
168,338,10731,2,0,L|174:278,1,45,8|0,0:0|0:0,0:0:0:0:
160,240,11291,2,0,P|157:203|191:147,1,90,2|8,0:0|0:0,0:0:0:0:
1,20,12989,1,0,0:0:0:0:
23,125,13534,5,2,0:0:0:0:
106,56,14094,2,0,L|161:50,1,45,8|0,0:0|0:0,0:0:0:0:
197,78,14656,2,0,P|243:92|300:74,1,90,0|8,0:0|0:0,0:0:0:0:
327,52,15497,1,0,0:0:0:0:
376,74,15777,2,0,L|395:172,1,90,2|8,0:0|0:0,0:0:0:0:
103,307,18020,6,0,P|156:304|211:309,1,90,2|8,0:0|0:0,0:0:0:0:
241,330,18862,1,0,0:0:0:0:
292,313,19142,2,0,L|301:258,1,45
280,217,19703,2,0,L|276:168,1,45,8|0,0:0|0:0,0:0:0:0:
294,121,20285,2,0,L|302:22,2,90,2|8|0,0:0|0:0|0:0,0:0:0:0:
194,162,21985,2,0,L|129:165,1,45,8|0,0:0|0:0,0:0:0:0:
112,143,22522,5,2,0:0:0:0:
29,216,23119,2,0,P|7:184|10:119,1,90,8|0,0:0|0:0,0:0:0:0:
60,42,24189,1,8,0:0:0:0:
150,85,24763,1,2,0:0:0:0:
238,34,25337,2,0,L|296:27,1,45,8|0,0:0|0:0,0:0:0:0:
313,75,25847,2,0,L|376:66,1,45
433,98,26444,1,8,0:0:0:0:
504,17,26992,5,2,0:0:0:0:
401,266,28394,2,0,L|445:274,2,45,0|8|0,0:0|0:0|0:0,0:0:0:0:
351,245,29235,2,0,L|364:352,2,90,2|8|0,0:0|0:0|0:0,0:0:0:0:
242,239,30918,2,0,P|207:237|187:245,1,45,8|0,0:0|0:0,0:0:0:0:
159,277,31478,6,0,P|133:307|65:317,1,90,2|8,0:0|0:0,0:0:0:0:
71,213,32600,1,0,0:0:0:0:
124,119,33161,1,8,0:0:0:0:
24,76,33721,1,2,0:0:0:0:
181,37,34562,1,0,0:0:0:0:
224,69,34843,2,0,L|280:75,1,45
322,82,35404,1,8,0:0:0:0:
426,56,35964,6,0,P|417:103|417:156,1,90,2|8,0:0|0:0,0:0:0:0:
426,198,36805,1,0,0:0:0:0:
374,293,37366,2,0,L|383:346,2,45,0|8|0,0:0|0:0|0:0,0:0:0:0:
332,258,38207,2,0,B|271:257|271:257|229:269,1,90,2|8,0:0|0:0,0:0:0:0:
176,350,39329,1,0,0:0:0:0:
91,282,39890,1,8,0:0:0:0:
158,196,40450,5,2,0:0:0:0:
305,129,41291,2,0,L|312:179,2,45
258,101,42133,2,0,P|235:108|203:105,1,45,8|0,0:0|0:0,0:0:0:0:
163,89,42693,5,2,0:0:0:0:
64,45,43254,1,8,0:0:0:0:
2,134,43815,1,0,0:0:0:0:
118,315,44936,6,0,P|149:320|174:313,1,45,2|0,0:0|0:0,0:0:0:0:
207,288,45497,2,0,P|229:285|251:290,1,45,8|0,0:0|0:0,0:0:0:0:
296,320,46058,1,0,0:0:0:0:
349,320,46338,2,0,L|410:320,1,45,8|8,0:0|0:0,0:0:0:0:
443,223,47179,6,0,P|439:197|425:171,1,45
382,156,47740,2,0,P|353:157|332:149,1,45,8|0,0:0|0:0,0:0:0:0:
292,122,48301,1,0,0:0:0:0:
240,136,48581,2,0,L|189:136,1,45,8|8,0:0|0:0,0:0:0:0:
87,132,49421,6,0,P|24:87|145:50,1,270
195,136,51664,6,0,L|192:246,1,100.800001230469,4|8,0:0|0:0,0:0:0:0:
76,271,52787,2,0,L|79:161,1,100.800001230469,2|8,0:0|0:0,0:0:0:0:
45,119,53628,1,0,0:0:0:0:
87,76,53908,2,0,P|135:58|172:4,2,100.800001230469,4|8|2,0:0|0:0|0:0,0:0:0:0:
133,188,55591,2,0,L|191:183,1,50.4000006152344,8|0,0:0|0:0,0:0:0:0:
228,143,56151,6,0,P|276:137|343:156,1,100.800001230469,4|8,0:0|0:0,0:0:0:0:
387,254,57273,2,0,P|339:260|272:241,1,100.800001230469,2|8,0:0|0:0,0:0:0:0:
228,241,58114,1,0,0:0:0:0:
178,275,58394,2,0,L|188:162,1,100.800001230469,4|8,0:0|0:0,0:0:0:0:
160,56,59516,1,2,0:0:0:0:
276,90,60077,2,0,L|335:82,1,50.4000006152344,8|0,0:0|0:0,0:0:0:0:
372,45,60637,6,0,L|483:57,1,100.800001230469,4|8,0:0|0:0,0:0:0:0:
507,171,61759,2,0,L|396:159,1,100.800001230469,2|8,0:0|0:0,0:0:0:0:
353,188,62600,1,0,0:0:0:0:
368,246,62880,2,0,P|373:268|365:308,1,50.4000006152344,4|0,0:0|0:0,0:0:0:0:
322,332,63441,2,0,B|266:318|266:318|215:324,1,100.800001230469,8|2,0:0|0:0,0:0:0:0:
115,375,64562,2,0,P|119:346|114:316,1,50.4000006152344,8|0,0:0|0:0,0:0:0:0:
72,283,65123,6,0,L|83:173,1,100.800001230469,4|8,0:0|0:0,0:0:0:0:
61,63,66245,2,0,L|-3:69,2,50.4000006152344,2|0|8,0:0|0:0|0:0,0:0:0:0:
110,28,67086,1,0,0:0:0:0:
162,57,67366,2,0,P|194:80|276:81,1,100.800001230469,4|8,0:0|0:0,0:0:0:0:
363,35,68488,2,0,L|352:153,1,100.800001230469,2|8,0:0|0:0,0:0:0:0:
393,249,69609,6,0,L|332:278,1,50.4000006152344,4|0,0:0|0:0,0:0:0:0:
287,262,70170,2,0,L|230:257,1,50.4000006152344,8|0,0:0|0:0,0:0:0:0:
177,269,70731,1,2,0:0:0:0:
58,291,71291,2,0,P|55:257|63:232,1,50.4000006152344,8|0,0:0|0:0,0:0:0:0:
92,190,71852,6,0,L|77:126,1,50.4000006152344,4|0,0:0|0:0,0:0:0:0:
63,82,72413,2,0,L|131:75,1,50.4000006152344,8|0,0:0|0:0,0:0:0:0:
173,70,72974,1,2,0:0:0:0:
265,147,73534,2,0,L|262:203,1,50.4000006152344,8|0,0:0|0:0,0:0:0:0:
223,244,74095,6,0,P|220:296|253:348,1,100.800001230469,4|8,0:0|0:0,0:0:0:0:
341,268,75217,2,0,L|448:259,1,100.800001230469,2|8,0:0|0:0,0:0:0:0:
486,218,76058,1,0,0:0:0:0:
462,162,76338,2,0,B|448:102|448:102|450:57,1,100.800001230469,4|8,0:0|0:0,0:0:0:0:
341,8,77460,2,0,L|333:122,1,100.800001230469,2|8,0:0|0:0,0:0:0:0:
242,188,78581,6,0,L|218:121,2,50.4000006152344,4|0|8,0:0|0:0|0:0,0:0:0:0:
251,247,79422,1,0,0:0:0:0:
219,298,79703,2,0,P|186:310|162:307,1,50.4000006152344,2|8,0:0|0:0,0:0:0:0:
114,289,80263,1,8,0:0:0:0:
30,201,80824,6,0,L|12:269,2,50.4000006152344,4|0|8,0:0|0:0|0:0,0:0:0:0:
13,142,81665,1,0,0:0:0:0:
47,92,81946,2,0,L|106:104,1,50.4000006152344,2|8,0:0|0:0,0:0:0:0:
155,115,82506,1,8,0:0:0:0:
313,298,83628,6,0,L|330:189,1,100.800001230469,2|2,0:0|0:0,0:0:0:0:
351,79,84749,1,2,0:0:0:0:
