osu file format v14

[General]
AudioFilename: ruru.mp3
AudioLeadIn: 0
PreviewTime: 51105
Countdown: 0
SampleSet: Soft
StackLeniency: 0.7
Mode: 0
LetterboxInBreaks: 0
WidescreenStoryboard: 0

[Editor]
DistanceSpacing: 1.8
BeatDivisor: 4
GridSize: 8
TimelineZoom: 0.6999999

[Metadata]
Title:Lulu (tv-size)
TitleUnicode:ルル(tv-size)
Artist:Yakushimaru Etsuko
ArtistUnicode:やくしまるえつこ
Creator:Lyric
Version:Insane
Source:電波女と青春男
Tags:Denpa Onna to Seishun Otoko Electrowave Girl and Youthful Boy Light novel Buriki 入間人間 Hitoma Iruma ASCII Media Works 丹羽真 Niwa Makoto 藤和エリオ 藤和女々 Towa Touwa Erio Meme 御船流子 Mifune Ryuuko 前川 Maekawa 星宮社 Hoshimiya Yashiro ED ending TV Size tvsize
BeatmapID:888006
BeatmapSetID:409023

[Difficulty]
HPDrainRate:4
CircleSize:4
OverallDifficulty:6
ApproachRate:7
SliderMultiplier:1
SliderTickRate:1

[Events]
//Background and Video events
0,0,"TE9.jpg",0,0
//Break Periods
//Storyboard Layer 0 (Background)
//Storyboard Layer 1 (Fail)
//Storyboard Layer 2 (Pass)
//Storyboard Layer 3 (Foreground)
//Storyboard Sound Samples

[TimingPoints]
95,560.747663551402,4,2,1,13,1,0
1520,526.315789473684,4,2,1,13,1,0
2341,560.747663551402,4,2,1,13,1,0
3744,540.540540540541,4,2,1,13,1,0
4573,560.747663551402,4,2,1,13,1,0
6008,521.739130434783,4,2,1,13,1,0
6805,560.747663551402,4,2,1,13,1,0
8238,521.739130434783,4,2,1,13,1,0
9048,560.747663551402,4,2,1,13,1,0
12232,560.747663551402,4,2,1,13,1,0
12449,540.540540540541,4,2,1,13,1,0
13534,560.747663551402,4,2,1,13,1,0
16647,560.747663551402,4,2,1,13,1,0
16834,560.747663551402,4,2,1,13,1,0
18020,560.747663551402,4,2,1,13,1,0
20285,560.747663551402,4,2,1,13,1,0
21425,560.747663551402,4,2,1,13,1,0
21984,560.747663551402,4,2,1,13,1,0
22278,560.747663551402,4,2,1,13,1,0
22522,666.666666666667,4,2,1,13,1,0
23119,560.747663551402,4,2,1,13,1,0
24189,574.162679425837,4,2,1,13,1,0
25337,480,4,2,1,13,1,0
25847,517.241379310345,4,2,1,13,1,0
26444,560.747663551402,4,2,1,13,1,0
26852,560.747663551402,4,2,1,13,1,0
26992,560.747663551402,4,2,1,18,1,0
44936,-100,4,2,1,13,0,0
51664,-66.6666666666667,4,2,1,40,0,1
69608,-66.6666666666667,4,1,0,35,0,0
69889,-66.6666666666667,4,2,1,35,0,0
70169,-66.6666666666667,4,1,0,25,0,0
70449,-66.6666666666667,4,2,1,35,0,0
70730,-66.6666666666667,4,1,0,25,0,0
71571,-66.6666666666667,4,2,1,35,0,0
71851,-66.6666666666667,4,1,0,35,0,0
72132,-66.6666666666667,4,2,1,35,0,0
72412,-66.6666666666667,4,1,0,25,0,0
72692,-66.6666666666667,4,2,1,35,0,0
72973,-66.6666666666667,4,1,0,25,0,0
73253,-66.6666666666667,4,2,1,35,0,0
74094,-66.6666666666667,4,1,0,25,0,0
74375,-66.6666666666667,4,2,1,35,0,0

[Colours]
Combo1 : 64,168,0
Combo2 : 0,168,64
Combo3 : 0,64,168
Combo4 : 0,128,128

[HitObjects]
151,297,95,5,2,0:0:0:0:
178,288,1520,2,0,B|203:282|221:264|221:264|239:282|280:288,1,100
340,252,2341,5,2,0:0:0:0:
352,226,3744,2,0,B|345:198|355:166|355:166|326:131,1,100
366,46,4573,6,0,P|337:49|298:37,1,50,2|0,0:0|0:0,0:0:0:0:
230,58,5133,2,0,L|166:59,1,50,8|0,0:0|0:0,0:0:0:0:
97,32,5695,1,0,0:0:0:0:
127,126,6008,2,0,P|132:189|119:243,1,100
31,282,6805,6,0,L|29:228,1,50,2|0,0:0|0:0,0:0:0:0:
113,319,7365,2,0,L|106:385,1,50,8|0,0:0|0:0,0:0:0:0:
190,274,7927,1,0,0:0:0:0:
263,321,8238,2,0,L|381:314,1,100
496,299,9048,6,0,P|501:324|495:357,2,50,2|0|8,0:0|0:0|0:0,0:0:0:0:
399,215,10170,2,0,L|405:152,1,50
451,100,10731,1,8,0:0:0:0:
451,100,11011,1,0,0:0:0:0:
350,48,11291,6,0,P|288:52|235:44,1,100,2|8,0:0|0:0,0:0:0:0:
116,54,12232,1,0,0:0:0:0:
137,84,12449,2,0,L|147:198,1,100,0|8,0:0|0:0,0:0:0:0:
21,326,13534,5,2,0:0:0:0:
171,272,14095,1,8,0:0:0:0:
222,333,14376,1,0,0:0:0:0:
292,295,14656,2,0,B|288:266|288:266|317:288|354:290,1,100,0|8,0:0|0:0,0:0:0:0:
424,253,15497,1,0,0:0:0:0:
360,172,15777,6,0,L|351:56,1,100,2|8,0:0|0:0,0:0:0:0:
426,25,16647,1,0,0:0:0:0:
454,38,16834,1,0,0:0:0:0:
280,104,18020,6,0,L|216:104,1,50,2|0,0:0|0:0,0:0:0:0:
152,104,18581,1,8,0:0:0:0:
42,55,19142,2,0,P|52:26|48:-5,2,50,0|0|8,0:0|0:0|0:0,0:0:0:0:
6,126,19983,1,0,0:0:0:0:
62,183,20285,2,0,P|73:224|46:292,1,100
207,228,21425,1,0,0:0:0:0:
278,371,21984,1,8,0:0:0:0:
263,292,22278,1,0,0:0:0:0:
338,265,22522,6,0,P|377:267|404:257,1,50,2|0,0:0|0:0,0:0:0:0:
439,203,23119,2,0,L|429:98,1,100,8|0,0:0|0:0,0:0:0:0:
429,103,24189,1,8,0:0:0:0:
305,194,24763,5,2,0:0:0:0:
240,145,25050,1,0,0:0:0:0:
185,207,25337,2,0,L|196:275,1,50,8|0,0:0|0:0,0:0:0:0:
124,293,25847,1,0,0:0:0:0:
59,244,26105,1,0,0:0:0:0:
7,156,26444,1,8,0:0:0:0:
87,56,26852,6,0,L|83:39,2,12.5,0|0|2,0:0|0:0|0:0,0:0:0:0:
166,98,27273,1,0,0:0:0:0:
237,43,27553,1,8,0:0:0:0:
323,66,27834,1,0,0:0:0:0:
428,240,28394,2,0,L|497:233,2,50,0|8|0,0:0|0:0|0:0,0:0:0:0:
379,302,29095,6,0,L|386:320,2,12.5,0|0|2,0:0|0:0|0:0,0:0:0:0:
299,259,29516,1,0,0:0:0:0:
232,318,29796,1,8,0:0:0:0:
147,286,30077,1,0,0:0:0:0:
53,326,30357,2,0,L|54:260,1,50
93,195,30918,1,8,0:0:0:0:
93,195,31478,5,2,0:0:0:0:
42,119,31759,1,0,0:0:0:0:
174,155,32039,1,8,0:0:0:0:
174,155,32600,2,0,P|238:153|290:157,1,100,0|8,0:0|0:0,0:0:0:0:
356,190,33441,1,0,0:0:0:0:
422,129,33720,6,0,L|417:102,3,16.6666666666667,2|0|0|0,0:0|0:0|0:0|0:0,0:0:0:0:
422,129,34562,1,0,0:0:0:0:
301,88,34843,2,0,P|301:117|303:144,1,50
254,227,35404,1,8,0:0:0:0:
106,290,35893,6,0,L|126:287,2,12.5,2|0|0,0:0|0:0|0:0,0:0:0:0:
64,212,36245,1,0,0:0:0:0:
130,151,36525,1,8,0:0:0:0:
205,199,36805,1,0,0:0:0:0:
311,328,37366,1,0,0:0:0:0:
391,286,37647,2,0,P|401:260|398:222,1,50,8|0,0:0|0:0,0:0:0:0:
353,162,38207,6,0,L|342:50,2,100,2|8|0,0:0|0:0|0:0,0:0:0:0:
353,162,39890,1,8,0:0:0:0:
130,151,40450,5,2,0:0:0:0:
130,151,41291,1,0,0:0:0:0:
167,69,41572,1,0,0:0:0:0:
223,138,41852,1,0,0:0:0:0:
202,266,42133,2,0,P|189:242|186:211,1,50,8|0,0:0|0:0,0:0:0:0:
343,237,42692,5,2,0:0:0:0:
367,238,43254,1,8,0:0:0:0:
392,239,43815,1,0,0:0:0:0:
417,241,44936,5,2,0:0:0:0:
378,159,45217,1,8,0:0:0:0:
378,159,45357,1,8,0:0:0:0:
378,159,45497,1,0,0:0:0:0:
406,12,45777,1,0,0:0:0:0:
445,95,46058,1,0,0:0:0:0:
378,159,46338,1,8,0:0:0:0:
297,114,46619,1,8,0:0:0:0:
95,143,47179,5,2,0:0:0:0:
134,225,47460,1,8,0:0:0:0:
134,225,47600,1,8,0:0:0:0:
134,225,47740,1,0,0:0:0:0:
106,372,48020,1,0,0:0:0:0:
67,289,48301,1,0,0:0:0:0:
134,225,48581,1,8,0:0:0:0:
215,270,48862,1,8,0:0:0:0:
256,192,49421,12,0,51104,0:0:0:0:
208,265,51664,6,0,L|119:255,1,75.0000028610231,4|0,0:0|0:0,0:0:0:0:
321,259,52225,2,0,P|317:301|285:345,1,75.0000028610231,8|0,0:0|0:0,0:0:0:0:
284,144,52786,1,2,0:0:0:0:
407,177,53066,1,0,0:0:0:0:
375,55,53347,1,8,0:0:0:0:
375,55,53627,1,0,0:0:0:0:
284,144,53907,5,4,0:0:0:0:
187,62,54189,2,0,L|182:13,2,37.5000014305115,0|0|8,0:0|0:0|0:0,0:0:0:0:
284,144,54749,2,0,P|283:167|275:186,1,37.5000014305115
215,238,55030,2,0,L|120:212,1,75.0000028610231,2|0,0:0|0:0,0:0:0:0:
66,187,55450,1,0,0:0:0:0:
12,250,55591,2,0,P|16:294|45:329,1,75.0000028610231,8|0,0:0|0:0,0:0:0:0:
215,238,56151,6,0,L|223:136,1,75.0000028610231,4|0,0:0|0:0,0:0:0:0:
244,5,56712,1,8,0:0:0:0:
155,75,56992,1,0,0:0:0:0:
220,163,57273,2,0,P|257:168|312:143,1,75.0000028610231,2|0,0:0|0:0,0:0:0:0:
376,94,57834,1,8,0:0:0:0:
473,131,58114,1,0,0:0:0:0:
305,231,58394,6,0,L|291:154,2,75.0000028610231,4|0|8,0:0|0:0|0:0,0:0:0:0:
397,281,59235,2,0,L|392:325,1,37.5000014305115
323,364,59516,2,0,P|277:344|235:347,1,75.0000028610231,2|0,0:0|0:0,0:0:0:0:
177,377,59936,1,0,0:0:0:0:
112,324,60077,2,0,L|120:222,1,75.0000028610231,8|0,0:0|0:0,0:0:0:0:
316,148,60637,6,0,P|277:156|221:140,1,75.0000028610231,4|0,0:0|0:0,0:0:0:0:
82,89,61197,2,0,P|121:81|177:97,1,75.0000028610231,8|0,0:0|0:0,0:0:0:0:
122,208,61758,1,2,0:0:0:0:
171,72,62038,1,0,0:0:0:0:
311,111,62319,1,8,0:0:0:0:
311,111,62599,1,0,0:0:0:0:
410,5,62880,5,4,0:0:0:0:
493,124,63161,2,0,P|491:146|480:171,1,37.5000014305115
423,213,63441,2,0,L|346:213,1,75.0000028610231,8|0,0:0|0:0,0:0:0:0:
269,239,63862,1,0,0:0:0:0:
224,169,64002,2,0,P|241:136|240:79,1,75.0000028610231,2|0,0:0|0:0,0:0:0:0:
179,47,64422,1,0,0:0:0:0:
122,107,64562,2,0,L|38:112,1,75.0000028610231,8|0,0:0|0:0,0:0:0:0:
59,350,65123,6,0,P|72:309|56:256,1,75.0000028610231,4|0,0:0|0:0,0:0:0:0:
198,288,65684,2,0,L|307:286,1,75.0000028610231,8|0,0:0|0:0,0:0:0:0:
439,369,66245,2,0,P|392:355|363:325,1,75.0000028610231,2|0,0:0|0:0,0:0:0:0:
360,155,66805,2,0,L|369:247,1,75.0000028610231,8|0,0:0|0:0,0:0:0:0:
445,54,67366,6,0,P|392:22|304:38,2,150.000005722046,4|8|2,0:0|0:0|0:0,0:0:0:0:
360,155,68768,2,0,L|364:200,2,37.5000014305115,0|0|8,0:0|0:0|0:0,0:0:0:0:
257,144,69329,2,0,P|235:147|212:144,1,37.5000014305115
135,91,69608,5,6,0:0:0:0:
93,250,69890,1,0,0:0:0:0:
220,146,70170,1,8,0:0:0:0:
56,155,70450,1,0,0:0:0:0:
194,244,70731,1,2,0:0:0:0:
204,35,71291,5,8,0:0:0:0:
254,144,71572,2,0,P|276:147|299:144,1,37.5000014305115
377,91,71852,5,6,0:0:0:0:
419,250,72133,1,0,0:0:0:0:
292,146,72413,1,8,0:0:0:0:
456,155,72693,1,0,0:0:0:0:
318,244,72974,1,2,0:0:0:0:
171,166,73254,1,0,0:0:0:0:
171,166,73394,1,0,0:0:0:0:
171,166,73534,2,0,P|150:233|160:265,1,75.0000028610231,8|0,0:0|0:0,0:0:0:0:
227,381,74095,5,4,0:0:0:0:
318,244,74376,1,0,0:0:0:0:
171,166,74656,2,0,B|169:148|169:148|177:108|177:108|173:88,1,75.0000028610231,8|0,0:0|0:0,0:0:0:0:
312,2,75217,2,0,B|314:20|314:20|306:60|306:60|310:80,1,75.0000028610231,2|0,0:0|0:0,0:0:0:0:
446,166,75777,2,0,B|444:148|444:148|452:108|452:108|448:88,1,75.0000028610231,8|0,0:0|0:0,0:0:0:0:
327,260,76338,6,0,L|486:270,1,150.000005722046,4|8,0:0|0:0,0:0:0:0:
352,378,77179,1,0,0:0:0:0:
186,286,77460,2,0,P|228:254|236:147,1,150.000005722046,6|8,0:0|0:0,0:0:0:0:
155,21,78301,1,0,0:0:0:0:
73,164,78581,5,4,0:0:0:0:
186,286,78862,2,0,P|212:289|242:280,2,37.5000014305115,0|0|8,0:0|0:0|0:0,0:0:0:0:
289,157,79422,2,0,L|292:98,2,37.5000014305115,0|0|2,0:0|0:0|0:0,0:0:0:0:
446,207,79983,1,8,0:0:0:0:
358,346,80263,1,8,0:0:0:0:
358,346,80824,5,4,0:0:0:0:
193,328,81105,2,0,L|128:337,2,37.5000014305115,0|0|8,0:0|0:0|0:0,0:0:0:0:
288,193,81665,2,0,P|291:173|283:143,2,37.5000014305115,0|0|2,0:0|0:0|0:0,0:0:0:0:
124,171,82226,1,8,0:0:0:0:
173,13,82506,1,8,0:0:0:0:
173,13,83628,5,2,0:0:0:0:
211,280,84189,1,2,0:0:0:0:
423,114,84749,1,2,0:0:0:0:
