osu file format v14

[General]
AudioFilename: ruru.mp3
AudioLeadIn: 0
PreviewTime: 51105
Countdown: 0
SampleSet: Soft
StackLeniency: 0.7
Mode: 0
LetterboxInBreaks: 0
WidescreenStoryboard: 0

[Editor]
DistanceSpacing: 1.4
BeatDivisor: 4
GridSize: 8
TimelineZoom: 0.6999999

[Metadata]
Title:Lulu (tv-size)
TitleUnicode:ルル(tv-size)
Artist:Yakushimaru Etsuko
ArtistUnicode:やくしまるえつこ
Creator:Lyric
Version:Hard
Source:電波女と青春男
Tags:Denpa Onna to Seishun Otoko Electrowave Girl and Youthful Boy Light novel Buriki 入間人間 Hitoma Iruma ASCII Media Works 丹羽真 Niwa Makoto 藤和エリオ 藤和女々 Towa Touwa Erio Meme 御船流子 Mifune Ryuuko 前川 Maekawa 星宮社 Hoshimiya Yashiro ED ending TV Size tvsize
BeatmapID:888044
BeatmapSetID:409023

[Difficulty]
HPDrainRate:3
CircleSize:4
OverallDifficulty:5
ApproachRate:6
SliderMultiplier:1
SliderTickRate:1

[Events]
//Background and Video events
0,0,"TE9.jpg",0,0
//Break Periods
//Storyboard Layer 0 (Background)
//Storyboard Layer 1 (Fail)
//Storyboard Layer 2 (Pass)
//Storyboard Layer 3 (Foreground)
//Storyboard Sound Samples

[TimingPoints]
95,560.747663551402,4,2,1,13,1,0
1520,526.315789473684,4,2,1,13,1,0
2341,560.747663551402,4,2,1,13,1,0
3744,540.540540540541,4,2,1,13,1,0
4573,560.747663551402,4,2,1,13,1,0
6008,521.739130434783,4,2,1,13,1,0
6805,560.747663551402,4,2,1,13,1,0
8238,521.739130434783,4,2,1,13,1,0
9048,560.747663551402,4,2,1,13,1,0
12232,560.747663551402,4,2,1,13,1,0
12449,540.540540540541,4,2,1,13,1,0
13534,560.747663551402,4,2,1,13,1,0
16647,560.747663551402,4,2,1,13,1,0
16834,560.747663551402,4,2,1,13,1,0
18020,560.747663551402,4,2,1,13,1,0
20285,560.747663551402,4,2,1,13,1,0
21425,560.747663551402,4,2,1,13,1,0
21984,560.747663551402,4,2,1,13,1,0
22278,560.747663551402,4,2,1,13,1,0
22522,666.666666666667,4,2,1,13,1,0
23119,560.747663551402,4,2,1,13,1,0
24189,574.162679425837,4,2,1,13,1,0
25337,480,4,2,1,13,1,0
25847,517.241379310345,4,2,1,13,1,0
26444,560.747663551402,4,2,1,13,1,0
26852,560.747663551402,4,2,1,13,1,0
26992,560.747663551402,4,2,1,18,1,0
44936,-100,4,2,1,13,0,0
51664,-66.6666666666667,4,2,1,40,0,1
69608,-66.6666666666667,4,2,1,35,0,0

[Colours]
Combo1 : 64,168,0
Combo2 : 0,168,64
Combo3 : 0,64,168
Combo4 : 0,128,128

[HitObjects]
357,233,95,5,2,0:0:0:0:
357,233,1520,2,0,L|253:240,1,100
177,249,2341,5,2,0:0:0:0:
177,249,3744,2,0,P|153:202|170:137,1,100
221,107,4573,6,0,L|287:107,1,50,2|0,0:0|0:0,0:0:0:0:
349,92,5133,2,0,P|362:70|367:37,2,50,8|0|0,0:0|0:0|0:0,0:0:0:0:
328,186,6008,2,0,B|322:243|322:243|339:304,1,100
237,342,6805,6,0,L|171:340,1,50,2|0,0:0|0:0,0:0:0:0:
107,353,7365,2,0,P|79:358|46:382,2,50,8|0|0,0:0|0:0|0:0,0:0:0:0:
125,258,8238,2,0,P|107:208|55:179,1,100
20,93,9048,6,0,P|25:65|22:23,1,50,2|0,0:0|0:0,0:0:0:0:
100,15,9608,2,0,B|128:17|128:17|169:32|169:32|207:35,1,100,8|0,0:0|0:0,0:0:0:0:
217,110,10449,1,0,0:0:0:0:
274,58,10730,2,0,L|311:9,1,50,8|0,0:0|0:0,0:0:0:0:
342,109,11290,6,0,P|382:141|449:133,1,100,2|8,0:0|0:0,0:0:0:0:
508,8,12989,1,8,0:0:0:0:
453,158,13534,6,0,L|465:267,1,100,2|8,0:0|0:0,0:0:0:0:
435,332,14375,1,0,0:0:0:0:
360,304,14656,2,0,B|333:304|333:304|288:321|288:321|257:320,1,100,0|8,0:0|0:0,0:0:0:0:
205,264,15496,1,0,0:0:0:0:
134,301,15776,6,0,P|67:296|27:328,1,100,2|8,0:0|0:0,0:0:0:0:
40,311,18020,6,0,P|84:331|133:321,1,100,2|8,0:0|0:0,0:0:0:0:
310,352,19142,1,0,0:0:0:0:
240,218,19703,2,0,L|170:237,1,50,8|0,0:0|0:0,0:0:0:0:
240,218,20285,6,0,L|237:110,1,100,2|8,0:0|0:0,0:0:0:0:
361,16,21425,1,0,0:0:0:0:
237,118,21984,2,0,P|207:123|181:116,1,50,8|0,0:0|0:0,0:0:0:0:
138,55,22522,5,2,0:0:0:0:
18,124,23119,1,8,0:0:0:0:
77,239,23679,1,0,0:0:0:0:
107,356,24189,1,8,0:0:0:0:
107,356,24763,6,0,L|140:297,1,50,2|0,0:0|0:0,0:0:0:0:
164,232,25337,2,0,L|223:252,1,50,8|0,0:0|0:0,0:0:0:0:
254,322,25847,2,0,L|322:308,1,50
387,323,26444,1,0,0:0:0:0:
512,281,26992,1,0,0:0:0:0:
469,213,27272,6,0,L|473:148,2,50,0|8|0,0:0|0:0|0:0,0:0:0:0:
294,49,28394,2,0,P|323:54|361:42,2,50,0|8|0,0:0|0:0|0:0,0:0:0:0:
225,6,29235,5,2,0:0:0:0:
175,68,29516,2,0,L|182:139,1,50,0|8,0:0|0:0,0:0:0:0:
187,197,30077,1,0,0:0:0:0:
114,229,30357,2,0,L|10:231,1,100,0|8,0:0|0:0,0:0:0:0:
199,363,31478,6,0,P|209:310|248:277,1,100,2|8,0:0|0:0,0:0:0:0:
400,256,32600,1,0,0:0:0:0:
253,191,33161,2,0,P|255:165|276:132,1,50,8|0,0:0|0:0,0:0:0:0:
346,103,33721,6,0,P|280:108|178:105,1,150,2|0,0:0|0:0,0:0:0:0:
128,63,34843,1,0,0:0:0:0:
128,63,35404,1,8,0:0:0:0:
21,212,35964,6,0,L|48:275,1,50,2|0,0:0|0:0,0:0:0:0:
124,309,36525,2,0,L|126:252,1,50,8|0,0:0|0:0,0:0:0:0:
303,235,37366,1,0,0:0:0:0:
382,287,37647,1,8,0:0:0:0:
297,330,37927,1,0,0:0:0:0:
303,235,38207,6,0,B|298:220|305:211|305:211|341:189|342:141,1,100,2|8,0:0|0:0,0:0:0:0:
337,68,39048,1,0,0:0:0:0:
396,14,39329,2,0,P|417:47|401:115,1,100,0|8,0:0|0:0,0:0:0:0:
232,128,40450,5,2,0:0:0:0:
232,128,41291,2,0,P|245:103|247:70,2,50,0|0|0,0:0|0:0|0:0,0:0:0:0:
165,173,42133,2,0,L|105:162,1,50,8|0,0:0|0:0,0:0:0:0:
62,104,42693,5,2,0:0:0:0:
4,253,43254,1,8,0:0:0:0:
139,337,43815,1,0,0:0:0:0:
356,63,44936,6,0,L|350:121,1,50,2|8,0:0|0:0,0:0:0:0:
371,147,45357,1,0,0:0:0:0:
371,147,45497,2,0,L|376:209,1,50,8|0,0:0|0:0,0:0:0:0:
345,277,46058,1,0,0:0:0:0:
264,261,46338,1,8,0:0:0:0:
353,308,46619,1,8,0:0:0:0:
229,132,47179,6,0,L|167:120,1,50,2|8,0:0|0:0,0:0:0:0:
148,97,47600,1,0,0:0:0:0:
148,97,47740,2,0,L|154:163,1,50,8|0,0:0|0:0,0:0:0:0:
90,204,48301,1,0,0:0:0:0:
112,285,48581,1,8,0:0:0:0:
60,197,48862,1,8,0:0:0:0:
256,192,49422,12,0,51105,0:0:0:0:
57,210,51664,6,0,P|98:204|148:226,1,75.0000028610231,4|0,0:0|0:0,0:0:0:0:
209,284,52225,2,0,L|283:264,1,75.0000028610231,8|0,0:0|0:0,0:0:0:0:
229,163,52786,2,0,P|220:131|237:75,1,75.0000028610231,2|0,0:0|0:0,0:0:0:0:
328,50,53347,2,0,L|425:56,1,75.0000028610231,8|0,0:0|0:0,0:0:0:0:
485,123,53907,5,4,0:0:0:0:
355,305,54468,2,0,L|340:222,1,75.0000028610231,8|0,0:0|0:0,0:0:0:0:
228,223,55029,2,0,P|196:237|152:234,1,75.0000028610231,2|0,0:0|0:0,0:0:0:0:
125,211,55449,1,0,0:0:0:0:
125,211,55590,2,0,P|124:247|121:304,1,75.0000028610231,8|0,0:0|0:0,0:0:0:0:
10,189,56150,6,0,L|15:105,1,75.0000028610231,4|0,0:0|0:0,0:0:0:0:
4,4,56711,1,8,0:0:0:0:
105,52,56991,1,0,0:0:0:0:
213,21,57272,2,0,P|236:61|235:106,1,75.0000028610231,2|0,0:0|0:0,0:0:0:0:
177,177,57833,2,0,P|220:197|276:189,1,75.0000028610231,8|0,0:0|0:0,0:0:0:0:
338,141,58393,6,0,L|491:140,1,150.000005722046,4|8,0:0|0:0,0:0:0:0:
457,250,59234,2,0,L|508:255,2,37.5000014305115,0|0|2,0:0|0:0|0:0,0:0:0:0:
373,325,59795,2,0,L|401:364,2,37.5000014305115,0|0|8,0:0|0:0|0:0,0:0:0:0:
295,243,60356,1,0,0:0:0:0:
216,322,60636,6,0,P|167:330|120:307,1,75.0000028610231,4|0,0:0|0:0,0:0:0:0:
38,350,61197,2,0,L|57:263,1,75.0000028610231,8|0,0:0|0:0,0:0:0:0:
26,166,61758,2,0,L|120:175,1,75.0000028610231,2|0,0:0|0:0,0:0:0:0:
193,227,62318,1,8,0:0:0:0:
193,114,62599,1,0,0:0:0:0:
301,87,62879,6,0,L|297:9,2,75.0000028610231,4|0|8,0:0|0:0|0:0,0:0:0:0:
394,148,63720,2,0,L|439:133,2,37.5000014305115,0|0|2,0:0|0:0|0:0,0:0:0:0:
326,237,64281,2,0,L|363:259,1,37.5000014305115
393,261,64561,2,0,P|400:310|387:343,1,75.0000028610231,8|0,0:0|0:0,0:0:0:0:
284,370,65122,6,0,L|121:355,1,150.000005722046,4|8,0:0|0:0,0:0:0:0:
29,361,65963,1,0,0:0:0:0:
84,271,66244,2,0,P|99:237|94:178,1,75.0000028610231,2|0,0:0|0:0,0:0:0:0:
34,118,66805,2,0,P|35:80|50:46,1,75.0000028610231,8|0,0:0|0:0,0:0:0:0:
139,104,67365,6,0,P|188:111|286:77,1,150.000005722046,4|8,0:0|0:0,0:0:0:0:
281,80,68487,2,0,P|246:146|241:224,1,150.000005722046,2|8,0:0|0:0,0:0:0:0:
331,253,69328,1,0,0:0:0:0:
240,220,69608,6,0,L|201:154,1,75.0000028610231,4|0,0:0|0:0,0:0:0:0:
324,145,70169,2,0,L|402:137,1,75.0000028610231,8|0,0:0|0:0,0:0:0:0:
331,253,70730,1,2,0:0:0:0:
323,364,71010,2,0,L|356:387,2,37.5000014305115,0|0|8,0:0|0:0|0:0,0:0:0:0:
331,253,71571,1,0,0:0:0:0:
217,316,71851,6,0,L|113:308,1,75.0000028610231,4|0,0:0|0:0,0:0:0:0:
38,286,72412,2,0,B|49:252|49:252|44:189,1,75.0000028610231,8|0,0:0|0:0,0:0:0:0:
56,107,72973,1,2,0:0:0:0:
151,165,73253,2,0,L|192:180,1,37.5000014305115
225,214,73533,2,0,P|219:180|247:124,1,75.0000028610231,8|0,0:0|0:0,0:0:0:0:
210,36,74094,6,0,L|314:39,1,75.0000028610231,4|0,0:0|0:0,0:0:0:0:
340,132,74655,2,0,P|391:135|437:111,1,75.0000028610231,8|0,0:0|0:0,0:0:0:0:
510,79,75216,2,0,L|479:0,2,75.0000028610231,2|0|8,0:0|0:0|0:0,0:0:0:0:
500,190,76057,1,0,0:0:0:0:
412,127,76337,6,0,P|392:188|429:269,1,150.000005722046,4|8,0:0|0:0,0:0:0:0:
423,264,77459,2,0,P|383:240|281:255,1,150.000005722046,2|8,0:0|0:0,0:0:0:0:
284,252,78300,1,0,0:0:0:0:
346,359,78580,5,4,0:0:0:0:
223,353,78861,2,0,L|172:337,2,37.5000014305115,0|0|8,0:0|0:0|0:0,0:0:0:0:
175,230,79421,2,0,L|153:190,2,37.5000014305115,0|0|2,0:0|0:0|0:0,0:0:0:0:
258,145,79982,1,8,0:0:0:0:
258,145,80262,1,8,0:0:0:0:
258,145,80823,5,4,0:0:0:0:
161,87,81104,2,0,P|143:83|112:90,2,37.5000014305115,0|0|8,0:0|0:0|0:0,0:0:0:0:
77,179,81664,2,0,P|59:190|45:222,2,37.5000014305115,0|0|2,0:0|0:0|0:0,0:0:0:0:
111,289,82225,1,8,0:0:0:0:
111,289,82505,1,8,0:0:0:0:
440,192,83627,5,2,0:0:0:0:
288,104,84188,1,2,0:0:0:0:
288,280,84748,1,2,0:0:0:0:
