osu file format v14

[General]
AudioFilename: ruru.mp3
AudioLeadIn: 0
PreviewTime: 51105
Countdown: 0
SampleSet: Soft
StackLeniency: 0.7
Mode: 0
LetterboxInBreaks: 0
WidescreenStoryboard: 0

[Editor]
DistanceSpacing: 1.2
BeatDivisor: 4
GridSize: 8
TimelineZoom: 0.6999999

[Metadata]
Title:Lulu (tv-size)
TitleUnicode:ルル(tv-size)
Artist:Yakushimaru Etsuko
ArtistUnicode:やくしまるえつこ
Creator:Lyric
Version:Easy
Source:電波女と青春男
Tags:Denpa Onna to Seishun Otoko Electrowave Girl and Youthful Boy Light novel Buriki 入間人間 Hitoma Iruma ASCII Media Works 丹羽真 Niwa Makoto 藤和エリオ 藤和女々 Towa Touwa Erio Meme 御船流子 Mifune Ryuuko 前川 Maekawa 星宮社 Hoshimiya Yashiro ED ending TV Size tvsize
BeatmapID:888132
BeatmapSetID:409023

[Difficulty]
HPDrainRate:1
CircleSize:2
OverallDifficulty:2
ApproachRate:3
SliderMultiplier:0.8
SliderTickRate:1

[Events]
//Background and Video events
0,0,"TE9.jpg",0,0
//Break Periods
//Storyboard Layer 0 (Background)
//Storyboard Layer 1 (Fail)
//Storyboard Layer 2 (Pass)
//Storyboard Layer 3 (Foreground)
//Storyboard Sound Samples

[TimingPoints]
95,560.747663551402,4,2,1,13,1,0
1520,526.315789473684,4,2,1,13,1,0
2341,560.747663551402,4,2,1,13,1,0
3744,540.540540540541,4,2,1,13,1,0
4573,560.747663551402,4,2,1,13,1,0
6008,521.739130434783,4,2,1,13,1,0
6805,560.747663551402,4,2,1,13,1,0
8238,521.739130434783,4,2,1,13,1,0
9048,560.747663551402,4,2,1,13,1,0
12232,560.747663551402,4,2,1,13,1,0
12449,540.540540540541,4,2,1,13,1,0
13534,560.747663551402,4,2,1,13,1,0
16647,560.747663551402,4,2,1,13,1,0
16834,560.747663551402,4,2,1,13,1,0
18020,560.747663551402,4,2,1,13,1,0
20285,560.747663551402,4,2,1,13,1,0
21425,560.747663551402,4,2,1,13,1,0
21984,560.747663551402,4,2,1,13,1,0
22278,560.747663551402,4,2,1,13,1,0
22522,666.666666666667,4,2,1,13,1,0
23119,560.747663551402,4,2,1,13,1,0
24189,574.162679425837,4,2,1,13,1,0
25337,480,4,2,1,13,1,0
25847,517.241379310345,4,2,1,13,1,0
26444,560.747663551402,4,2,1,13,1,0
26852,560.747663551402,4,2,1,13,1,0
26992,560.747663551402,4,2,1,18,1,0
44936,-100,4,2,1,13,0,0
51664,-100,4,2,1,40,0,1
69608,-100,4,2,1,35,0,0

[Colours]
Combo1 : 64,168,0
Combo2 : 0,168,64
Combo3 : 0,64,168
Combo4 : 0,128,128

[HitObjects]
256,192,95,5,2,0:0:0:0:
491,238,1520,2,0,L|363:246,1,124.857142857143,0|2,0:0|0:0,0:0:0:0:
168,374,3744,1,0,0:0:0:0:
51,288,4573,6,0,B|44:239|44:211|44:211|70:176|114:134,1,160,2|0,0:0|0:0,0:0:0:0:
280,209,6805,2,0,P|358:214|425:150,1,160,2|0,0:0|0:0,0:0:0:0:
229,128,9048,6,0,P|184:200|230:289,1,160,2|0,0:0|0:0,0:0:0:0:
16,303,11290,2,0,L|47:211,1,80,2|0,0:0|0:0,0:0:0:0:
172,63,12989,1,0,0:0:0:0:
135,152,13534,6,0,B|82:127|76:73|76:73|43:64|-1:84,2,160,2|0|2,0:0|0:0|0:0,0:0:0:0:
172,63,16338,1,0,0:0:0:0:
441,25,18020,6,0,B|469:67|469:67|437:116|462:200,1,160,2|0,0:0|0:0,0:0:0:0:
502,256,19703,1,0,0:0:0:0:
431,321,20285,2,0,L|337:314,1,80,2|0,0:0|0:0,0:0:0:0:
268,364,21425,2,0,P|255:324|265:271,1,80
331,222,22522,5,2,0:0:0:0:
252,46,23679,1,0,0:0:0:0:
92,153,24763,2,0,P|54:136|28:98,1,80,2|0,0:0|0:0,0:0:0:0:
117,55,25847,1,0,0:0:0:0:
191,127,26444,1,0,0:0:0:0:
157,223,26992,5,2,0:0:0:0:
359,18,28675,1,0,0:0:0:0:
431,80,29235,2,0,L|508:62,2,80,2|0|0,0:0|0:0|0:0,0:0:0:0:
353,136,30918,1,0,0:0:0:0:
425,198,31478,6,0,L|445:292,2,80,2|0|0,0:0|0:0|0:0,0:0:0:0:
353,136,33161,1,0,0:0:0:0:
283,201,33721,2,0,B|253:217|217:211|217:211|171:224|145:291,1,160
170,367,35404,1,0,0:0:0:0:
79,335,35964,5,2,0:0:0:0:
105,48,37647,1,0,0:0:0:0:
143,135,38207,2,0,B|104:151|64:134|64:134|26:155|12:210,1,160,2|0,0:0|0:0,0:0:0:0:
100,240,39890,1,0,0:0:0:0:
193,219,40450,5,2,0:0:0:0:
316,144,41291,2,0,B|354:126|390:138|390:138|410:111|452:100,1,120
465,197,42693,2,0,L|474:284,2,80,2|0|0,0:0|0:0|0:0,0:0:0:0:
306,304,44936,6,0,P|248:311|203:288,2,80,2|0|0,0:0|0:0|0:0,0:0:0:0:
268,215,46619,1,0,0:0:0:0:
178,179,47179,2,0,L|88:200,2,80,2|0|0,0:0|0:0|0:0,0:0:0:0:
207,87,48862,1,0,0:0:0:0:
292,43,49422,6,0,B|330:58|388:45|388:45|357:112|357:112|366:141|366:141|359:199,1,240
320,266,51665,6,0,P|314:307|336:357,1,80,4|0,0:0|0:0,0:0:0:0:
410,298,52787,2,0,L|518:271,1,80,8|0,0:0|0:0,0:0:0:0:
451,189,53908,2,0,P|444:144|462:99,2,80,2|0|8,0:0|0:0|0:0,0:0:0:0:
487,278,55591,1,0,0:0:0:0:
391,269,56151,6,0,L|288:263,1,80,4|0,0:0|0:0,0:0:0:0:
216,282,57273,2,0,L|166:199,1,80,8|0,0:0|0:0,0:0:0:0:
228,133,58394,2,0,P|229:87|196:41,1,80,2|0,0:0|0:0,0:0:0:0:
135,112,59516,1,8,0:0:0:0:
47,72,60077,1,0,0:0:0:0:
57,167,60637,6,0,L|39:261,1,80,4|0,0:0|0:0,0:0:0:0:
5,334,61759,2,0,P|43:341|106:318,1,80,8|0,0:0|0:0,0:0:0:0:
160,275,62880,2,0,L|156:186,2,80,2|0|8,0:0|0:0|0:0,0:0:0:0:
226,343,64562,1,0,0:0:0:0:
302,284,65123,6,0,P|349:277|409:301,1,80,4|0,0:0|0:0,0:0:0:0:
448,352,66245,1,8,0:0:0:0:
473,259,66805,1,0,0:0:0:0:
405,191,67366,2,0,L|396:88,1,80,2|0,0:0|0:0,0:0:0:0:
435,22,68488,2,0,P|385:14|341:32,1,80,8|0,0:0|0:0,0:0:0:0:
304,102,69609,6,0,B|266:115|266:115|215:114,1,80,4|0,0:0|0:0,0:0:0:0:
132,91,70731,2,0,B|131:130|131:130|144:168,1,80,8|0,0:0|0:0,0:0:0:0:
107,257,71852,2,0,P|148:265|200:246,1,80,2|0,0:0|0:0,0:0:0:0:
268,209,72974,2,0,P|306:199|345:207,1,80,8|0,0:0|0:0,0:0:0:0:
402,284,74095,5,4,0:0:0:0:
307,295,74656,1,0,0:0:0:0:
268,209,75217,2,0,L|266:115,1,80,8|0,0:0|0:0,0:0:0:0:
199,59,76338,2,0,P|146:45|112:53,1,80,2|0,0:0|0:0,0:0:0:0:
45,107,77460,2,0,L|57:196,1,80,8|0,0:0|0:0,0:0:0:0:
46,281,78581,6,0,P|36:320|4:359,2,80,4|0|8,0:0|0:0|0:0,0:0:0:0:
134,242,80263,1,8,0:0:0:0:
215,292,80824,2,0,L|316:286,2,80,4|0|8,0:0|0:0|0:0,0:0:0:0:
134,242,82506,1,8,0:0:0:0:
296,139,83628,6,0,L|289:40,2,80,2|2|2,0:0|0:0|0:0,0:0:0:0:
