osu file format v14

[General]
AudioFilename: audio.mp3
AudioLeadIn: 0
PreviewTime: 54272
Countdown: 0
SampleSet: None
StackLeniency: 0.7
Mode: 1
LetterboxInBreaks: 0
WidescreenStoryboard: 0

[Editor]
Bookmarks: 83935
DistanceSpacing: 0.1
BeatDivisor: 3
GridSize: 32
TimelineZoom: 2.5

[Metadata]
Title:la la for you
TitleUnicode:la la for you
Artist:Yakushi Ruri
ArtistUnicode:薬師るり
Creator:yuzu__rinrin
Version:Oni
Source:猫忍えくすはーと
Tags:NEKO-NIN exHeart Whirlpool Visual Novel Eroge
BeatmapID:1782547
BeatmapSetID:852860

[Difficulty]
HPDrainRate:5
CircleSize:4
OverallDifficulty:5
ApproachRate:10
SliderMultiplier:1.4
SliderTickRate:1

[Events]
//Background and Video events
0,0,"neko.PNG",0,0
//Break Periods
//Storyboard Layer 0 (Background)
//Storyboard Layer 1 (Fail)
//Storyboard Layer 2 (Pass)
//Storyboard Layer 3 (Foreground)
//Storyboard Sound Samples

[TimingPoints]
340,337.078651685393,4,1,0,40,1,0
340,-133.333333333333,4,1,0,40,0,0
5733,-100,4,1,0,60,0,0
8429,-100,4,1,0,70,0,0
11126,-100,4,1,0,80,0,0
13823,-100,4,1,0,70,0,0
16519,-100,4,1,0,80,0,0
18542,-100,4,1,0,50,0,0
19216,-100,4,1,0,70,0,0
27306,-100,4,1,0,40,0,0
28486,-100,4,1,0,50,0,0
29497,-100,4,1,0,60,0,0
30002,-100,4,1,0,70,0,0
34047,-100,4,1,0,80,0,0
35396,-100,4,1,0,70,0,0
38092,-100,4,1,0,70,0,0
40789,-100,4,1,0,80,0,0
53598,-100,4,1,0,90,0,0
54272,-100,4,1,0,80,0,1
64722,-100,4,1,0,50,0,1
65059,-100,4,1,0,90,0,1
65733,-100,4,1,0,70,0,1
66070,-100,4,1,0,90,0,1
70115,-100,4,1,0,50,0,1
70452,-100,4,1,0,90,0,1
73148,-100,4,1,0,100,0,1
75845,-100,4,1,0,70,0,0
83935,-100,4,1,0,50,0,0
85171,-100,4,1,0,60,0,0

[Colours]
Combo1 : 211,170,5
Combo2 : 219,74,96
Combo3 : 103,20,152
Combo4 : 231,156,181

[HitObjects]
252,192,340,5,0,0:0:0:0:
252,192,677,1,8,0:0:0:0:
252,192,845,1,0,0:0:0:0:
252,192,1014,1,8,0:0:0:0:
252,192,1351,1,0,0:0:0:0:
252,192,1688,1,8,0:0:0:0:
252,192,1856,1,8,0:0:0:0:
252,192,2025,1,0,0:0:0:0:
252,192,2362,1,8,0:0:0:0:
252,192,2868,1,0,0:0:0:0:
256,192,3036,1,8,0:0:0:0:
256,192,3373,1,0,0:0:0:0:
256,192,3710,1,0,0:0:0:0:
256,192,3879,1,0,0:0:0:0:
256,192,4047,1,8,0:0:0:0:
256,192,4384,1,0,0:0:0:0:
256,192,4553,1,8,0:0:0:0:
256,192,4722,1,0,0:0:0:0:
256,192,5059,1,0,0:0:0:0:
256,192,5733,1,4,0:0:0:0:
256,192,6407,1,4,0:0:0:0:
256,192,7081,1,4,0:0:0:0:
256,192,7755,1,4,0:0:0:0:
256,192,8092,1,8,0:0:0:0:
256,192,8261,1,8,0:0:0:0:
256,192,8345,1,8,0:0:0:0:
256,192,8429,1,0,0:0:0:0:
256,192,8598,1,0,0:0:0:0:
256,192,8766,1,8,0:0:0:0:
256,192,8935,1,0,0:0:0:0:
256,192,9019,1,0,0:0:0:0:
256,192,9104,1,0,0:0:0:0:
256,192,9272,1,0,0:0:0:0:
256,192,9441,1,8,0:0:0:0:
256,192,9609,1,0,0:0:0:0:
256,192,9778,1,8,0:0:0:0:
256,192,9946,1,0,0:0:0:0:
256,192,10031,1,0,0:0:0:0:
256,192,10115,1,0,0:0:0:0:
256,192,10283,1,8,0:0:0:0:
256,192,10452,1,8,0:0:0:0:
256,192,10536,1,8,0:0:0:0:
256,192,10620,1,0,0:0:0:0:
256,192,10789,1,0,0:0:0:0:
256,192,10957,1,8,0:0:0:0:
256,192,11126,1,0,0:0:0:0:
256,192,11295,1,0,0:0:0:0:
256,192,11463,1,12,0:0:0:0:
256,192,11800,1,0,0:0:0:0:
256,192,11969,1,0,0:0:0:0:
256,192,12137,1,12,0:0:0:0:
256,192,12474,1,8,0:0:0:0:
256,192,12643,1,0,0:0:0:0:
256,192,12811,1,8,0:0:0:0:
256,192,12980,1,0,0:0:0:0:
256,192,13148,1,0,0:0:0:0:
256,192,13233,1,0,0:0:0:0:
256,192,13317,1,0,0:0:0:0:
256,192,13486,1,8,0:0:0:0:
256,192,13654,1,8,0:0:0:0:
256,192,13823,1,4,0:0:0:0:
256,192,13991,1,8,0:0:0:0:
256,192,14075,1,8,0:0:0:0:
256,192,14160,1,0,0:0:0:0:
256,192,14328,1,8,0:0:0:0:
256,192,14665,1,8,0:0:0:0:
256,192,14834,1,0,0:0:0:0:
256,192,15002,1,8,0:0:0:0:
256,192,15087,1,8,0:0:0:0:
256,192,15171,1,8,0:0:0:0:
256,192,15339,1,0,0:0:0:0:
256,192,15508,1,8,0:0:0:0:
256,192,15677,1,8,0:0:0:0:
256,192,15761,1,8,0:0:0:0:
256,192,15845,1,0,0:0:0:0:
256,192,15929,1,0,0:0:0:0:
256,192,16014,1,8,0:0:0:0:
256,192,16182,1,0,0:0:0:0:
256,192,16351,1,8,0:0:0:0:
256,192,16519,1,4,0:0:0:0:
256,192,16688,1,4,0:0:0:0:
256,192,17025,1,4,0:0:0:0:
256,192,17193,1,4,0:0:0:0:
256,192,17531,1,12,0:0:0:0:
256,192,17699,1,12,0:0:0:0:
256,192,18542,12,0,19047,0:0:0:0:
256,192,19216,5,0,0:0:0:0:
256,192,19553,1,8,0:0:0:0:
256,192,19722,1,0,0:0:0:0:
256,192,19890,1,8,0:0:0:0:
256,192,20059,1,0,0:0:0:0:
256,192,20143,1,0,0:0:0:0:
256,192,20227,1,8,0:0:0:0:
256,192,20396,1,8,0:0:0:0:
256,192,20564,1,0,0:0:0:0:
256,192,20901,1,8,0:0:0:0:
256,192,21070,1,0,0:0:0:0:
256,192,21238,1,8,0:0:0:0:
256,192,21407,1,0,0:0:0:0:
256,192,21491,1,8,0:0:0:0:
256,192,21575,1,8,0:0:0:0:
256,192,21744,1,8,0:0:0:0:
256,192,21913,1,0,0:0:0:0:
256,192,22250,1,8,0:0:0:0:
256,192,22418,1,0,0:0:0:0:
256,192,22587,1,8,0:0:0:0:
256,192,22755,1,8,0:0:0:0:
256,192,22839,1,0,0:0:0:0:
256,192,22924,1,0,0:0:0:0:
256,192,23092,1,8,0:0:0:0:
256,192,23261,1,0,0:0:0:0:
256,192,23429,1,8,0:0:0:0:
256,192,23766,1,8,0:0:0:0:
256,192,23851,1,0,0:0:0:0:
256,192,23935,1,0,0:0:0:0:
256,192,24104,1,0,0:0:0:0:
256,192,24272,1,8,0:0:0:0:
256,192,24609,1,0,0:0:0:0:
256,192,24946,1,8,0:0:0:0:
256,192,25115,1,0,0:0:0:0:
256,192,25283,1,8,0:0:0:0:
256,192,25452,1,0,0:0:0:0:
256,192,25536,1,0,0:0:0:0:
256,192,25620,1,8,0:0:0:0:
256,192,25789,1,8,0:0:0:0:
256,192,25957,1,0,0:0:0:0:
288,192,26295,1,8,0:0:0:0:
288,192,26463,1,0,0:0:0:0:
288,192,26632,1,8,0:0:0:0:
288,192,26800,1,0,0:0:0:0:
288,192,26884,1,8,0:0:0:0:
288,192,26969,1,8,0:0:0:0:
288,192,27137,1,8,0:0:0:0:
288,192,27306,1,0,0:0:0:0:
288,192,27643,1,8,0:0:0:0:
288,192,27811,1,0,0:0:0:0:
288,192,27980,1,0,0:0:0:0:
288,192,28148,1,0,0:0:0:0:
288,192,28317,1,8,0:0:0:0:
288,192,28486,1,8,0:0:0:0:
288,192,28823,1,8,0:0:0:0:
288,192,28991,1,8,0:0:0:0:
288,192,29497,1,12,0:0:0:0:
288,192,29666,1,12,0:0:0:0:
288,192,30002,1,0,0:0:0:0:
288,192,30339,1,8,0:0:0:0:
288,192,30508,1,0,0:0:0:0:
288,192,30677,1,8,0:0:0:0:
288,192,30845,1,0,0:0:0:0:
288,192,30929,1,0,0:0:0:0:
288,192,31014,1,8,0:0:0:0:
288,192,31182,1,8,0:0:0:0:
288,192,31351,1,0,0:0:0:0:
288,192,31519,1,0,0:0:0:0:
288,192,31604,1,8,0:0:0:0:
288,192,31688,1,0,0:0:0:0:
288,192,31856,1,8,0:0:0:0:
288,192,32025,1,8,0:0:0:0:
288,192,32109,1,8,0:0:0:0:
288,192,32193,1,0,0:0:0:0:
288,192,32278,1,0,0:0:0:0:
288,192,32362,1,8,0:0:0:0:
288,192,32531,1,8,0:0:0:0:
288,192,32699,1,0,0:0:0:0:
288,192,33036,1,8,0:0:0:0:
288,192,33205,1,0,0:0:0:0:
288,192,33373,1,8,0:0:0:0:
288,192,33542,1,8,0:0:0:0:
288,192,33626,1,0,0:0:0:0:
288,192,33710,1,0,0:0:0:0:
288,192,33879,1,0,0:0:0:0:
288,192,34047,1,12,0:0:0:0:
288,192,34216,1,8,0:0:0:0:
288,192,34300,1,8,0:0:0:0:
288,192,34384,1,0,0:0:0:0:
288,192,34553,1,0,0:0:0:0:
288,192,34637,1,0,0:0:0:0:
288,192,34722,1,8,0:0:0:0:
288,192,34890,1,0,0:0:0:0:
288,192,35059,1,8,0:0:0:0:
288,192,35143,1,8,0:0:0:0:
288,192,35227,1,0,0:0:0:0:
288,192,35311,1,0,0:0:0:0:
288,192,35396,1,0,0:0:0:0:
288,192,35733,1,0,0:0:0:0:
288,192,35901,1,0,0:0:0:0:
288,192,35986,1,0,0:0:0:0:
288,192,36070,1,8,0:0:0:0:
288,192,36238,1,0,0:0:0:0:
288,192,36407,1,8,0:0:0:0:
288,192,36491,1,8,0:0:0:0:
288,192,36575,1,0,0:0:0:0:
288,192,36744,1,0,0:0:0:0:
288,192,36913,1,0,0:0:0:0:
288,192,36997,1,0,0:0:0:0:
288,192,37081,1,8,0:0:0:0:
288,192,37250,1,0,0:0:0:0:
288,192,37418,1,8,0:0:0:0:
288,192,37502,1,8,0:0:0:0:
288,192,37587,1,0,0:0:0:0:
288,192,37671,1,0,0:0:0:0:
288,192,37755,1,8,0:0:0:0:
288,192,37924,1,0,0:0:0:0:
288,192,38092,1,4,0:0:0:0:
320,192,38429,1,8,0:0:0:0:
320,192,38598,1,4,0:0:0:0:
352,192,38935,1,0,0:0:0:0:
352,192,39104,1,8,0:0:0:0:
384,192,39272,1,4,0:0:0:0:
320,192,39609,1,8,0:0:0:0:
320,192,39778,1,0,0:0:0:0:
352,192,39946,1,8,0:0:0:0:
352,192,40115,1,0,0:0:0:0:
352,192,40199,1,0,0:0:0:0:
352,192,40283,1,8,0:0:0:0:
352,192,40368,1,0,0:0:0:0:
352,192,40452,1,8,0:0:0:0:
352,192,40536,1,8,0:0:0:0:
352,192,40620,1,8,0:0:0:0:
352,192,40789,1,0,0:0:0:0:
352,192,40957,1,0,0:0:0:0:
352,192,41042,1,0,0:0:0:0:
352,192,41126,1,8,0:0:0:0:
352,192,41295,1,0,0:0:0:0:
352,192,41379,1,0,0:0:0:0:
352,192,41463,1,8,0:0:0:0:
352,192,41632,1,0,0:0:0:0:
352,192,41800,1,8,0:0:0:0:
352,192,41969,1,8,0:0:0:0:
352,192,42306,1,8,0:0:0:0:
352,192,42362,1,8,0:0:0:0:
352,192,42418,1,8,0:0:0:0:
352,192,42474,1,0,0:0:0:0:
352,192,42643,1,8,0:0:0:0:
352,192,42811,1,0,0:0:0:0:
352,192,42980,1,0,0:0:0:0:
352,192,43148,1,8,0:0:0:0:
352,192,43317,1,8,0:0:0:0:
352,192,43486,1,0,0:0:0:0:
352,192,43823,1,8,0:0:0:0:
352,192,43991,1,4,0:0:0:0:
352,192,44328,1,4,0:0:0:0:
352,192,44665,1,4,0:0:0:0:
352,192,45002,1,0,0:0:0:0:
352,192,45171,1,8,0:0:0:0:
352,192,45339,1,0,0:0:0:0:
352,192,45508,1,0,0:0:0:0:
352,192,45761,1,8,0:0:0:0:
352,192,46014,1,8,0:0:0:0:
352,192,46182,1,0,0:0:0:0:
352,192,46351,1,0,0:0:0:0:
352,192,46435,1,0,0:0:0:0:
352,192,46519,1,8,0:0:0:0:
352,192,46688,1,0,0:0:0:0:
352,192,46772,1,0,0:0:0:0:
352,192,46856,1,8,0:0:0:0:
352,192,47025,1,0,0:0:0:0:
352,192,47109,1,0,0:0:0:0:
352,192,47193,1,8,0:0:0:0:
352,192,47362,1,8,0:0:0:0:
352,192,47531,1,0,0:0:0:0:
352,192,47699,1,0,0:0:0:0:
352,192,47783,1,0,0:0:0:0:
352,192,47868,1,8,0:0:0:0:
352,192,48036,1,0,0:0:0:0:
352,192,48120,1,0,0:0:0:0:
352,192,48205,1,8,0:0:0:0:
352,192,48373,1,0,0:0:0:0:
352,192,48457,1,0,0:0:0:0:
352,192,48542,1,8,0:0:0:0:
352,192,48626,1,8,0:0:0:0:
352,192,48710,1,0,0:0:0:0:
352,192,48879,1,8,0:0:0:0:
352,192,49047,1,0,0:0:0:0:
352,192,49216,1,8,0:0:0:0:
352,192,49384,1,0,0:0:0:0:
352,192,49469,1,0,0:0:0:0:
352,192,49553,1,8,0:0:0:0:
352,192,49722,1,0,0:0:0:0:
352,192,49890,1,12,0:0:0:0:
352,192,50143,1,8,0:0:0:0:
352,192,50227,1,0,0:0:0:0:
352,192,50396,1,0,0:0:0:0:
352,192,50564,1,8,0:0:0:0:
352,192,50733,1,0,0:0:0:0:
352,192,50817,1,0,0:0:0:0:
352,192,50901,1,8,0:0:0:0:
352,192,51070,1,0,0:0:0:0:
352,192,51238,1,12,0:0:0:0:
352,192,51575,1,4,0:0:0:0:
384,192,52081,1,0,0:0:0:0:
384,192,52165,1,0,0:0:0:0:
384,192,52249,1,8,0:0:0:0:
352,192,52755,1,0,0:0:0:0:
384,192,52924,1,8,0:0:0:0:
384,192,53092,1,0,0:0:0:0:
384,192,53177,1,0,0:0:0:0:
384,192,53261,1,8,0:0:0:0:
384,192,53429,1,8,0:0:0:0:
384,192,53514,1,0,0:0:0:0:
384,192,53598,1,8,0:0:0:0:
384,192,53766,1,0,0:0:0:0:
384,192,53851,1,0,0:0:0:0:
384,192,53935,1,8,0:0:0:0:
384,192,54019,1,8,0:0:0:0:
384,192,54104,1,8,0:0:0:0:
384,192,54272,1,4,0:0:0:0:
384,192,54441,1,0,0:0:0:0:
384,192,54525,1,0,0:0:0:0:
384,192,54609,1,8,0:0:0:0:
384,192,54778,1,0,0:0:0:0:
384,192,54946,1,8,0:0:0:0:
384,192,55031,1,8,0:0:0:0:
384,192,55115,1,0,0:0:0:0:
384,192,55199,1,0,0:0:0:0:
384,192,55283,1,8,0:0:0:0:
384,192,55452,1,0,0:0:0:0:
384,192,55620,1,8,0:0:0:0:
384,192,55705,1,8,0:0:0:0:
384,192,55789,1,0,0:0:0:0:
384,192,55957,1,8,0:0:0:0:
384,192,56126,1,0,0:0:0:0:
384,192,56295,1,8,0:0:0:0:
384,192,56632,1,8,0:0:0:0:
384,192,56800,1,0,0:0:0:0:
384,192,56884,1,0,0:0:0:0:
384,192,56969,1,8,0:0:0:0:
384,192,57137,1,0,0:0:0:0:
384,192,57306,1,8,0:0:0:0:
384,192,57474,1,0,0:0:0:0:
384,192,57643,1,8,0:0:0:0:
384,192,57727,1,8,0:0:0:0:
384,192,57811,1,0,0:0:0:0:
384,192,57896,1,0,0:0:0:0:
384,192,57980,1,8,0:0:0:0:
384,192,58148,1,0,0:0:0:0:
384,192,58317,1,8,0:0:0:0:
384,192,58486,1,0,0:0:0:0:
384,192,58570,1,8,0:0:0:0:
384,192,58654,1,0,0:0:0:0:
384,192,58823,1,0,0:0:0:0:
384,192,58991,1,8,0:0:0:0:
384,192,59328,1,0,0:0:0:0:
384,192,59413,1,0,0:0:0:0:
384,192,59497,1,8,0:0:0:0:
384,192,59581,1,8,0:0:0:0:
384,192,59665,1,0,0:0:0:0:
384,192,59834,1,0,0:0:0:0:
384,192,60002,1,8,0:0:0:0:
384,192,60171,1,0,0:0:0:0:
384,192,60255,1,8,0:0:0:0:
384,192,60339,1,0,0:0:0:0:
384,192,60508,1,0,0:0:0:0:
384,192,60677,1,8,0:0:0:0:
384,192,60845,1,8,0:0:0:0:
384,192,60929,1,8,0:0:0:0:
384,192,61014,1,8,0:0:0:0:
384,192,61182,1,0,0:0:0:0:
384,192,61351,1,8,0:0:0:0:
384,192,61435,1,0,0:0:0:0:
384,192,61519,1,0,0:0:0:0:
384,192,61604,1,0,0:0:0:0:
384,192,61688,1,8,0:0:0:0:
384,192,62025,1,8,0:0:0:0:
384,192,62193,1,0,0:0:0:0:
384,192,62278,1,0,0:0:0:0:
384,192,62362,1,0,0:0:0:0:
384,192,62531,1,0,0:0:0:0:
384,192,62699,1,8,0:0:0:0:
384,192,62868,1,8,0:0:0:0:
384,192,62952,1,8,0:0:0:0:
384,192,63036,1,0,0:0:0:0:
384,192,63205,1,0,0:0:0:0:
384,192,63373,1,8,0:0:0:0:
384,192,63542,1,0,0:0:0:0:
384,192,63626,1,8,0:0:0:0:
384,192,63710,1,0,0:0:0:0:
384,192,63879,1,0,0:0:0:0:
384,192,64047,1,8,0:0:0:0:
384,192,64132,1,8,0:0:0:0:
384,192,64216,1,0,0:0:0:0:
384,192,64300,1,0,0:0:0:0:
384,192,64384,1,8,0:0:0:0:
384,192,64722,1,8,0:0:0:0:
384,192,64778,1,8,0:0:0:0:
384,192,64834,1,8,0:0:0:0:
384,192,64890,1,0,0:0:0:0:
384,192,64974,1,0,0:0:0:0:
384,192,65059,1,8,0:0:0:0:
384,192,65227,1,0,0:0:0:0:
384,192,65396,1,8,0:0:0:0:
384,192,65564,1,0,0:0:0:0:
384,192,65733,1,8,0:0:0:0:
384,192,65817,1,0,0:0:0:0:
384,192,65901,1,8,0:0:0:0:
384,192,65986,1,0,0:0:0:0:
384,192,66070,1,8,0:0:0:0:
384,192,66323,1,0,0:0:0:0:
384,192,66407,1,8,0:0:0:0:
384,192,66575,1,0,0:0:0:0:
384,192,66744,1,8,0:0:0:0:
384,192,66913,1,0,0:0:0:0:
384,192,67081,1,0,0:0:0:0:
384,192,67165,1,0,0:0:0:0:
384,192,67250,1,8,0:0:0:0:
384,192,67334,1,8,0:0:0:0:
384,192,67418,1,0,0:0:0:0:
384,192,67502,1,0,0:0:0:0:
384,192,67587,1,0,0:0:0:0:
384,192,67671,1,0,0:0:0:0:
384,192,67755,1,8,0:0:0:0:
384,192,67924,1,0,0:0:0:0:
416,192,68092,1,8,0:0:0:0:
416,192,68261,1,0,0:0:0:0:
416,192,68429,1,8,0:0:0:0:
416,192,68514,1,0,0:0:0:0:
384,192,68598,1,8,0:0:0:0:
384,192,68682,1,0,0:0:0:0:
384,192,68766,1,8,0:0:0:0:
416,192,68851,1,8,0:0:0:0:
416,192,68935,1,8,0:0:0:0:
416,192,69019,1,8,0:0:0:0:
416,192,69104,1,8,0:0:0:0:
416,192,69272,1,0,0:0:0:0:
416,192,69441,1,8,0:0:0:0:
416,192,69609,1,0,0:0:0:0:
416,192,69778,1,8,0:0:0:0:
416,192,69862,1,8,0:0:0:0:
416,192,69946,1,0,0:0:0:0:
416,192,70031,1,0,0:0:0:0:
416,192,70115,1,8,0:0:0:0:
416,192,70171,1,8,0:0:0:0:
416,192,70227,1,8,0:0:0:0:
416,192,70283,1,0,0:0:0:0:
416,192,70368,1,0,0:0:0:0:
416,192,70452,1,8,0:0:0:0:
416,192,70620,1,0,0:0:0:0:
416,192,70789,1,8,0:0:0:0:
416,192,70957,1,0,0:0:0:0:
416,192,71042,1,0,0:0:0:0:
416,192,71126,1,8,0:0:0:0:
416,192,71295,1,8,0:0:0:0:
416,192,71463,1,0,0:0:0:0:
416,192,71632,1,8,0:0:0:0:
416,192,71716,1,8,0:0:0:0:
416,192,71800,1,0,0:0:0:0:
416,192,71884,1,0,0:0:0:0:
416,192,71969,1,0,0:0:0:0:
416,192,72137,1,0,0:0:0:0:
416,192,72306,1,8,0:0:0:0:
416,192,72474,1,8,0:0:0:0:
416,192,72643,1,0,0:0:0:0:
416,192,72727,1,0,0:0:0:0:
416,192,72811,1,8,0:0:0:0:
416,192,72980,1,8,0:0:0:0:
416,192,73064,1,8,0:0:0:0:
416,192,73148,1,0,0:0:0:0:
416,192,73317,1,0,0:0:0:0:
416,192,73401,1,0,0:0:0:0:
416,192,73486,1,8,0:0:0:0:
416,192,73654,1,0,0:0:0:0:
416,192,73738,1,0,0:0:0:0:
416,192,73823,1,8,0:0:0:0:
416,192,73991,1,0,0:0:0:0:
416,192,74075,1,0,0:0:0:0:
416,192,74160,1,8,0:0:0:0:
416,192,74328,1,8,0:0:0:0:
416,192,74497,1,0,0:0:0:0:
416,192,74665,1,8,0:0:0:0:
416,192,74750,1,8,0:0:0:0:
416,192,74834,1,0,0:0:0:0:
416,192,75002,1,0,0:0:0:0:
416,192,75087,1,0,0:0:0:0:
416,192,75171,1,8,0:0:0:0:
416,192,75339,1,0,0:0:0:0:
416,192,75508,1,8,0:0:0:0:
416,192,75592,1,8,0:0:0:0:
416,192,75677,1,0,0:0:0:0:
416,192,75761,1,0,0:0:0:0:
416,192,75845,1,0,0:0:0:0:
416,192,76014,1,0,0:0:0:0:
416,192,76182,1,8,0:0:0:0:
416,192,76519,1,8,0:0:0:0:
416,192,76688,1,0,0:0:0:0:
416,192,76856,1,8,0:0:0:0:
416,192,77193,1,8,0:0:0:0:
416,192,77362,1,0,0:0:0:0:
416,192,77446,1,0,0:0:0:0:
416,192,77531,1,0,0:0:0:0:
416,192,77699,1,0,0:0:0:0:
416,192,77868,1,8,0:0:0:0:
416,192,77952,1,8,0:0:0:0:
416,192,78036,1,0,0:0:0:0:
416,192,78120,1,0,0:0:0:0:
416,192,78205,1,8,0:0:0:0:
416,192,78373,1,8,0:0:0:0:
416,192,78542,1,0,0:0:0:0:
416,192,78710,1,0,0:0:0:0:
416,192,78879,1,8,0:0:0:0:
416,192,79216,1,8,0:0:0:0:
416,192,79384,1,0,0:0:0:0:
416,192,79553,1,8,0:0:0:0:
416,192,79722,1,8,0:0:0:0:
416,192,79806,1,8,0:0:0:0:
416,192,79890,1,0,0:0:0:0:
416,192,80059,1,0,0:0:0:0:
416,192,80227,1,8,0:0:0:0:
416,192,80396,1,0,0:0:0:0:
416,192,80564,1,8,0:0:0:0:
416,192,80648,1,0,0:0:0:0:
416,192,80733,1,8,0:0:0:0:
416,192,80817,1,8,0:0:0:0:
416,192,80901,1,0,0:0:0:0:
416,192,81070,1,8,0:0:0:0:
416,192,81238,1,0,0:0:0:0:
416,192,81407,1,0,0:0:0:0:
416,192,81575,1,8,0:0:0:0:
448,192,81913,1,8,0:0:0:0:
448,192,82081,1,0,0:0:0:0:
416,192,82250,1,8,0:0:0:0:
416,192,82418,1,8,0:0:0:0:
416,192,82502,1,8,0:0:0:0:
416,192,82587,1,0,0:0:0:0:
416,192,82755,1,8,0:0:0:0:
416,192,82839,1,8,0:0:0:0:
416,192,82924,1,0,0:0:0:0:
416,192,83092,1,8,0:0:0:0:
416,192,83261,1,0,0:0:0:0:
416,192,83345,1,0,0:0:0:0:
416,192,83429,1,8,0:0:0:0:
416,192,83514,1,8,0:0:0:0:
416,192,83598,1,0,0:0:0:0:
416,192,83766,1,8,0:0:0:0:
256,192,83935,12,0,84946,0:0:0:0:
288,224,85171,5,0,0:0:0:0:
288,224,85283,1,0,0:0:0:0:
